Skip to menu

본문시작



?

Shortcut

PrevPrev Article

NextNext Article

Larger Font Smaller Font Up Down Go comment Print Attachment
?

Shortcut

PrevPrev Article

NextNext Article

Larger Font Smaller Font Up Down Go comment Print Attachment

안녕하세요, 비트레이트 관련 글 검색해서 다 읽어봤지만 해결이 안되서 글 남깁니다 ㅠ

 

20191108_103005.png

 

원본 파일 비트레이트가 30000이면 똑같이 30000으로 인코딩 하고 싶어서 설정에서 똑같이 비트레이트를 설정해봐도 결과물 보면 비트레이트가 18000입니다.

 

왜 그런 걸까요?? 비트레이트 설정값이 평균값이라는데...

 

비트레이트 똑같이 인코딩 하는 방법이 있을까요??

 

Format                                   : MPEG-4
Format profile                           : Base Media / Version 2
Codec ID                                 : mp42 (isom/mp41/avc1)
File size                                : 17.6 GiB
Duration                                 : 1 h 23 min
Overall bit rate mode                    : Variable
Overall bit rate                         : 30.3 Mb/s
Encoded date                             : UTC 2019-06-15 08:13:10
Tagged date                              : UTC 2019-06-15 08:13:10
Writing library                          : Apple QuickTime

Video
ID                                       : 1
Format                                   : AVC
Format/Info                              : Advanced Video Codec
Format profile                           : High@L4.1
Format settings, CABAC                   : Yes
Format settings, ReFrames                : 2 frames
Codec ID                                 : avc1
Codec ID/Info                            : Advanced Video Coding
Duration                                 : 1 h 23 min
Source duration                          : 1 h 23 min
Bit rate                                 : 30.0 Mb/s
Width                                    : 1 920 pixels
Height                                   : 1 080 pixels
Display aspect ratio                     : 16:9
Frame rate mode                          : Constant
Frame rate                               : 29.970 (30000/1001) FPS
Color space                              : YUV
Chroma subsampling                       : 4:2:0
Bit depth                                : 8 bits
Scan type                                : Progressive
Bits/(Pixel*Frame)                       : 0.483
Stream size                              : 17.4 GiB (99%)
Source stream size                       : 17.4 GiB (99%)
Language                                 : English
Encoded date                             : UTC 2019-06-15 08:13:10
Tagged date                              : UTC 2019-06-15 08:13:10
Color range                              : Limited
Color primaries                          : BT.709
Transfer characteristics                 : BT.709
Matrix coefficients                      : BT.709
mdhd_Duration                            : 4986048

Audio
ID                                       : 2
Format                                   : AAC
Format/Info                              : Advanced Audio Codec
Format profile                           : LC
Codec ID                                 : 40
Duration                                 : 1 h 23 min
Bit rate mode                            : Variable
Bit rate                                 : 320 kb/s
Maximum bit rate                         : 326 kb/s
Channel(s)                               : 2 channels
Channel positions                        : Front: L R
Sampling rate                            : 48.0 kHz
Frame rate                               : 46.875 FPS (1024 spf)
Compression mode                         : Lossy
Stream size                              : 190 MiB (1%)
Language                                 : English
Encoded date                             : UTC 2019-06-15 08:13:10
Tagged date                              : UTC 2019-06-15 08:13:10

Other #1
ID                                       : 3
Type                                     : Object description
Format                                   : System Core
Codec ID                                 : 2
Duration                                 : 1 h 23 min
Language                                 : English
Encoded date                             : UTC 2019-06-15 08:13:10
Tagged date                              : UTC 2019-06-15 08:13:10
mdhd_Duration                            : 1000

Other #2
ID                                       : 4
Type                                     : Scene description
Format                                   : System Core
Codec ID                                 : 2
Duration                                 : 1 h 23 min
Language                                 : English
Encoded date                             : UTC 2019-06-15 08:13:10
Tagged date                              : UTC 2019-06-15 08:13:10
mdhd_Duration                            : 1000

 

 

^ 위 정보가 원본 파일이고

 

 

 

 

 

 

 

1080AVC (2).mpeg
Format                                   : MPEG-PS
File size                                : 11.5 GiB
Duration                                 : 1 h 23 min
Overall bit rate mode                    : Variable
Overall bit rate                         : 19.8 Mb/s

Video
ID                                       : 224 (0xE0)
Format                                   : MPEG Video
Format version                           : Version 2
Format profile                           : Main@High
Format settings, BVOP                    : No
Format settings, Matrix                  : Default
Format settings, GOP                     : Variable
Duration                                 : 1 h 23 min
Bit rate mode                            : Variable
Bit rate                                 : 19.1 Mb/s
Width                                    : 1 920 pixels
Height                                   : 1 080 pixels
Display aspect ratio                     : 16:9
Frame rate                               : 29.970 (30000/1001) FPS
Color space                              : YUV
Chroma subsampling                       : 4:2:0
Bit depth                                : 8 bits
Scan type                                : Progressive
Compression mode                         : Lossy
Bits/(Pixel*Frame)                       : 0.307
Time code of first frame                 : 00:00:00:00
Time code source                         : Group of pictures header
GOP, Open/Closed                         : Open
GOP, Open/Closed of first frame          : Closed
Stream size                              : 11.1 GiB (96%)

Audio
ID                                       : 192 (0xC0)
Format                                   : MPEG Audio
Format version                           : Version 1
Format profile                           : Layer 2
Duration                                 : 1 h 23 min
Bit rate mode                            : Constant
Bit rate                                 : 320 kb/s
Channel(s)                               : 2 channels
Sampling rate                            : 48.0 kHz
Compression mode                         : Lossy
Stream size                              : 190 MiB (2%)
 

 

이게 출력 파일입니다.

 

출력 파일 형식은 mpeg2로 해야 하거든요 ㅠ

 

 

고수님들 도와주세요  ㅠ

 

 

Atachment
Attachment '1'
Facebook Twitter Pinterest Kakao

List of Articles
No. Subject Author Last Update Views Votes
Notice [알림] 질문하시기 전에 지켜주셨으면 하는 것들 2 file JKyle 2019.09.17 1449 1
Notice [알림] 질문 먹튀하지 마시기 바랍니다 12 JKyle 2020.01.18 4210 3
1943 인코딩 기록 보기에 단축키를 만들어 주세요. 2 냥바 2019.11.18 53 0
1942 컴업글 했는데 인코딩 속도가 크게는 안나네요 RTFM 2019.11.17 412 0
1941 선명하게할수없을까요? 1 교육생 2019.11.17 491 0
1940 제안 - GPU 인코딩 시에 GPU 점유율을 좀 더 높이면 좋겠습니다. 1 잌명잌명 2019.11.17 683 0
1939 인코딩 목록에서.. 1 katya 2019.11.17 47 0
1938 asf형식wmv파일 인코딩시 녹색화면 질문드립니다 2 file deeperdark 2019.11.16 124 0
1937 [도와주세요!] 코덱ID를 변경하는 방법이 있나요? (isom -> mp42) 1 강치 2019.11.15 130 0
1936 인코딩을 했는데 자막인식이 안되요! 2 file yhj1110203 2019.11.12 258 0
1935 deband 필터랑 gradfun 필터 차이가 뭔가요? 2 ndh 2019.11.09 324 0
» 비트레이트 똑같이 인코딩하는데 결과물 보면 비트레이트가 낮게 나오는데요 file 풀딱글루 2019.11.08 703 0
1933 루비태그 관련 질문 합니당 !! 2 오유 2019.11.07 12183 0
1932 이 태그를 쓰면 옆으로가버리는데 위로 올리는법은 없나요 ? 1 file 장마 2019.11.07 168 0
1931 ffv1코덱은 비트레이트 변경을 못하나요? 1 Howkeen 2019.11.07 127 0
1930 인코딩 후 재생 중 에러발생. 1 노바디 2019.11.07 435 0
1929 S10 5G HDR모드 인코딩 문의ㅠㅠ 1 낭낭샤나짱 2019.11.07 184 0
1928 안녕하세요. 인코딩이 안 되어 문의드려요ㅠㅠ 1 file 낭낭샤나짱 2019.11.07 139 0
1927 h265 -> h264 인코딩하는데 오류가 뜹니다. 1 곰돌맨 2019.11.05 559 0
1926 알파값(투명)이 있는 영상을 인코딩을 한 영상은 알파값이 없어집니다 ㅠ 7 file 피리아 2019.11.05 347 0
1925 인코딩시 자막 인식이 안돼요 8 file 유나 2019.11.04 526 0
1924 [급]항상 고생많으십니다 오류문의 하나만 부탁드리겠습니다 ㅠ 1 보라카이 2019.11.04 82 0
Board Pagination Prev 1 2 3 4 5 6 7 8 9 10 ... 103 Next
/ 103