Skip to menu

본문시작

방문자

Total : 8,499,744
today : 3,316
yesterday : 12,596

Pageview

Total : 50,424,714
today : 13,467
yesterday : 74,176


Views 325 Votes 0 Comment 6
?

Shortcut

PrevPrev Article

NextNext Article

Larger Font Smaller Font Up Down Go comment Print
?

Shortcut

PrevPrev Article

NextNext Article

Larger Font Smaller Font Up Down Go comment Print

퀼리티가 24 넘어가면 인코딩 안 하는게 좋겠죠?

  • ?
    sSTSs 2019.10.30 11:55

    코덱이 뭔지 알려주셔야 합니다. 그리고 원본에 따라 다릅니다.

     

    H264(x264) 디폴트 crf는 23이지만 원본에 따라 24, 25 넘게 줘도 결과가 괜찮게 나오는 것들도 있습니다.

    HEVC(x265) 디폴트 crf는 28이므로 아마 x265 얘기하시는 건 아닐 것 같기는 하군요.

     

  • ?
    주파수사 2019.10.30 14:18
    Format : MPEG-4
    Format profile : Base Media
    Codec ID : isom (mp41)
    File size : 6.26 GiB
    Duration : 2 h 48 min
    Overall bit rate mode : Variable
    Overall bit rate : 5 330 kb/s
    Encoded date : UTC 2016-08-03 16:31:40
    Tagged date : UTC 2016-08-03 16:31:40
    Writing application : BandiMp4Muxer 1.0

    Video
    ID : 1
    Format : AVC
    Format/Info : Advanced Video Codec
    Format profile : Main@L4.2
    Format settings : CABAC / 1 Ref Frames
    Format settings, CABAC : Yes
    Format settings, Reference frames : 1 frame
    Format settings, GOP : M=1, N=30
    Codec ID : avc1
    Codec ID/Info : Advanced Video Coding
    Duration : 2 h 48 min
    Bit rate : 5 126 kb/s
    Width : 1 920 pixels
    Height : 1 080 pixels
    Display aspect ratio : 16:9
    Frame rate mode : Variable
    Frame rate : 29.503 FPS
    Minimum frame rate : 11.998 FPS
    Maximum frame rate : 60.060 FPS
    Original frame rate : 60.000 FPS
    Color space : YUV
    Chroma subsampling : 4:2:0
    Bit depth : 8 bits
    Scan type : Progressive
    Bits/(Pixel*Frame) : 0.084
    Stream size : 6.02 GiB (96%)
    Language : English
    Encoded date : UTC 2016-08-03 16:31:40
    Tagged date : UTC 2016-08-03 16:31:40
    Codec configuration box : avcC
    ---------------------------------------------------------------
    Format : Matroska
    Format version : Version 2
    File size : 6.23 GiB
    Duration : 2 h 29 min
    Overall bit rate mode : Variable
    Overall bit rate : 5 948 kb/s
    Writing application : libmatroska 1.3.0
    Writing library : SolveigMM Matroska Muxer Version 1.0.1208.20

    Video
    ID : 1
    Format : AVC
    Format/Info : Advanced Video Codec
    Format profile : Main@L4
    Format settings : CABAC / 3 Ref Frames
    Format settings, CABAC : Yes
    Format settings, Reference frames : 3 frames
    Format settings, GOP : M=3, N=60
    Codec ID : V_MPEG4/ISO/AVC
    Duration : 2 h 29 min
    Bit rate mode : Variable
    Nominal bit rate : 5 744 kb/s
    Maximum bit rate : 5 744 kb/s
    Width : 1 920 pixels
    Height : 1 080 pixels
    Display aspect ratio : 16:9
    Frame rate mode : Constant
    Frame rate : 29.970 (29970/1000) FPS
    Color space : YUV
    Chroma subsampling : 4:2:0
    Bit depth : 8 bits
    Scan type : Progressive
    Bits/(Pixel*Frame) : 0.092
    Writing library : x264 core 142 r2409M+r890[x86] release1
    Encoding settings : cabac=1 / ref=3 / deblock=1:1:1 / analyse=0x1:0x111 / me=hex / subme=6 / psy=1 / fade_compensate=0.00 / psy_rd=0.50:0.00 / mixed_ref=0 / me_range=16 / chroma_me=1 / trellis=0 / 8x8dct=0 / cqm=0 / deadzone=21,11 / fast_pskip=0 / chroma_qp_offset=-2 / threads=12 / lookahead_threads=2 / sliced_threads=0 / nr=0 / decimate=0 / interlaced=0 / bluray_compat=0 / constrained_intra=0 / fgo=0 / bframes=2 / b_pyramid=0 / b_adapt=1 / b_bias=0 / direct=3 / weightb=1 / open_gop=0 / weightp=1 / keyint=60 / keyint_min=31 / scenecut=0 / intra_refresh=0 / rc_lookahead=10 / rc=cbr / mbtree=1 / bitrate=5744 / ratetol=1.0 / qcomp=0.60 / qpmin=5 / qpmax=69 / qpstep=4 / vbv_maxrate=5744 / vbv_bufsize=12000 / nal_hrd=vbr / filler=0 / ip_ratio=1.40 / aq=1:1.00
    Language : English
    Default : No
    Forced : No
    Color range : Limited
    Matrix coefficients : BT.709
    -----------------------------------------------------
    Format : MPEG-4
    Format profile : Base Media
    Codec ID : isom (isom/iso2/avc1/mp41)
    File size : 6.68 GiB
    Duration : 2 h 55 min
    Overall bit rate mode : Variable
    Overall bit rate : 5 451 kb/s
    Writing application : ShanaEncoder

    Video
    ID : 1
    Format : AVC
    Format/Info : Advanced Video Codec
    Format profile : Main@L4.2
    Format settings : CABAC / 1 Ref Frames
    Format settings, CABAC : Yes
    Format settings, Reference frames : 1 frame
    Format settings, GOP : M=1, N=30
    Codec ID : avc1
    Codec ID/Info : Advanced Video Coding
    Duration : 2 h 55 min
    Bit rate : 5 399 kb/s
    Width : 1 920 pixels
    Height : 1 080 pixels
    Display aspect ratio : 16:9
    Frame rate mode : Variable
    Frame rate : 29.636 FPS
    Minimum frame rate : 11.988 FPS
    Maximum frame rate : 60.241 FPS
    Original frame rate : 60.000 FPS
    Color space : YUV
    Chroma subsampling : 4:2:0
    Bit depth : 8 bits
    Scan type : Progressive
    Bits/(Pixel*Frame) : 0.088
    Stream size : 6.61 GiB (99%)
    Codec configuration box : avcC
  • ?
    주파수사 2019.10.30 14:19
    파일정보 올렸은데요 조금이나마 어떤지 알려주시면 감사하겠습니다
  • ?
    sSTSs 2019.10.31 08:33

    음... 이건 원래 질문하신 것과 상관없는 것 아닌가요?

     

    어쨌든, 미디어인포를 보니 첫 번째 것은 반디캠으로 화면 녹화한 것, 두 번째 것은 릴 버전을 솔베이그로 컷한 영상, 세 번째 것은 샤나인코더로 인코딩한 영상 같은데, 셋 다 같은 종류(남자들은 다 아는 그런 동영상)로 짐작되는군요.

     

    근데 보여주신 미디어인포는 인코딩에 참고가 될 뿐이지 최종적인 기준은 아닙니다. 반드시 원본을 보면서 확인해야 됩니다.

    똑같은 인코딩 설정이 적용된 H.264 영상이라도 퀄리티 모드로 재인코딩해 보면 비트레이트가 다 제각각입니다. 이건 화질 기준으로 인코딩한다면 원본에 따라 결과가 다 달라진다는 걸 의미합니다.

    그런 이유 때문에 화질 보존이 목적인 재인코딩이라면 원본을 보면서 확인해야 된다고 말씀드리는 겁니다.

     

    그리고 재인코딩을 생각한다면 질문이 상당히 광범위해집니다. 제대로 하려면 원본 보면서 확인해야 하는 것은 물론, 좀 더 욕심을 내 고유 옵션 설정까지 추가적으로 해야 해서 상당히 복잡해지죠.

    어쨌든 고유 옵션(샤나인코더의 경우 '고급 설정')을 제외하고도 아래와 같은 단계를 거치셔야 합니다.

     

    1) 코덱은 무엇으로 할 것인가? H264 vs HEVC

    2) 해상도를 기반으로 프로파일을 선택 (8비트 FHD이므로 H.264는 high, HEVC은 main)

    3) 퀄리티 모드로 할 것인가, 비트레이트 모드로 할 것인가

    4) 프리셋은 무엇으로 할 것인가? 대개 본인 컴 성능에 따라 medium, slow, slower 중 택일

    5) 퀄리티, 비트레이트 둘 중 하나의 모드를 선택해서 시험 삼아 crf나 비트레이트 값을 선택한 후, 일단 어두운 부분을 구간 설정해서 부분 인코딩 ⇒ 뭉개짐(blurring), 떡짐(banding), 계단 현상(aliasing)이나 깍두기 현상(blocking) 등 결함이 없는지 확인하고 결함이 있다면 crf는 줄이고 비트레이트는 늘려서 다시 한 번 반복

    6) 최종적으로 선택한 crf나 비트레이트 값으로 인코딩 진행

     

    여기에다가 H264(x264)와 HEVC(x265) 각각의 고유 옵션까지 추가로 설정하고, 미진한 부분에 대해 필터까지 적용한다면 문제가 상당히 복잡해지죠.

     

    1)~6)의 과정을 일단 해보세요.

  • ?
    주파수사 2019.10.31 10:45
    답장 감사합니다 :)
    컴. 성능이 않좋아서 다 하고싶은데
    퀼리티만 24주고
    오디오 복사후
    나머진 그대로 두고 인코딩했습니다

    감사합니다 :-)
  • ?
    주파수사 2019.10.30 14:27
    코덱은 h264 사용합니다

List of Articles
No. Subject Author Date Views Votes
Notice [알림] 질문하시기 전에 지켜주셨으면 하는 것들 2 file sSTSs 2019.09.16 752 1
Notice [알림] 질문 먹튀하지 마시기 바랍니다 9 sSTSs 2018.10.12 3610 2
Notice 자유게시판에서는 자유롭게 글을 올리고 질문 및 답변을 할 수 있는 공간입니다. 1 샤나 2017.03.13 2505 0
1931 fps 120짜리 영상을 만들어야 하는데 프레임이 손실됩니다. new dhkdrj 2019.11.11 60 0
1930 비트레이트 똑같이 인코딩하는데 결과물 보면 비트레이트가 낮게 나오는데요 file 풀딱글루 2019.11.08 372 0
1929 sub/idx자막이 안되는데 따로 설정해야하는게 있나요? 2 Kong_z 2019.11.07 126 0
1928 S10 5G HDR모드 인코딩 문의ㅠㅠ 1 낭낭샤나짱 2019.11.06 86 0
1927 ffv1코덱은 비트레이트 변경을 못하나요? 1 Howkeen 2019.11.06 71 0
1926 h265 -> h264 인코딩하는데 오류가 뜹니다. 1 곰돌맨 2019.11.05 330 0
1925 인코딩 후 재생 중 에러발생. 1 노바디 2019.11.05 239 0
1924 인코딩시 자막 인식이 안돼요 8 file 유나 2019.10.31 409 0
1923 알파값(투명)이 있는 영상을 인코딩을 한 영상은 알파값이 없어집니다 ㅠ 7 file 피리아 2019.10.31 217 0
1922 병합모드 설정시 코덱.오디오.영상사이즈 5 주파수사 2019.10.29 263 0
» 간단한 . 퀼리티 질문합니다 6 주파수사 2019.10.29 325 0
1920 인코딩 후 소리가 나오지 않습니다!! 5 file 쿙쿙 2019.10.29 543 0
1919 핸드폰으로 동영상을 옮기면 오디오가 안나와요 1 가람 2019.10.28 305 0
1918 4.9.0.6 버전으로 업데이트 이후 목록 정렬순서가 바뀌네요.. 4 가성비킹 2019.10.27 190 0
1917 확실히 파스칼기반 그래픽카드보다 튜링이 h265 nvenc인코딩이 확연히 느리군요... 2 Lucifer 2019.10.25 361 0
1916 파일 목록의 추가된 것들을 선택하여 병합하기 질문, 혹은 건의 2 이승우 2019.10.25 107 0
1915 인코딩후 소리가 살짝 작아지는것같습니다. 1 file 때봉이 2019.10.25 271 0
1914 여러개 동영상파일에 구간설정 방법 2 엘비라 2019.10.24 151 0
1913 mp4 인코딩 후 아이폰에서 재생 시 오디오가 안나와요 5 미쓰리 2019.10.24 227 0
1912 용량이 반으로 줄어드는데 이건 왜 그런거에요..? 1 엔젤 2019.10.24 404 0
Board Pagination Prev 1 2 3 4 5 6 7 8 9 10 ... 97 Next
/ 97