Skip to menu

본문시작

방문자

Total : 7,849,885
today : 8,386
yesterday : 11,247

Pageview

Total : 46,555,133
today : 45,919
yesterday : 68,435


Views 125 Votes 0 Comment 1
?

Shortcut

PrevPrev Article

NextNext Article

Larger Font Smaller Font Up Down Go comment Print
?

Shortcut

PrevPrev Article

NextNext Article

Larger Font Smaller Font Up Down Go comment Print

파일의 bit depth가 몇인지 어떻게 알 수 있나요? 파일정보에도 bit depth가 없네요. 이것 때문에 인코딩을 10비트로 해야하는지 8비트로 해야하는지 모르겠어요.

 

 

Video

Count                                    : 334

Count of stream of this kind             : 1

Kind of stream                           : Video

Kind of stream                           : Video

Stream identifier                        : 0

StreamOrder                              : 0

ID                                       : 2

ID                                       : 2

Format                                   : VC-1

Commercial name                          : VC-1

Format profile                           : AP@L3

Internet media type                      : video/vc1

Codec ID                                 : WVC1

Codec ID/Hint                            : Microsoft

Description of the codec                 : Windows Media Video 9 Advanced Profile

Codec                                    : WVC1

Codec                                    : VC-1

Codec/Family                             : VC-1

Codec/Info                               : Microsoft

Codec/CC                                 : WVC1

Codec description                        : Windows Media Video 9 Advanced Profile

Duration                                 : 11136503

Duration                                 : 3 h 5 min

Duration                                 : 3 h 5 min 36 s 503 ms

Duration                                 : 3 h 5 min

Duration                                 : 03:05:36.503

Duration                                 : 03:05:36;15

Duration                                 : 03:05:36.503 (03:05:36;15)

Bit rate                                 : 5744000

Bit rate                                 : 5 744 kb/s

Width                                    : 1920

Width                                    : 1 920 pixels

Height                                   : 1080

Height                                   : 1 080 pixels

Pixel aspect ratio                       : 1.000

Display aspect ratio                     : 1.778

Display aspect ratio                     : 16:9

Frame rate                               : 29.970

Frame rate                               : 29.970 (29970/1000) FPS

FrameRate_Num                            : 29970

FrameRate_Den                            : 1000

Frame count                              : 333761

Compression mode                         : Lossy

Compression mode                         : Lossy

Bits/(Pixel*Frame)                       : 0.092

Stream size                              : 7996009154

Stream size                              : 7.45 GiB (95%)

Stream size                              : 7 GiB

Stream size                              : 7.4 GiB

Stream size                              : 7.45 GiB

Stream size                              : 7.447 GiB

Stream size                              : 7.45 GiB (95%)

Proportion of this stream                : 0.95360

  • ?
    Nickname 2019.05.13 13:10

    8 bit입니다.

    (WMV는 8 bit만 지원, 10 bit 이상 지원 X)


List of Articles
No. Subject Author Date Views Votes
Notice 中国用户们,请阅读一下这个帖子(중국 유저분들에게 보내는 메시지) 2 구름미르 2019.05.14 1884 1
Notice [알림] 질문 먹튀하지 마시기 바랍니다 9 sSTSs 2018.10.12 3201 2
Notice 자유게시판에서는 자유롭게 글을 올리고 질문 및 답변을 할 수 있는 공간입니다. 1 샤나 2017.03.13 2432 0
1766 저화질 깍두기 노이즈 흐림 현상 관련 코딩 알려주세요. 2 덜자란어른 2019.05.12 437 0
1765 A_TRUEHD 오디오 Copy 인코딩시 에러 확인 5 능소화 2019.05.12 257 0
» VC1 포맷의 wmv 파일 bit depth 어떻게 확인하나요? 1 snowingpark 2019.05.12 125 0
1763 오디오 싱크 맞추기 1 asdasd 2019.05.11 389 0
1762 nvenc 사용시 cpu말고 그래픽카드만 100% 사용하게 할 수 없나요? 1 라면깡 2019.05.09 622 0
1761 pc사양좋은데 인코딩속도가 안나와요ㅠㅠ 6 울빠르 2019.05.07 1444 0
1760 QSV질문드립니다. 1 감기조심 2019.05.07 268 0
1759 45기가 인코딩 질문합니다 2 주파수사 2019.05.06 344 0
1758 프레임 드랍 관련 문제 질문드립니다 파이어 2019.05.06 187 0
1757 关于无损剪切HEVC的问题请教下是怎么回事? 4 szjcfar 2019.05.04 563 0
1756 초보의 동영상 인코딩 질문입니다.!ㅜ 4 ahffkz 2019.05.04 831 0
1755 한 파일만 인코딩이 안되요,,, 2 file 베키 2019.05.03 528 0
1754 인코딩 시간 지연 해결방법 문의드립니다. 2 file 파수꾼25 2019.05.03 432 0
1753 언젠가 샤나인코더에서도 루비태그 지원할 예정인가요? 날라가 2019.05.02 194 0
1752 mkv 파일을 mp4로 변환해서 베가스에서 편집하려는데 영상에서 삐~소리만 나네요. 킹스섻 2019.04.30 397 0
1751 기록보기에서 에러 질문이요 1 이진영 2019.04.29 381 0
1750 MP4나 MOV로는 고정 프레임레이트로 인코딩이 불가능한가요? 1 file 펜타네스트 2019.04.27 451 0
1749 삼성 tv로 동영상시청하려고합니다 2 file 닉없다 2019.04.26 652 0
1748 B-Frames 수치 문의 1 미르 2019.04.24 205 0
1747 샤나인코더 고급설정 이렇게 했는데 단점이라던가 있을까요? 5 file 날라가 2019.04.23 714 0
Board Pagination Prev 1 ... 3 4 5 6 7 8 9 10 11 12 ... 96 Next
/ 96