Skip to menu

본문시작



Views 166 Votes 0 Comment 1
?

Shortcut

PrevPrev Article

NextNext Article

Larger Font Smaller Font Up Down Go comment Print
?

Shortcut

PrevPrev Article

NextNext Article

Larger Font Smaller Font Up Down Go comment Print

파일의 bit depth가 몇인지 어떻게 알 수 있나요? 파일정보에도 bit depth가 없네요. 이것 때문에 인코딩을 10비트로 해야하는지 8비트로 해야하는지 모르겠어요.

 

 

Video

Count                                    : 334

Count of stream of this kind             : 1

Kind of stream                           : Video

Kind of stream                           : Video

Stream identifier                        : 0

StreamOrder                              : 0

ID                                       : 2

ID                                       : 2

Format                                   : VC-1

Commercial name                          : VC-1

Format profile                           : AP@L3

Internet media type                      : video/vc1

Codec ID                                 : WVC1

Codec ID/Hint                            : Microsoft

Description of the codec                 : Windows Media Video 9 Advanced Profile

Codec                                    : WVC1

Codec                                    : VC-1

Codec/Family                             : VC-1

Codec/Info                               : Microsoft

Codec/CC                                 : WVC1

Codec description                        : Windows Media Video 9 Advanced Profile

Duration                                 : 11136503

Duration                                 : 3 h 5 min

Duration                                 : 3 h 5 min 36 s 503 ms

Duration                                 : 3 h 5 min

Duration                                 : 03:05:36.503

Duration                                 : 03:05:36;15

Duration                                 : 03:05:36.503 (03:05:36;15)

Bit rate                                 : 5744000

Bit rate                                 : 5 744 kb/s

Width                                    : 1920

Width                                    : 1 920 pixels

Height                                   : 1080

Height                                   : 1 080 pixels

Pixel aspect ratio                       : 1.000

Display aspect ratio                     : 1.778

Display aspect ratio                     : 16:9

Frame rate                               : 29.970

Frame rate                               : 29.970 (29970/1000) FPS

FrameRate_Num                            : 29970

FrameRate_Den                            : 1000

Frame count                              : 333761

Compression mode                         : Lossy

Compression mode                         : Lossy

Bits/(Pixel*Frame)                       : 0.092

Stream size                              : 7996009154

Stream size                              : 7.45 GiB (95%)

Stream size                              : 7 GiB

Stream size                              : 7.4 GiB

Stream size                              : 7.45 GiB

Stream size                              : 7.447 GiB

Stream size                              : 7.45 GiB (95%)

Proportion of this stream                : 0.95360

Facebook Twitter Pinterest Kakao

List of Articles
No. Subject Author Last Update Views Votes
Notice [필독] 질문 전에 이 사항들을 꼭 지켜주십시오 2 file JKyle 2020.02.05 1675 2
Notice [알림] 질문 먹튀하지 마시기 바랍니다 13 JKyle 2020.02.13 4433 4
1676 NVENC 기술은 6 weather 2019.05.16 1242 0
1675 인코딩시 자막 인식이 안되는데... 노구라 2019.05.16 487 0
1674 녹화한 그림 방송 인코딩에 대해서 궁금한 것이 있습니다. 1 xiryl 2019.05.15 182 0
1673 혹시 샤나인코더 정식 중국어판도 있나요..?? 구름미르 2019.05.14 317 0
1672 저화질 깍두기 노이즈 흐림 현상 관련 코딩 알려주세요. 2 덜자란어른 2019.05.14 615 0
1671 K9 RVIP3.8 차량에서 영상좀 보고 싶어서 인코딩하려고 합니다 도와주세요 ㅠ 1 안정 2019.05.14 344 0
» VC1 포맷의 wmv 파일 bit depth 어떻게 확인하나요? 1 snowingpark 2019.05.13 166 0
1669 샤나로 인코딩과 재생 속도? joannes 2019.05.13 343 0
1668 병합하기 아쉬운점 임메당 ㅠ.ㅠ .ㅠㅠ 4 도라에몽 2019.05.12 648 0
1667 프레임 드랍 관련 문제 질문드립니다 파이어 2019.05.06 254 0
1666 한 파일만 인코딩이 안되요,,, 2 file 베키 2019.05.03 551 0
1665 언젠가 샤나인코더에서도 루비태그 지원할 예정인가요? 날라가 2019.05.02 212 0
1664 mkv 파일을 mp4로 변환해서 베가스에서 편집하려는데 영상에서 삐~소리만 나네요. 킹스섻 2019.04.30 639 0
1663 MP4나 MOV로는 고정 프레임레이트로 인코딩이 불가능한가요? 1 file 펜타네스트 2019.04.27 549 0
1662 B-Frames 수치 문의 1 미르 2019.04.25 231 0
1661 TV에 USB연결해서 영상보기전에 인코딩 설정 도움구해봅니다(사진) 1 file manner0 2019.04.24 709 0
1660 구글포토 동영상 업로드시 최대 화질로 업로드하고 싶은데.. 5 이익며멍 2019.04.23 589 0
1659 rtx시리즈로 인코딩하시는 분들 만족하시나요? 4 HS 2019.04.22 673 0
1658 h.264 확장자 mp4파일을 앞부분만 잘라내고 영상, 음성 모두 스트림 복사로 인코딩 했는데요. 자브잡자 2019.04.18 462 0
1657 인코딩 할 시에 영상안에 있는 음성 언어 선택이 안 됩니다. 2 file 샤나인코더러브 2019.04.17 411 0
Board Pagination Prev 1 ... 16 17 18 19 20 21 22 23 24 25 ... 104 Next
/ 104