Skip to menu

본문시작



질문하기 전에 검색하세요(Search before asking a question)


?

Shortcut

PrevPrev Article

NextNext Article

Larger Font Smaller Font Up Down Go comment Print
?

Shortcut

PrevPrev Article

NextNext Article

Larger Font Smaller Font Up Down Go comment Print

팟플레이어 재생은 정상적으로 재생이 되는데

에디우스 타임라인에서는 한 프레임씩 재생되는것 처럼 뚝 뚝 뚝 뚝 끊기면서 재생이 되는 현상이 있습니다

프로젝트 세팅은 1920x1080 59.94p입니다.

샤나로 형식 코덱 바꿔가며 이것저것 다 인코딩해봤는데 고쳐지질 않네요ㅜㅜ

 

무엇이 문제일까요??? 도와주세요!!

 

해당 파일 정보입니다.

====================================================================================

General

Complete name                            : D:\6_LOL장면검색\20210202_롤인코딩 테스트\20150718_LOL_FULL.M2T

Format                                   : MPEG-PS

File size                                : 70.8 GiB

Duration                                 : 5 h 31 min

Overall bit rate mode                    : Constant

Overall bit rate                         : 30.6 Mb/s

FileExtension_Invalid                    : mpeg mpg m2p vob vro pss evo

 

Video

ID                                       : 224 (0xE0)

Format                                   : MPEG Video

Commercial name                          : HDV 720p

Format version                           : Version 2

Format profile                           : Main@High

Format settings                          : BVOP

Format settings, BVOP                    : Yes

Format settings, Matrix                  : Default

Format settings, GOP                     : M=3, N=15

Duration                                 : 5 h 31 min

Bit rate mode                            : Constant

Bit rate                                 : 29.8 Mb/s

Maximum bit rate                         : 15.0 Mb/s

Width                                    : 1 280 pixels

Height                                   : 720 pixels

Display aspect ratio                     : 16:9

Frame rate                               : 29.970 (30000/1001) FPS

Color space                              : YUV

Chroma subsampling                       : 4:2:0

Bit depth                                : 8 bits

Scan type                                : Progressive

Scan order                               : Bottom Field First

Compression mode                         : Lossy

Bits/(Pixel*Frame)                       : 1.078

Time code of first frame                 : 00:00:00:00

Time code source                         : Group of pictures header

GOP, Open/Closed                         : Open

GOP, Open/Closed of first frame          : Closed

Stream size                              : 68.9 GiB (97%)

 

Audio

ID                                       : 192 (0xC0)

Format                                   : MPEG Audio

Format version                           : Version 1

Format profile                           : Layer 2

Duration                                 : 5 h 31 min

Bit rate mode                            : Constant

Bit rate                                 : 192 kb/s

Channel(s)                               : 2 channels

Sampling rate                            : 48.0 kHz

Frame rate                               : 41.667 FPS (1152 SPF)

Compression mode                         : Lossy

Delay relative to video                  : -11 ms

Stream size                              : 455 MiB (1%)

 

 

 

자세한 정보

 

General

Count                                    : 332

Count of stream of this kind             : 1

Kind of stream                           : General

Kind of stream                           : General

Stream identifier                        : 0

Count of video streams                   : 1

Count of audio streams                   : 1

Video_Format_List                        : MPEG Video

Video_Format_WithHint_List               : MPEG Video

Codecs Video                             : MPEG Video

Audio_Format_List                        : MPEG Audio

Audio_Format_WithHint_List               : MPEG Audio

Audio codecs                             : MPEG Audio

Complete name                            : D:\6_LOL장면검색\20210202_롤인코딩 테스트\20150718_LOL_FULL.M2T

Folder name                              : D:\6_LOL장면검색\20210202_롤인코딩 테스트

File name extension                      : 20150718_LOL_FULL.M2T

File name                                : 20150718_LOL_FULL

File extension                           : M2T

Format                                   : MPEG-PS

Format                                   : MPEG-PS

Format/Extensions usually used           : mpeg mpg m2p vob vro pss evo

Commercial name                          : MPEG-PS

Internet media type                      : video/MP2P

File size                                : 76013821952

File size                                : 70.8 GiB

File size                                : 71 GiB

File size                                : 71 GiB

File size                                : 70.8 GiB

File size                                : 70.79 GiB

Duration                                 : 19891364

Duration                                 : 5 h 31 min

Duration                                 : 5 h 31 min 31 s 364 ms

Duration                                 : 5 h 31 min

Duration                                 : 05:31:31.364

Duration                                 : 05:31:31;06

Duration                                 : 05:31:31.364 (05:31:31;06)

Overall bit rate mode                    : CBR

Overall bit rate mode                    : Constant

Overall bit rate                         : 30571588

Overall bit rate                         : 30.6 Mb/s

Frame rate                               : 29.970

Frame rate                               : 29.970 FPS

Frame count                              : 596140

Stream size                              : 1513192831

Stream size                              : 1.41 GiB (2%)

Stream size                              : 1 GiB

Stream size                              : 1.4 GiB

Stream size                              : 1.41 GiB

Stream size                              : 1.409 GiB

Stream size                              : 1.41 GiB (2%)

Proportion of this stream                : 0.01991

File creation date                       : UTC 2021-02-02 08:29:37.726

File creation date (local)               : 2021-02-02 17:29:37.726

File last modification date              : UTC 2015-07-18 13:27:43.697

File last modification date (local)      : 2015-07-18 22:27:43.697

FileExtension_Invalid                    : mpeg mpg m2p vob vro pss evo

 

Video

Count                                    : 378

Count of stream of this kind             : 1

Kind of stream                           : Video

Kind of stream                           : Video

Stream identifier                        : 0

StreamOrder                              : 0

FirstPacketOrder                         : 0

ID                                       : 224

ID                                       : 224 (0xE0)

Format                                   : MPEG Video

Format                                   : MPEG Video

Commercial name                          : HDV 720p

Commercial name                          : HDV 720p

Format version                           : Version 2

Format profile                           : Main@High

Format settings                          : BVOP

Format settings, BVOP                    : Yes

Format settings, BVOP                    : Yes

Format settings, Matrix                  : Default

Format settings, Matrix                  : Default

Format settings, GOP                     : M=3, N=15

Internet media type                      : video/MPV

Duration                                 : 19891238

Duration                                 : 5 h 31 min

Duration                                 : 5 h 31 min 31 s 238 ms

Duration                                 : 5 h 31 min

Duration                                 : 05:31:31.238

Duration                                 : 05:31:11:10

Duration                                 : 05:31:31.238 (05:31:11:10)

Bit rate mode                            : CBR

Bit rate mode                            : Constant

Bit rate                                 : 29771213

Bit rate                                 : 29.8 Mb/s

Maximum bit rate                         : 15000000

Maximum bit rate                         : 15.0 Mb/s

Width                                    : 1280

Width                                    : 1 280 pixels

Height                                   : 720

Height                                   : 720 pixels

Sampled_Width                            : 1280

Sampled_Height                           : 720

Pixel aspect ratio                       : 1.000

Display aspect ratio                     : 1.778

Display aspect ratio                     : 16:9

Frame rate                               : 29.970

Frame rate                               : 29.970 (30000/1001) FPS

FrameRate_Num                            : 30000

FrameRate_Den                            : 1001

Frame count                              : 596140

Color space                              : YUV

Chroma subsampling                       : 4:2:0

Chroma subsampling                       : 4:2:0

Bit depth                                : 8

Bit depth                                : 8 bits

Scan type                                : Progressive

Scan type                                : Progressive

Scan order                               : BFF

Scan order                               : Bottom Field First

Compression mode                         : Lossy

Compression mode                         : Lossy

Bits/(Pixel*Frame)                       : 1.078

Delay                                    : 224.400000

Delay                                    : 224 ms

Delay                                    : 224 ms

Delay                                    : 224 ms

Delay                                    : 00:00:00.224

Delay_DropFrame                          : No

Delay, origin                            : Container

Delay, origin                            : Container

Delay_Original                           : 0

Delay_Original                           : 00:00:00.000

Delay_Original_Settings                  : drop_frame_flag=0 / closed_gop=1 / broken_link=0

Delay_Original_DropFrame                 : No

Delay_Original_Source                    : Stream

Time code of first frame                 : 00:00:00:00

Time code source                         : Group of pictures header

GOP, Open/Closed                         : Open

GOP, Open/Closed                         : Open

GOP, Open/Closed of first frame          : Closed

GOP, Open/Closed of first frame          : Closed

Stream size                              : 74023236385

Stream size                              : 68.9 GiB (97%)

Stream size                              : 69 GiB

Stream size                              : 69 GiB

Stream size                              : 68.9 GiB

Stream size                              : 68.94 GiB

Stream size                              : 68.9 GiB (97%)

Proportion of this stream                : 0.97381

Buffer size                              : 770048

intra_dc_precision                       : 9

 

Audio

Count                                    : 280

Count of stream of this kind             : 1

Kind of stream                           : Audio

Kind of stream                           : Audio

Stream identifier                        : 0

StreamOrder                              : 1

FirstPacketOrder                         : 1

ID                                       : 192

ID                                       : 192 (0xC0)

Format                                   : MPEG Audio

Format                                   : MPEG Audio

Commercial name                          : MPEG Audio

Format version                           : Version 1

Format profile                           : Layer 2

Internet media type                      : audio/mpeg

Duration                                 : 19891364

Duration                                 : 5 h 31 min

Duration                                 : 5 h 31 min 31 s 364 ms

Duration                                 : 5 h 31 min

Duration                                 : 05:31:31.364

Duration                                 : 05:28:53:21

Duration                                 : 05:31:31.364 (05:28:53:21)

Bit rate mode                            : CBR

Bit rate mode                            : Constant

Bit rate                                 : 192000

Bit rate                                 : 192 kb/s

Channel(s)                               : 2

Channel(s)                               : 2 channels

Samples per frame                        : 1152

Sampling rate                            : 48000

Sampling rate                            : 48.0 kHz

Samples count                            : 954785664

Frame rate                               : 41.667

Frame rate                               : 41.667 FPS (1152 SPF)

Frame count                              : 828807

Compression mode                         : Lossy

Compression mode                         : Lossy

Delay                                    : 213.088889

Delay                                    : 213 ms

Delay                                    : 213 ms

Delay                                    : 213 ms

Delay                                    : 00:00:00.213

Delay, origin                            : Container

Delay, origin                            : Container

Delay relative to video                  : -11

Delay relative to video                  : -11 ms

Delay relative to video                  : -11 ms

Delay relative to video                  : -11 ms

Delay relative to video                  : -00:00:00.011

Stream size                              : 477392736

Stream size                              : 455 MiB (1%)

Stream size                              : 455 MiB

Stream size                              : 455 MiB

Stream size                              : 455 MiB

Stream size                              : 455.3 MiB

Stream size                              : 455 MiB (1%)

Proportion of this stream                : 0.00628

 

MediaInfoLib - v19.09

Facebook Twitter Pinterest Kakao
  • ?
    JKyle 2021.02.03 00:20

    해당 소프트웨어 커뮤니티에 문의하세요.


List of Articles
No. Category Subject Author Date Views Votes
Notice 자유게시판에서는 자유롭게 글을 작성할 수 있지만 다음과 같은 내용은 삭제돼요 Rina 2020.03.18 1332 2
Notice 일반 [필독] 질문 전에 반드시 읽으세요!!! 2 file JKyle 2019.09.16 6684 4
Notice 일반 [알림] 질문 먹튀하지 마시기 바랍니다 => 본문 변경 금지 15 JKyle 2018.10.12 6805 10
2430 질문 로고 페이드 설정시 원래 검은색을 띠면서 나타나나요? 9 file Melon 2021.02.04 377 1
2429 질문 내장자막 이미지(vobsub) 영상에 자막 입히기 오류 1 everling 2021.02.04 288 0
» 질문 도와주세요! 팟플레이어 재생은 정상 에디우스 타임라인 끊김 1 네오에딧 2021.02.02 247 0
2427 질문 인코딩 중 멈춤 증상 5 file 카카시 2021.02.01 269 0
2426 정보 3950x Vs 5950x 1 file 핀다 2021.02.01 209 1
2425 질문 인코딩 오류입니다 1 태룡2 2021.01.31 121 0
2424 질문 샤나인코더 합치기 질문... masteryi 2021.01.29 160 0
2423 정보 VVC도 HEVC 꼴 나는 것 같네요 JKyle 2021.01.29 279 0
2422 질문 이 영상이랑 똑같은 설정으로 인코딩하고 싶은데 어떻게 설정해야 하나요? file 숑송 2021.01.28 176 0
2421 질문 용량 상관없이 인코딩할 때 프리셋 속도 높여도 되나요? 화질도 많이 달라지나요? 2 귀신 2021.01.26 198 0
2420 질문 2가지 자막 인코딩 가능한가요? 욱북 2021.01.25 125 0
2419 질문 병합할때 오디오 페이드인/아웃 가능한가요? 1 곰곰123 2021.01.19 164 0
2418 질문 시스템 종료 옵션 사용시 프리셋 마지막 설정이 강제로 저장되는 현상 2 file Melon 2021.01.17 111 1
2417 질문 설정을 똑같이 해도 왜 속도가 이렇게 차이 나나요? 1 file CVRJS 2021.01.14 311 0
2416 질문 20Mbps 면 샤나 인코더에서 뭘로 선택해야하나요??? 3 file 앤더슨 2021.01.13 216 0
2415 일반 문의) 원본 파일 삭제 기능 문의 1 까마 2021.01.13 112 0
2414 질문 프레임 레이트 변경 시 재생시간도 변경되게 설정할 수 있나요?? 2 웅잉 2021.01.08 148 0
2413 질문 가변프레임(VFR)과 고정프레임(CFR) 어떤 차이가 있을까요? 7 이대길 2021.01.07 327 0
2412 질문 합치기모드 소리가 안납니다 2 센스짱 2021.01.07 171 0
2411 질문 6/7기가 짜리 mp4파일 을 avi로 인코딩중 변환이 안되는 이유 ㅡㅡ 급구여율령 2021.01.06 114 0
Board Pagination Prev 1 2 3 4 5 6 7 8 9 10 ... 123 Next
/ 123