Skip to menu

본문시작



질문하기 전에 검색하세요(Search before asking a question)


?

Shortcut

PrevPrev Article

NextNext Article

Larger Font Smaller Font Up Down Go comment Print Update Delete
?

Shortcut

PrevPrev Article

NextNext Article

Larger Font Smaller Font Up Down Go comment Print Update Delete
General
ID                                       : 1 (0x1)
Complete name                    : 탑시크릿
Format                                   : MPEG-TS
File size                                : 1.51 GiB
Duration                                 : 20mn 53s
Overall bit rate mode                    : Variable
Overall bit rate                         : 10.3 Mbps
Maximum Overall bit rate                 : 35.5 Mbps

Video
ID                                       : 4113 (0x1011)
Menu ID                                  : 1 (0x1)
Format                                   : MPEG Video
Format version                           : Version 2
Format profile                           : Main@High
Format settings, BVOP                    : Yes
Format settings, Matrix                  : Custom
Format settings, GOP                     : M=3, N=15
Codec ID                                 : 2
Duration                                 : 20mn 54s
Bit rate mode                            : Variable
Bit rate                                 : 9 566 Kbps
Width                                    : 1 440 pixels
Height                                   : 1 080 pixels
Display aspect ratio                     : 16:9
Frame rate                               : 29.970 fps
Color space                              : YUV
Chroma subsampling                       : 4:2:0
Bit depth                                : 8 bits
Scan type                                : Interlaced
Scan order                               : Top Field First
Compression mode                         : Lossy
Bits/(Pixel*Frame)                       : 0.205
Stream size                              : 1.40 GiB (93%)
Color primaries                          : BT.709
Transfer characteristics                 : BT.709
Matrix coefficients                      : BT.709

Audio
ID                                       : 4352 (0x1100)
Menu ID                                  : 1 (0x1)
Format                                   : AAC
Format/Info                              : Advanced Audio Codec
Format version                           : Version 2
Format profile                           : LC
Muxing mode                              : ADTS
Codec ID                                 : 15
Duration                                 : 20mn 53s
Bit rate mode                            : Variable
Bit rate                                 : 251 Kbps
Channel(s)                               : 2 channels
Channel positions                        : Front: L R
Sampling rate                            : 48.0 KHz
Compression mode                         : Lossy
Delay relative to video                  : -11ms
Stream size                              : 37.5 MiB (2%)


재생정보가 이러한 일본방송파일을 가지고 있습니다.
이걸 원본비율 그대로 유지하되 출력할 때 16:9 비율로 출력할 수 있게끔 하고 싶습니다.
이렇게 하려면 어떻게 해야하나요?
Facebook Twitter Pinterest Kakao
  • ?
    HThoreau 2014.12.01 21:54

    이 파일도 출력이 16:9로 되어 있기 때문에 동영상 플레이어에서 별다른 설정을

    하지 않더라도 보는데는 문제없습니다..


    Display aspect ratio  : 16:9

    라고 되어 있네요..


    굳이 파일을 변형하지 않아도 될 듯합니다..

  • ?
    ㅇㅇ 2014.12.03 21:50

    오 그렇군요. 그냥 다른 파일 인코딩하는 것처럼 하면 되는건가요? 감사합니다.

  • ?
    엔젤두환 2014.12.01 22:30 FilesAttachment (1)

    샤나 명령어 입력으로 가능합니다


    필터 매개변수 옆에 -aspect 16:9 를 입력하면 가능합니다 헤헤

    cats.jpg



    General
    Complete name                  : F:\shana\[SHANA]Bastille - Pompeii.mp4
    Format                         : MPEG-4
    Format profile                 : Base Media
    Codec ID                       : isom
    File size                      : 12.0 MiB
    Duration                       : 3mn 52s
    Overall bit rate               : 433 Kbps
    Writing application            : ShanaEncoder

    Video
    ID                             : 1
    Format                         : AVC
    Format/Info                    : Advanced Video Codec
    Format profile                 : High@L4.1
    Format settings, CABAC         : Yes
    Format settings, ReFrames      : 5 frames
    Codec ID                       : avc1
    Codec ID/Info                  : Advanced Video Coding
    Duration                       : 3mn 52s
    Bit rate                       : 396 Kbps
    Width                          : 640 pixels
    Height                         : 480 pixels
    Display aspect ratio           : 16:9

    Frame rate mode                : Constant
    Frame rate                     : 25.000 fps
    Color space                    : YUV
    Chroma subsampling             : 4:2:0
    Bit depth                      : 8 bits
    Scan type                      : Progressive
    Bits/(Pixel*Frame)             : 0.052
    Stream size                    : 11.0 MiB (91%)
    Writing library                : x264 core 142
    Encoding settings              : opencl=1 / cabac=1 / ref=5 / deblock=1:0:0 / analyse=0x3:0x133 / me=tesa / subme=8 / psy=1 / psy_rd=1.00:0.00 / mixed_ref=1 / me_range=16 / chroma_me=1 / trellis=1 / 8x8dct=1 / cqm=0 / deadzone=21,11 / fast_pskip=0 / chroma_qp_offset=-2 / threads=9 / lookahead_threads=2 / sliced_threads=0 / nr=0 / decimate=0 / interlaced=0 / bluray_compat=0 / constrained_intra=0 / bframes=5 / b_pyramid=2 / b_adapt=2 / b_bias=0 / direct=1 / weightb=1 / open_gop=0 / weightp=2 / keyint=250 / keyint_min=25 / scenecut=40 / intra_refresh=0 / rc_lookahead=40 / rc=crf / mbtree=1 / crf=28.0 / qcomp=0.60 / qpmin=0 / qpmax=69 / qpstep=4 / ip_ratio=1.40 / aq=2:1.00

    Audio
    ID                             : 2
    Format                         : AAC
    Format/Info                    : Advanced Audio Codec
    Format profile                 : HE-AACv2 / HE-AAC / LC
    Codec ID                       : 40
    Duration                       : 3mn 52s
    Bit rate mode                  : Constant
    Bit rate                       : 32.0 Kbps
    Channel(s)                     : 2 channels / 1 channel / 1 channel
    Channel positions              : Front: L R / Front: C / Front: C
    Sampling rate                  : 44.1 KHz / 44.1 KHz / 22.05 KHz
    Compression mode               : Lossy
    Stream size                    : 910 KiB (7%)


  • ?
    ㅇㅇ 2014.12.03 21:51

    그렇군요. 친절한 답변, 좋은 정보 감사합니다.


List of Articles
No. Category Subject Author Date Views Votes
Notice [금융위원회] 2021년 금융공공데이터 개방서비스(API)의 이용자 만족도와 추가개방 수요 설문조사(11.22.~12.10.) Rina 2021.11.30 72 0
Notice 샤나인코더 통합 검색 기능 개선(샤나인코더 우측 상단에 있는 검색창을 사용해 보세요.) Rina 2021.09.30 1463 0
Notice 자유게시판에서는 자유롭게 글을 작성할 수 있지만 다음과 같은 내용은 삭제돼요 Rina 2020.03.18 4535 3
Notice 일반 [필독] 질문 전에 반드시 읽으세요!!! 2 file JKyle 2019.09.16 12350 6
Notice 일반 [알림] 질문 먹튀하지 마시기 바랍니다 => 본문 변경 금지 16 JKyle 2018.10.12 12512 13
348 [건의] 샤나인코더에서 천분의 일초 지원계획 있으신가요? (0.000초) 케이온 2014.12.18 2528 0
347 AAC 5 김호민 2014.12.13 4804 0
346 건의2 : 소소한 건의 2개 2 김호민 2014.12.12 4137 0
345 건의 : 오류시 김호민 2014.12.11 2425 0
344 지상파 TS 파일에서 Closed Caption 텍스트로 따로 저장 방법? 2 버디찬스 2014.12.10 3294 0
343 4분 52초에서 계속 멈춥니다. 2 묵은지 2014.12.09 3365 0
342 1080i ts 영상 1080i 영상 그대로 구간자르기 하는 방법 있나요? 6 1234 2014.12.08 5726 0
341 프리셋은 정확히 어떤 옵션 인가요 1 궁금 2014.12.08 3768 0
340 [문의] 샤나인코더가 인스톨이 안됩니다. 2 fire2ice 2014.12.07 3472 0
339 음악 파일 인코딩시 앨범아트가 날아가네요.. 5 라피나 2014.12.05 4212 0
338 인코딩 색상 보정시.. 말이죠 2 쿠오오 2014.12.04 5437 0
337 궁금한점들이 있습니다.H264 mp4파일을 avi파일로 인코딩할때입니다. 4 file 샤나팬왕초보 2014.12.03 6000 0
336 포터블 지원 계획이 있으신가요? 엥꼬 2014.12.03 4913 0
» 일본방송파일 화면비율 그대로 출력만 16:9로 하려면? 4 우옹 2014.12.01 4735 0
334 글꼴 폰트 5 앞에서뒤에서 2014.12.01 4662 0
333 원본 인코딩 질문 2 kyima 2014.11.30 4646 0
332 블루레이 기준의 인코딩은? 6 캐투럽 2014.11.30 6074 0
331 프리셋 질문입니다. 2 cnsh 2014.11.29 4890 0
330 프리셋 관련 질문점 1 kyima 2014.11.27 6275 0
329 HEVC 인코딩 프리셋 속도에 따른 용량입니다 그런데 먼가 이상하네요 10 file 초코누 2014.11.25 7474 0
Board Pagination Prev 1 ... 112 113 114 115 116 117 118 119 120 121 ... 134 Next
/ 134