Skip to menu

본문시작



?

Shortcut

PrevPrev Article

NextNext Article

Larger Font Smaller Font Up Down Go comment Print
?

Shortcut

PrevPrev Article

NextNext Article

Larger Font Smaller Font Up Down Go comment Print

원래 4.9버전쓰다가 오늘 5.0으로 업뎃을하고 처음쓰려는데

전에는 잘되던 인코딩이 오류가 뜨면서 안되네요 스트림복사는 잘되는데 다른부분이 왜안되는지를 모르겠어요

완전 삭제했다가 3번을 다시깔아봤는데도 안됩니다.

 

원본 특성

General

Complete name                            : J:\영화\영화\비긴 어게인.mp4

Format                                   : MPEG-4

Format profile                           : Base Media

Codec ID                                 : isom (isom/iso2/avc1/mp41)

File size                                : 407 MiB

Duration                                 : 18 min 56 s

Overall bit rate                         : 3 004 kb/s

Writing application                      : Lavf58.20.100

 

Video

ID                                       : 1

Format                                   : AVC

Format/Info                              : Advanced Video Codec

Format profile                           : High@L3.2

Format settings                          : CABAC / 3 Ref Frames

Format settings, CABAC                   : Yes

Format settings, Reference frames        : 3 frames

Codec ID                                 : avc1

Codec ID/Info                            : Advanced Video Coding

Duration                                 : 18 min 56 s

Bit rate                                 : 2 805 kb/s

Width                                    : 1 280 pixels

Height                                   : 720 pixels

Display aspect ratio                     : 16:9

Frame rate mode                          : Variable

Frame rate                               : 29.970 (30000/1001) FPS

Minimum frame rate                       : 29.240 FPS

Maximum frame rate                       : 30.030 FPS

Color space                              : YUV

Chroma subsampling                       : 4:2:0

Bit depth                                : 8 bits

Scan type                                : Progressive

Bits/(Pixel*Frame)                       : 0.102

Stream size                              : 380 MiB (93%)

Codec configuration box                  : avcC

 

Audio

ID                                       : 2

Format                                   : AAC LC

Format/Info                              : Advanced Audio Codec Low Complexity

Codec ID                                 : mp4a-40-2

Duration                                 : 18 min 56 s

Bit rate mode                            : Constant

Bit rate                                 : 192 kb/s

Channel(s)                               : 2 channels

Channel layout                           : L R

Sampling rate                            : 48.0 kHz

Frame rate                               : 46.875 FPS (1024 SPF)

Compression mode                         : Lossy

Stream size                              : 25.7 MiB (6%)

Default                                  : Yes

Alternate group                          : 1

 

 

 

자세한 정보

 

General

Count                                    : 331

Count of stream of this kind             : 1

Kind of stream                           : General

Kind of stream                           : General

Stream identifier                        : 0

Count of video streams                   : 1

Count of audio streams                   : 1

Video_Format_List                        : AVC

Video_Format_WithHint_List               : AVC

Codecs Video                             : AVC

Audio_Format_List                        : AAC LC

Audio_Format_WithHint_List               : AAC LC

Audio codecs                             : AAC LC

Complete name                            : J:\영화\영화\비긴 어게인.mp4

Folder name                              : J:\영화\영화

File name extension                      : 비긴 어게인.mp4

File name                                : 비긴 어게인

File extension                           : mp4

Format                                   : MPEG-4

Format                                   : MPEG-4

Format/Extensions usually used           : braw mov mp4 m4v m4a m4b m4p m4r 3ga 3gpa 3gpp 3gp 3gpp2 3g2 k3g jpm jpx mqv ismv isma ismt f4a f4b f4v

Commercial name                          : MPEG-4

Format profile                           : Base Media

Internet media type                      : video/mp4

Codec ID                                 : isom

Codec ID                                 : isom (isom/iso2/avc1/mp41)

Codec ID/Url                             : http://www.apple.com/quicktime/download/standalone.html

CodecID_Compatible                       : isom/iso2/avc1/mp41

File size                                : 426921821

File size                                : 407 MiB

File size                                : 407 MiB

File size                                : 407 MiB

File size                                : 407 MiB

File size                                : 407.1 MiB

Duration                                 : 1136808

Duration                                 : 18 min 56 s

Duration                                 : 18 min 56 s 808 ms

Duration                                 : 18 min 56 s

Duration                                 : 00:18:56.808

Duration                                 : 00:18:56;24

Duration                                 : 00:18:56.808 (00:18:56;24)

Overall bit rate                         : 3004355

Overall bit rate                         : 3 004 kb/s

Frame rate                               : 29.970

Frame rate                               : 29.970 FPS

Frame count                              : 34070

Stream size                              : 1359734

Stream size                              : 1.30 MiB (0%)

Stream size                              : 1 MiB

Stream size                              : 1.3 MiB

Stream size                              : 1.30 MiB

Stream size                              : 1.297 MiB

Stream size                              : 1.30 MiB (0%)

Proportion of this stream                : 0.00318

HeaderSize                               : 40

DataSize                                 : 425562095

FooterSize                               : 1359686

IsStreamable                             : No

File creation date                       : UTC 2019-11-04 12:19:45.413

File creation date (local)               : 2019-11-04 21:19:45.413

File last modification date              : UTC 2019-11-04 12:19:51.500

File last modification date (local)      : 2019-11-04 21:19:51.500

Writing application                      : Lavf58.20.100

Writing application                      : Lavf58.20.100

 

Video

Count                                    : 378

Count of stream of this kind             : 1

Kind of stream                           : Video

Kind of stream                           : Video

Stream identifier                        : 0

StreamOrder                              : 0

ID                                       : 1

ID                                       : 1

Format                                   : AVC

Format                                   : AVC

Format/Info                              : Advanced Video Codec

Format/Url                               : http://developers.videolan.org/x264.html

Commercial name                          : AVC

Format profile                           : High@L3.2

Format settings                          : CABAC / 3 Ref Frames

Format settings, CABAC                   : Yes

Format settings, CABAC                   : Yes

Format settings, Reference frames        : 3

Format settings, Reference frames        : 3 frames

Internet media type                      : video/H264

Codec ID                                 : avc1

Codec ID/Info                            : Advanced Video Coding

Duration                                 : 1136804

Duration                                 : 18 min 56 s

Duration                                 : 18 min 56 s 804 ms

Duration                                 : 18 min 56 s

Duration                                 : 00:18:56.804

Duration                                 : 00:18:56;24

Duration                                 : 00:18:56.804 (00:18:56;24)

Bit rate                                 : 2805419

Bit rate                                 : 2 805 kb/s

Width                                    : 1280

Width                                    : 1 280 pixels

Height                                   : 720

Height                                   : 720 pixels

Sampled_Width                            : 1280

Sampled_Height                           : 720

Pixel aspect ratio                       : 1.000

Display aspect ratio                     : 1.778

Display aspect ratio                     : 16:9

Rotation                                 : 0.000

Frame rate mode                          : VFR

Frame rate mode                          : Variable

Frame rate                               : 29.970

Frame rate                               : 29.970 (30000/1001) FPS

FrameRate_Num                            : 30000

FrameRate_Den                            : 1001

Minimum frame rate                       : 29.240

Minimum frame rate                       : 29.240 FPS

Maximum frame rate                       : 30.030

Maximum frame rate                       : 30.030 FPS

Frame count                              : 34070

Color space                              : YUV

Chroma subsampling                       : 4:2:0

Chroma subsampling                       : 4:2:0

Bit depth                                : 8

Bit depth                                : 8 bits

Scan type                                : Progressive

Scan type                                : Progressive

Bits/(Pixel*Frame)                       : 0.102

Stream size                              : 398651187

Stream size                              : 380 MiB (93%)

Stream size                              : 380 MiB

Stream size                              : 380 MiB

Stream size                              : 380 MiB

Stream size                              : 380.2 MiB

Stream size                              : 380 MiB (93%)

Proportion of this stream                : 0.93378

Codec configuration box                  : avcC

 

Audio

Count                                    : 280

Count of stream of this kind             : 1

Kind of stream                           : Audio

Kind of stream                           : Audio

Stream identifier                        : 0

StreamOrder                              : 1

ID                                       : 2

ID                                       : 2

Format                                   : AAC

Format                                   : AAC LC

Format/Info                              : Advanced Audio Codec Low Complexity

Commercial name                          : AAC

Format_AdditionalFeatures                : LC

Codec ID                                 : mp4a-40-2

Duration                                 : 1136808

Duration                                 : 18 min 56 s

Duration                                 : 18 min 56 s 808 ms

Duration                                 : 18 min 56 s

Duration                                 : 00:18:56.808

Duration                                 : 00:18:53:36

Duration                                 : 00:18:56.808 (00:18:53:36)

Bit rate mode                            : CBR

Bit rate mode                            : Constant

Bit rate                                 : 192000

Bit rate                                 : 192 kb/s

Channel(s)                               : 2

Channel(s)                               : 2 channels

Channel positions                        : Front: L R

Channel positions                        : 2/0/0

Channel layout                           : L R

Samples per frame                        : 1024

Sampling rate                            : 48000

Sampling rate                            : 48.0 kHz

Samples count                            : 54566784

Frame rate                               : 46.875

Frame rate                               : 46.875 FPS (1024 SPF)

Frame count                              : 53287

Compression mode                         : Lossy

Compression mode                         : Lossy

Stream size                              : 26910900

Stream size                              : 25.7 MiB (6%)

Stream size                              : 26 MiB

Stream size                              : 26 MiB

Stream size                              : 25.7 MiB

Stream size                              : 25.66 MiB

Stream size                              : 25.7 MiB (6%)

Proportion of this stream                : 0.06303

Default                                  : Yes

Default                                  : Yes

Alternate group                          : 1

Alternate group                          : 1

 

MediaInfoLib - v19.09

 

 

매개 번수

 -f mp4

 -c:v hevc_nvenc -profile:v main -level auto -preset default -b:v 2000k

 -c:a copy

 -sn -map_metadata -1 -map_chapters -1 -shanarcmode const

 

오류기록

 >> 작업 시작시간: 2020-03-15 오후 9:07:04

 

 * 인코딩 시작: 비긴 어게인.mp4

 

Stream mapping:

  Stream #0:0 -> #0:0 (h264 (native) -> hevc (hevc_nvenc))

  Stream #0:1 -> #0:1 (copy)

[hevc_nvenc @ 000002266141e640] Driver does not support the required nvenc API version. Required: 9.1 Found: 9.0

[hevc_nvenc @ 000002266141e640] The minimum required Nvidia driver for nvenc is 436.15 or newer

Error initializing output stream 0:0 -- Error while opening encoder for output stream #0:0 - maybe incorrect parameters such as bit_rate, rate, width or height

Conversion failed!

 

 * 인코딩 오류가 발생했습니다.

 

 >> 속도 0x 진행시간 00:00:00

 

==================================================

 

 

Facebook Twitter Pinterest Kakao
  • ?
    Rina 2020.03.15 21:19

    The minimum required Nvidia driver for nvenc is 436.15 or newer.
    NVIDIA 그래픽 카드 드라이버를 436.15버전 이상으로 업데이트 하세요.

  • ?
    더크런치 2020.03.15 21:38
    그래픽 카드 드라이버 버전문제인줄은 생각도못했습니다!
    창피하네여.. 해결됬습니다! 정말 감사해요

List of Articles
No. Category Subject Author Date Views Votes
Notice 자유게시판에서는 자유롭게 글을 작성할 수 있지만 다음과 같은 내용은 삭제돼요 Rina 2020.03.18 92 1
Notice 일반 [필독] 질문 전에 이 사항들을 꼭 지켜주십시오 2 file JKyle 2019.09.16 2478 3
Notice [알림] 질문 먹튀하지 마시기 바랍니다 13 JKyle 2018.10.12 4848 4
2143 질문 동일한 프리셋으로 인코딩시 영상에 따라 오류 발생합니다. new 푸푸리 2020.04.04 3 0
2142 질문 새로운 오류가 떴습니다. new manb 2020.04.03 9 0
2141 질문 로고 크기 문의합니다 new RAINY 2020.04.03 7 0
2140 정보 HDR to SDR 변환 테스트: 샤나인코더 vs AviSynth+(DGTonemap vs DGHDRtoSDR) newfile JKyle 2020.04.03 15 0
2139 질문 영상 촬영 후 합치기를 하면 영상과 음성이 맞지 않아 문의드립니다. 1 file 원수학 2020.04.02 35 0
2138 질문 합치기시 화면에 재생시간이 뜹니다. 1 file 은하아빠 2020.04.02 12 0
2137 질문 인코딩 오류라고 떠요 ㅜㅜ 1 알콩 2020.04.02 25 0
2136 질문 H.264를 일반과 AMF로 인코딩한다고 가정할때 화질 차이가 있나요?? 2 닉네임뭐할까 2020.04.02 38 0
2135 질문 인코딩 시 한글자막이 이중으로 인코딩됩니다. 5 file 노바디 2020.03.31 68 0
2134 질문 인코딩 설정 질문입니다. 1 와일즈 2020.03.29 80 0
2133 질문 Aegisub 자막이 늦게 뜹니다 1 Gizel 2020.03.27 41 0
2132 질문 애니 영상이 High10영상 이여서 8bit로 인코딩하려고 HDR->SDR 톤 매핑 체크 인코팅하는데 오류가 납니다. 원인을 알수가 없어 도움 요청합니다. 3 file 자자고 2020.03.24 87 0
2131 질문 인코딩 설정 문제 2 file 레이엔트 2020.03.23 210 0
2130 질문 오디오 땡겨서 인코딩할때 앞에 영상 1초 정도 못 짜르나요? 2 샤샨물 2020.03.21 86 0
2129 질문 AMD 3990X 사용하는데 샤나인코더 cpu 10개밖에 안쓰네요? 2 file skySiriusBlack 2020.03.18 287 0
2128 질문 자막을 입힐때 영상을 원본 수준으로 하려거든요 4 file 오디디 2020.03.16 298 0
2127 질문 영화가 x265 10bit tigole MKV 파일인데, 인코딩을 해도 재생이 안됩니다. 2 우리무지다 2020.03.16 200 0
2126 질문 오디오 트랙 나눈 상태로 인코딩 3 영상편집중 2020.03.16 83 0
» 질문 HEVC(NVENC) 인코딩 오류 가뜨는데 해결방법좀 알려주세요 2 더크런치 2020.03.15 190 0
Board Pagination Prev 1 2 3 4 5 6 7 8 9 10 ... 108 Next
/ 108