Skip to menu

본문시작



?

Shortcut

PrevPrev Article

NextNext Article

Larger Font Smaller Font Up Down Go comment Print
?

Shortcut

PrevPrev Article

NextNext Article

Larger Font Smaller Font Up Down Go comment Print

원본영상이 있으면 용량이 너무 크거나 편집을 한 이후에

애프터이펙트에서 avi 로 영상렌더링 이후

샤나로 다시 mp4로 변환해서 웹에 올리려고 할시에

잘 되다가 요며칠 갑자기 오류가 뜨네요

 

잘되었던만큼 설정이나 다른 것들은 두 프로그램 절대 건든적이 없고

샤냐인코더 안에 있는 mp4 변환파일을 이용해서 

아무것도 건들지않고 렌더링을 했었습니다..

 

 

샤나에서 뜨는 에러 메시지는

 

 

Guessed Channel Layout for Input Stream #0.1 : stereo

Stream mapping:

  Stream #0:0 -> #0:0 (rawvideo (native) -> h264 (libx264))

  Stream #0:1 -> #0:1 (pcm_s16le (native) -> aac (libfdk_aac))

[libx264 @ 000002850ee07e00] height not divisible by 2 (1500x691)

Error initializing output stream 0:0 -- Error while opening encoder for output stream #0:0 - maybe incorrect parameters such as bit_rate, rate, width or height

Conversion failed!

 

 * 인코딩 오류가 발생했습니다.

 

 >> 속도 0x 진행시간 00:00:00

 

구요

 

검색한 이후에 댓글에 달린 것처럼

여러가지를 시도해봤는데 설정을 바꿔도 오류가 뜨네요ㅠㅠ

 

애프터 이펙트에서 렌더링 한 게 문제가 되나 싶어서

그것도 삭제하고 재설치 한 이후

다른것 하나 건들지않고 최고설정 -손실없음으로 한 이후에 렌더링 진행하고

샤나에서 다시 렌더링해도 오류가 뜹니다ㅠㅠㅠㅠㅠ 대체 왜그럴까요...?

 

 

 

 

 

 

 

 

 

-------------------샤나에서 인코딩 하고싶은 애팩->렌더링 파일정보 -------------------

General

Complete name                            : D:\ae\컴포지션 1.avi

Format                                   : AVI

Format/Info                              : Audio Video Interleave

File size                                : 1.04 GiB

Duration                                 : 6 s 0 ms

Overall bit rate                         : 1 494 Mb/s

Recorded date                            : 2020-01-02T17:18:54.542699

 

Video

ID                                       : 0

Format                                   : RGB

Codec ID                                 : 0x00000000

Codec ID/Info                            : Basic Windows bitmap format. 1, 4 and 8 bpp versions are palettised. 16, 24 and 32bpp contain raw RGB samples

Duration                                 : 6 s 0 ms

Bit rate                                 : 1 493 Mb/s

Width                                    : 1 500 pixels

Height                                   : 691 pixels

Display aspect ratio                     : 2.2:1

Frame rate                               : 60.000 FPS

Bit depth                                : 8 bits

Bits/(Pixel*Frame)                       : 24.000

Time code of first frame                 : 00:00:00:00 / 00:00:00:00

Time code source                         : Adobe tc_A / Adobe tc_O

Stream size                              : 1.04 GiB (100%)

 

Audio

ID                                       : 1

Format                                   : PCM

Format settings                          : Little / Signed

Codec ID                                 : 1

Duration                                 : 6 s 0 ms

Bit rate mode                            : Constant

Bit rate                                 : 1 536 kb/s

Channel(s)                               : 2 channels

Sampling rate                            : 48.0 kHz

Bit depth                                : 16 bits

Stream size                              : 1.10 MiB (0%)

Alignment                                : Aligned on interleaves

Interleave, duration                     : 1000  ms (60.00 video frames)

Interleave, preload duration             : 1000  ms

 

 

 

자세한 정보

 

General

Count                                    : 331

Count of stream of this kind             : 1

Kind of stream                           : General

Kind of stream                           : General

Stream identifier                        : 0

Count of video streams                   : 1

Count of audio streams                   : 1

Video_Format_List                        : RGB

Video_Format_WithHint_List               : RGB

Codecs Video                             : RGB

Audio_Format_List                        : PCM

Audio_Format_WithHint_List               : PCM

Audio codecs                             : PCM

Complete name                            : D:\ae\컴포지션 1.avi

Folder name                              : D:\ae

File name extension                      : 컴포지션 1.avi

File name                                : 컴포지션 1

File extension                           : avi

Format                                   : AVI

Format                                   : AVI

Format/Info                              : Audio Video Interleave

Format/Extensions usually used           : avi

Commercial name                          : AVI

Internet media type                      : video/vnd.avi

Interleaved                              : Yes

File size                                : 1120599668

File size                                : 1.04 GiB

File size                                : 1 GiB

File size                                : 1.0 GiB

File size                                : 1.04 GiB

File size                                : 1.044 GiB

Duration                                 : 6000

Duration                                 : 6 s 0 ms

Duration                                 : 6 s 0 ms

Duration                                 : 6 s 0 ms

Duration                                 : 00:00:06.000

Duration                                 : 00:00:06:00

Duration                                 : 00:00:06.000 (00:00:06:00)

Overall bit rate                         : 1494132891

Overall bit rate                         : 1 494 Mb/s

Frame rate                               : 60.000

Frame rate                               : 60.000 FPS

Frame count                              : 360

Stream size                              : 27668

Stream size                              : 27.0 KiB (0%)

Stream size                              : 27 KiB

Stream size                              : 27 KiB

Stream size                              : 27.0 KiB

Stream size                              : 27.02 KiB

Stream size                              : 27.0 KiB (0%)

Proportion of this stream                : 0.00002

Recorded date                            : 2020-01-02T17:18:54.542699

File creation date                       : UTC 2020-01-02 17:18:54.542

File creation date (local)               : 2020-01-03 02:18:54.542

File last modification date              : UTC 2020-01-02 17:19:20.513

File last modification date (local)      : 2020-01-03 02:19:20.513

 

Video

Count                                    : 377

Count of stream of this kind             : 1

Kind of stream                           : Video

Kind of stream                           : Video

Stream identifier                        : 0

ID                                       : 0

ID                                       : 0

Format                                   : RGB

Format                                   : RGB

Commercial name                          : RGB

Codec ID                                 : 0x00000000

Codec ID/Info                            : Basic Windows bitmap format. 1, 4 and 8 bpp versions are palettised. 16, 24 and 32bpp contain raw RGB samples

Codec ID/Url                             : http://www.fourcc.org/indexrgb.htm

Duration                                 : 6000

Duration                                 : 6 s 0 ms

Duration                                 : 6 s 0 ms

Duration                                 : 6 s 0 ms

Duration                                 : 00:00:06.000

Duration                                 : 00:00:06:00

Duration                                 : 00:00:06.000 (00:00:06:00)

Bit rate                                 : 1492560000

Bit rate                                 : 1 493 Mb/s

Width                                    : 1500

Width                                    : 1 500 pixels

Height                                   : 691

Height                                   : 691 pixels

Pixel aspect ratio                       : 1.000

Display aspect ratio                     : 2.171

Display aspect ratio                     : 2.2:1

Frame rate                               : 60.000

Frame rate                               : 60.000 FPS

Frame count                              : 360

Bit depth                                : 8

Bit depth                                : 8 bits

Bits/(Pixel*Frame)                       : 24.000

Delay                                    : 0

Delay                                    : 00:00:00.000

Time code of first frame                 : 00:00:00:00 / 00:00:00:00

Time code source                         : Adobe tc_A / Adobe tc_O

Stream size                              : 1119420000

Stream size                              : 1.04 GiB (100%)

Stream size                              : 1 GiB

Stream size                              : 1.0 GiB

Stream size                              : 1.04 GiB

Stream size                              : 1.043 GiB

Stream size                              : 1.04 GiB (100%)

Proportion of this stream                : 0.99895

 

Audio

Count                                    : 280

Count of stream of this kind             : 1

Kind of stream                           : Audio

Kind of stream                           : Audio

Stream identifier                        : 0

StreamOrder                              : 1

ID                                       : 1

ID                                       : 1

Format                                   : PCM

Format                                   : PCM

Commercial name                          : PCM

Format settings                          : Little / Signed

Format settings, Endianness              : Little

Format settings, Sign                    : Signed

Codec ID                                 : 1

Codec ID/Url                             : http://www.microsoft.com/windows/

Duration                                 : 6000

Duration                                 : 6 s 0 ms

Duration                                 : 6 s 0 ms

Duration                                 : 6 s 0 ms

Duration                                 : 00:00:06.000

Duration                                 : 00:00:06.000

Bit rate mode                            : CBR

Bit rate mode                            : Constant

Bit rate                                 : 1536000

Bit rate                                 : 1 536 kb/s

Channel(s)                               : 2

Channel(s)                               : 2 channels

Sampling rate                            : 48000

Sampling rate                            : 48.0 kHz

Samples count                            : 288000

Bit depth                                : 16

Bit depth                                : 16 bits

Delay                                    : 0

Delay                                    : 00:00:00.000

Delay, origin                            : Stream

Delay, origin                            : Raw stream

Delay relative to video                  : 0

Delay relative to video                  : 00:00:00.000

Stream size                              : 1152000

Stream size                              : 1.10 MiB (0%)

Stream size                              : 1 MiB

Stream size                              : 1.1 MiB

Stream size                              : 1.10 MiB

Stream size                              : 1.099 MiB

Stream size                              : 1.10 MiB (0%)

Proportion of this stream                : 0.00103

Alignment                                : Aligned

Alignment                                : Aligned on interleaves

Interleave, duration                     : 60.00

Interleave, duration                     : 1000

Interleave, duration                     : 1000  ms (60.00 video frames)

Interleave, preload duration             : 1000

Interleave, preload duration             : 1000  ms

 

MediaInfoLib - v19.09

 

----------------------------------------------------------------------------------------------

 

 

설정을 바꾼게 전혀 없는데 원래는 잘 되다가 갑자기 안됩니다..ㅠㅠ

 

 

 

Facebook Twitter Pinterest Kakao
  • ?
    Rina 2020.01.03 02:43

     height not divisible by 2 (1500x691)

    세로 해상도가 홀수라서 오류가 난 거예요.

    해상도를 꼭 짝수로 설정하고 인코딩해야 합니다.

     

  • ?
    헤다 2020.01.03 02:48
    아 세상에 이부분은 전혀 몰랐어요ㅠㅠ 그냥 영상 크기를 크롭하기만 했어서... 감사합니다ㅠㅠ 다시 해볼게요!
  • ?
    헤다 2020.01.03 02:52
    잘됩니다ㅠㅠㅠㅠㅠㅠㅠㅠ 감사합니다........ 이제까지 그냥 크롭했었지 손수 해상도 설정은 안했었는데 잘될때는 저도 모르게 짝수로 크롭했었나봐요ㅠㅠㅠㅠㅠ 너무 감사드려요

List of Articles
No. Subject Author Last Update Views Votes
Notice [알림] 질문하시기 전에 지켜주셨으면 하는 것들 2 file sSTSs 2019.09.17 1351 1
Notice [알림] 질문 먹튀하지 마시기 바랍니다 11 sSTSs 2019.12.14 4092 3
2010 이거 CBR 로 되는건가요?VBR 하고 CBR 설정이나 매개변수 수정해주세요. file 그링 2020.01.05 268 0
2009 속도 더 빠르게 하려면 그래픽 카드가 더 좋아야하나요? 3 샤냐새 2020.01.05 499 0
2008 업데이트 후 H264 NVENC 인코딩시 오류가 나네요 3 hoafrosts 2020.01.03 269 0
2007 인코딩하고 나니 자막이 좌우 반전되서 출력됩니다! 1 file 구르디아 2020.01.03 154 0
2006 그래픽 2개인대 인코딩 2개 초과 안되요 20 file 그링 2020.01.03 206 0
2005 드디어 webp 무한반복 가능하게 되었네요! 감사합니다ㅠㅠ 1 file 이승현 2020.01.03 152 0
» 애펙에서 렌더링한 영상을 다시 샤나로 인코딩하면 오류가 뜹니다 3 헤다 2020.01.03 73 0
2003 H264(NVENC) 퀀타이저 적용하면 log 에 대신 -qp 사용하라고 나옴 1 P군 2020.01.02 66 0
2002 영상합칠때 오디오 관련 질문입니다 2 주파수사 2020.01.02 86 0
2001 건의]샤나인코더에 동시인코딩 기능 넣어주면 안될까요? 3 file 그링 2020.01.02 149 0
2000 smi 업데이트 후 자막이 안나옵니다 4 은파 2020.01.02 80 0
1999 다중코어 최대한 활용 하는 방법 없을까요? 2 file 공구리 2020.01.01 215 0
1998 mp4 파일 mp3로 변환시 음질 최대한 살리는 압축 방법이 무엇인가요? 3 사과한송이 2019.12.31 124 0
1997 인코딩 오류가 문제입니다. 1 로렌스 2019.12.30 189 0
1996 영상 인코딩 질문 1 엘리시움스 2019.12.29 80 0
1995 윈도우7 쓰는데 ShanaEncoder4.11.exe 파일이 무반응인데 해결방법 없을가요? 3 제태 2019.12.29 86 0
1994 인코딩 화질저하 질문이요 1 lsh1027 2019.12.26 250 0
1993 노트북 덮개 닫으면 샤나인코더 멈춤 1 file 인코딩어린이 2019.12.26 106 0
1992 성탄 인사, 사이트 개편, 샤나인코더 기능 개선 아이디어... 2 sSTSs 2019.12.25 82 0
1991 HEVC(NVENC) 화질 향상 프리셋는 있던데요 HEVC(AMF) 화질향상은 할수 없을까요 도움부탁드려요 2 성이야놀아앙 2019.12.22 460 0
Board Pagination Prev 1 2 3 4 5 6 7 8 9 10 ... 102 Next
/ 102