Skip to menu

본문시작

방문자

Total : 7,849,973
today : 8,474
yesterday : 11,247

Pageview

Total : 46,555,821
today : 46,607
yesterday : 68,435


?

Shortcut

PrevPrev Article

NextNext Article

Larger Font Smaller Font Up Down Go comment Print
?

Shortcut

PrevPrev Article

NextNext Article

Larger Font Smaller Font Up Down Go comment Print

4K@60프레임으로 인코딩 된 영상이 있는데 sw재생은 잘 되는데 하드웨어 가속이 안됩니다.

 

팟플레이어에서 hw가속을 켜면 영상은 나오질 않고 음성만 나옵니다.

 

dxva2 copy-back을 켜면 영상과 음성 모두 나오는데 프레임이 많이 떨어지고 싱크가 심하게 어긋납니다

 

피시사양은 8600K@47배수, 16GB 시스템 메모리, 지포스 GTX1060 6GB라서 절대 부족할리가 없거든요

 

아무리봐도 영상이 뭐같이 인코딩 된게 아닐까 싶어요

 

영상의 속성을 알려드리죠

 

Format                         : MPEG-4

Format profile                 : Base Media

Codec ID                       : isom (isom)

File size                      : 2.86 GiB

Duration                       : 1 h 15 min

Overall bit rate mode          : Variable

Overall bit rate               : 5 396 kb/s

Encoded date                   : UTC 2019-07-02 06:51:46

Tagged date                    : UTC 2019-07-02 06:51:46

 

Video

ID                             : 1

Format                         : HEVC

Format/Info                    : High Efficiency Video Coding

Format profile                 : Main 10@L5.1@High

Codec ID                       : hev1

Codec ID/Info                  : High Efficiency Video Coding

Duration                       : 1 h 15 min

Bit rate                       : 5 000 kb/s

Width                          : 3 840 pixels

Height                         : 2 160 pixels

Display aspect ratio           : 16:9

Frame rate mode                : Constant

Frame rate                     : 59.940 (60000/1001) FPS

Standard                       : Component

Color space                    : YUV

Chroma subsampling             : 4:2:0

Bit depth                      : 10 bits

Bits/(Pixel*Frame)             : 0.010

Stream size                    : 2.65 GiB (93%)

Encoded date                   : UTC 2019-07-02 06:51:46

Tagged date                    : UTC 2019-07-02 06:51:46

Color range                    : Limited

Color primaries                : BT.709

Transfer characteristics       : BT.709

Matrix coefficients            : BT.709

Codec configuration box        : hvcC

 

Audio

ID                             : 2

Format                         : AAC LC

Format/Info                    : Advanced Audio Codec Low Complexity

Codec ID                       : mp4a-40-2

Duration                       : 1 h 15 min

Bit rate mode                  : Variable

Bit rate                       : 384 kb/s

Maximum bit rate               : 388 kb/s

Channel(s)                     : 2 channels

Channel layout                 : L R

Sampling rate                  : 48.0 kHz

Frame rate                     : 46.875 FPS (1024 SPF)

Compression mode               : Lossy

Stream size                    : 209 MiB (7%)

Encoded date                   : UTC 2019-07-02 06:51:46

Tagged date                    : UTC 2019-07-02 06:51:46

 

 

 

  • ?
    sSTSs 2019.09.13 18:23

    SDR 영상을 10비트로 인코딩한 괴상한 혼종이지만 PC에서는 재생에 문제가 없을 것 같은데요.

    팟플 설정 문제 같습니다.

    copy-back 사용하지 마시고 'D3D11 DXVA 우선 사용'을 체크하고 시도해 보시죠.

     

    그리고 영상 자체의 문제라고 확신하시려면 다른 플레이어로도 동일한 문제들이 보여야 합니다.

    팟플 말고 MPC-HC, VLC, mpv (또는 mpv.net) 등으로 재생해도 같은 문제가 발생하면 영상의 문제겠고, 다른 플레이어에서는 이상 없이 잘 보이면 팟플 설정의 문제겠죠.


List of Articles
No. Subject Author Date Views Votes
Notice 中国用户们,请阅读一下这个帖子(중국 유저분들에게 보내는 메시지) 2 구름미르 2019.05.14 1884 1
Notice [알림] 질문 먹튀하지 마시기 바랍니다 9 sSTSs 2018.10.12 3201 2
Notice 자유게시판에서는 자유롭게 글을 올리고 질문 및 답변을 할 수 있는 공간입니다. 1 샤나 2017.03.13 2432 0
1906 gtx 1060 -> rtx 2060 변경시 인코딩속도 1 new 고구려의큐브 2019.09.16 15 0
1905 [알림] 질문하시기 전에 지켜주셨으면 하는 것들 updatefile sSTSs 2019.09.16 28 0
1904 인코딩 관련 문의드립니다. 2 플레이어 2019.09.15 39 0
1903 다이렉트 스트리밍 복사를 사용해서 영상 여러개를 병합하는 경우 싱크가 어긋나는 경우는 언제인가요? 3 로르샤흐 2019.09.14 57 0
» 4K@60FPS 영상이 하드웨어 가속이 안되는데 영상이 문제일까요 1 허당와 2019.09.13 80 0
1901 코덱만 변환 인코딩시 대상파일 화질을 유지하고싶습니다. 1 컴쁑 2019.09.12 325 0
1900 샤나인코더의 레티나 화질 지원 감사합니다. & 레티나 8K(8192×4608)화질 지원 가능하게 할 수 있는지요? 2 보스코프스키 2019.09.10 198 0
1899 mp4 파일을 mp4 파일로 스트림 복사했는데 오류가 뜹니다 11 젤로어콘 2019.09.09 342 0
1898 m2ts 파일을 우연히 구해서 인코딩 해보려고 했는데 5 file ハルト 2019.09.09 169 0
1897 움짤 만드는 프리셋 올렸습니다 1 sSTSs 2019.09.08 162 0
1896 만족스럽니당 짱이네요 jaems 2019.09.08 151 0
1895 파일명 텍스트 인코딩 문제(일본어) 촤알쓰 2019.09.07 125 0
1894 HDR 영상 용량줄이기 질문입니다.~~ 2 롱런 2019.09.05 355 0
1893 자막 추출 질문드립니다 1 file 레이시코 2019.09.04 188 0
1892 여러개의 동영상은 배치파일로 처리하려면 ... 6 file 엘비라 2019.09.04 180 0
1891 HEVC(QSV) 인코딩 하려는데 퀄러티모드가 ... 4 엘비라 2019.09.04 403 0
1890 적정 I프레임(scenecut) 수치를 계산할수 있을까요? 6 멜론웨이퍼 2019.09.04 142 0
1889 잘 사용하던 병합하기가 갑자기 안 됩니다ㅠㅠ 3 누리얌 2019.09.04 181 0
1888 설정하는곳 어떻게 들어가요? 1 polo3948 2019.09.04 72 0
1887 TV에서 영상을 원본 비율로 보고 싶습니다. 2 file 알롱 2019.09.03 226 0
Board Pagination Prev 1 2 3 4 5 6 7 8 9 10 ... 96 Next
/ 96