Skip to menu

본문시작



질문하기 전에 검색하세요(Search before asking a question)


Views 314 Votes 0 Comment 1
?

Shortcut

PrevPrev Article

NextNext Article

Larger Font Smaller Font Up Down Go comment Print
?

Shortcut

PrevPrev Article

NextNext Article

Larger Font Smaller Font Up Down Go comment Print

파일의 bit depth가 몇인지 어떻게 알 수 있나요? 파일정보에도 bit depth가 없네요. 이것 때문에 인코딩을 10비트로 해야하는지 8비트로 해야하는지 모르겠어요.

 

 

Video

Count                                    : 334

Count of stream of this kind             : 1

Kind of stream                           : Video

Kind of stream                           : Video

Stream identifier                        : 0

StreamOrder                              : 0

ID                                       : 2

ID                                       : 2

Format                                   : VC-1

Commercial name                          : VC-1

Format profile                           : AP@L3

Internet media type                      : video/vc1

Codec ID                                 : WVC1

Codec ID/Hint                            : Microsoft

Description of the codec                 : Windows Media Video 9 Advanced Profile

Codec                                    : WVC1

Codec                                    : VC-1

Codec/Family                             : VC-1

Codec/Info                               : Microsoft

Codec/CC                                 : WVC1

Codec description                        : Windows Media Video 9 Advanced Profile

Duration                                 : 11136503

Duration                                 : 3 h 5 min

Duration                                 : 3 h 5 min 36 s 503 ms

Duration                                 : 3 h 5 min

Duration                                 : 03:05:36.503

Duration                                 : 03:05:36;15

Duration                                 : 03:05:36.503 (03:05:36;15)

Bit rate                                 : 5744000

Bit rate                                 : 5 744 kb/s

Width                                    : 1920

Width                                    : 1 920 pixels

Height                                   : 1080

Height                                   : 1 080 pixels

Pixel aspect ratio                       : 1.000

Display aspect ratio                     : 1.778

Display aspect ratio                     : 16:9

Frame rate                               : 29.970

Frame rate                               : 29.970 (29970/1000) FPS

FrameRate_Num                            : 29970

FrameRate_Den                            : 1000

Frame count                              : 333761

Compression mode                         : Lossy

Compression mode                         : Lossy

Bits/(Pixel*Frame)                       : 0.092

Stream size                              : 7996009154

Stream size                              : 7.45 GiB (95%)

Stream size                              : 7 GiB

Stream size                              : 7.4 GiB

Stream size                              : 7.45 GiB

Stream size                              : 7.447 GiB

Stream size                              : 7.45 GiB (95%)

Proportion of this stream                : 0.95360

Facebook Twitter Pinterest Kakao

List of Articles
No. Category Subject Author Date Views Votes
Notice 자유게시판에서는 자유롭게 글을 작성할 수 있지만 다음과 같은 내용은 삭제돼요 Rina 2020.03.18 3686 3
Notice 일반 [필독] 질문 전에 반드시 읽으세요!!! 2 file JKyle 2019.09.16 10909 6
Notice 일반 [알림] 질문 먹튀하지 마시기 바랍니다 => 본문 변경 금지 16 JKyle 2018.10.12 11483 13
1765 인코딩후 폴더열기 통기타 2019.06.27 306 0
1764 차량용 비디오 코덱 관련 질문입니다,, 2 file 아이스덕 2019.06.27 305 0
1763 인코딩 오류가 떠서 글을 올립니다 1 와플과녹차 2019.06.26 336 0
1762 고해상도 리사이즈 인코딩 질문 2 nogoon 2019.06.26 840 0
1761 영상/음성 스트림 선택에 대한 질문... 3 달료 2019.06.26 449 0
1760 영상의 레터박스를 지우고 싶습니다. 1 으하하핳 2019.06.24 1227 0
1759 FHD인 영상을 용량만 줄이고 화질을 그대로 가져올 수 있는 설정법이 있나요?? 4 file 각키 2019.06.23 4582 0
1758 몇몇 건의를 참고해 주십시오. ljb 2019.06.23 238 0
1757 폴더 드래그로 인코딩파일 추가는 안되나요? 1 mm548 2019.06.22 319 0
1756 프리셋과 관련하여 궁금한게 있습니다. 2 닉네임뭐할까 2019.06.17 1100 0
1755 샤나님 혹시 샤나인코더 어플로도 만드실 계획 있으신 가요? 3 페르티노 2019.06.16 674 0
1754 이 영상 왜 이럴까요? 2 vega13 2019.06.16 404 0
1753 누구 대신 인코딩해서 보내주실 분 안계실까요?? 2 vega13 2019.06.16 627 0
1752 인코딩 오류가 계속 납니다 1 김진숙 2019.06.14 278 0
1751 샤나인코더에서 해상도 설정은 어디에 있는건가요? 1 바톤터치 2019.06.14 978 0
1750 영상오디오 합성은 어떻게 하나요? 2 file bard 2019.06.13 690 0
1749 차량용 프리셋설정 질문드립니다 1 재달빈 2019.06.13 323 0
1748 초보질문입니다 4 모모 2019.06.13 745 0
1747 영상을 음원파일로 추출 10 replay3314 2019.06.13 866 0
1746 인코딩하고 나서 파일에 샤나 붙는건 5 그오옷 2019.06.12 949 0
Board Pagination Prev 1 ... 39 40 41 42 43 44 45 46 47 48 ... 132 Next
/ 132