Skip to menu

본문시작



?

Shortcut

PrevPrev Article

NextNext Article

Larger Font Smaller Font Up Down Go comment Print
?

Shortcut

PrevPrev Article

NextNext Article

Larger Font Smaller Font Up Down Go comment Print

카카오 플레이어에서 재생정보 열어본뒤 거기서 파일정보 열어보면 설정값들이 나오는데

그걸 그대로 프리세에 적용할수 있나요?

제가 하고 싶은 설정은 아래에 적겠습니다.

 

 

General

Format                         : Matroska
Format version                 : Version 4
File size                      : 69.7 MiB
Duration                       : 24 min 11 s
Overall bit rate               : 403 kb/s
Writing application            : ShanaEncoder
Writing library                : ShanaEncoder
ErrorDetectionType             : Per level 1

 

 

Video
ID                             : 1
Format                         : HEVC
Format/Info                    : High Efficiency Video Coding
Format profile                 : Main@L3.1@Main
Codec ID                       : V_MPEGH/ISO/HEVC
Duration                       : 24 min 10 s
Bit rate                       : 331 kb/s
Width                          : 1 024 pixels
Height                         : 576 pixels
Display aspect ratio           : 16:9
Frame rate mode                : Constant
Frame rate                     : 23.976 (24000/1001) FPS
Color space                    : YUV
Chroma subsampling             : 4:2:0
Bit depth                      : 8 bits
Bits/(Pixel*Frame)             : 0.023
Stream size                    : 57.3 MiB (82%)
Writing library                : x265 2.8:[Windows][GCC 5.1.0][64 bit] 8bit
Encoding settings              : cpuid=1111039 / frame-threads=3 / wpp / no-pmode / no-pme / no-psnr / no-ssim / log-level=2 / input-csp=1 / input-res=1024x576 / interlace=0 / total-frames=0 / level-idc=0 / high-tier=1 / uhd-bd=0 / ref=3 / no-allow-non-conformance / no-repeat-headers / annexb / no-aud / no-hrd / info / hash=0 / no-temporal-layers / open-gop / min-keyint=23 / keyint=250 / gop-lookahead=0 / bframes=4 / b-adapt=2 / b-pyramid / bframe-bias=0 / rc-lookahead=20 / lookahead-slices=0 / scenecut=40 / radl=0 / no-intra-refresh / ctu=64 / min-cu-size=8 / no-rect / no-amp / max-tu-size=32 / tu-inter-depth=1 / tu-intra-depth=1 / limit-tu=0 / rdoq-level=0 / dynamic-rd=0.00 / no-ssim-rd / signhide / no-tskip / nr-intra=0 / nr-inter=0 / no-constrained-intra / strong-intra-smoothing / max-merge=2 / limit-refs=3 / no-limit-modes / me=1 / subme=2 / merange=57 / temporal-mvp / weightp / no-weightb / no-analyze-src-pics / deblock=0:0 / sao / no-sao-non-deblock / rd=3 / no-early-skip / rskip / no-fast-intra / no-tskip-fast / no-cu-lossless / no-b-intra / no-splitrd-skip / rdpenalty=0 / psy-rd=2.00 / psy-rdoq=0.00 / no-rd-refine / no-lossless / cbqpoffs=0 / crqpoffs=0 / rc=crf / crf=23.0 / qcomp=0.60 / qpstep=4 / stats-write=0 / stats-read=0 / ipratio=1.40 / pbratio=1.30 / aq-mode=1 / aq-strength=1.00 / cutree / zone-count=0 / no-strict-cbr / qg-size=32 / no-rc-grain / qpmax=69 / qpmin=0 / no-const-vbv / sar=1 / overscan=0 / videoformat=5 / range=0 / colorprim=2 / transfer=2 / colormatrix=2 / chromaloc=0 / display-window=0 / max-cll=0,0 / min-luma=0 / max-luma=255 / log2-max-poc-lsb=8 / vui-timing-info / vui-hrd-info / slices=1 / no-opt-qp-pps / no-opt-ref-list-length-pps / no-multi-pass-opt-rps / scenecut-bias=0.05 / no-opt-cu-delta-qp / no-aq-motion / no-hdr / no-hdr-opt / no-dhdr10-opt / no-idr-recovery-sei / analysis-reuse-level=5 / scale-factor=0 / refine-intra=0 / refine-inter=0 / refine-mv=0 / no-limit-sao / ctu-info=0 / no-lowpass-dct / refine-mv-type=0 / copy-pic=1 / max-ausize-factor=1.0 / no-dynamic-refine / no-single-sei
Default                        : Yes
Forced                         : No

 

 

Audio
ID                             : 2
Format                         : MPEG Audio
Format version                 : Version 1
Format profile                 : Layer 3
Format settings                : Joint stereo / MS Stereo
Codec ID                       : A_MPEG/L3
Codec ID/Hint                  : MP3
Duration                       : 24 min 11 s
Bit rate mode                  : Constant
Bit rate                       : 64.0 kb/s
Channel(s)                     : 2 channels
Sampling rate                  : 48.0 kHz
Compression mode               : Lossy
Stream size                    : 11.1 MiB (16%)
Writing library                : LAME3.99
Default                        : Yes
Forced                         : No

 

Facebook Twitter Pinterest Kakao

List of Articles
No. Subject Author Last Update Views Votes
Notice [필독] 질문 전에 이 사항들을 꼭 지켜주십시오 2 file JKyle 2020.02.05 1675 2
Notice [알림] 질문 먹튀하지 마시기 바랍니다 13 JKyle 2020.02.13 4433 4
1616 TS -> MKV 변환 오류 4 No9.Shearer 2019.02.26 785 0
1615 영화 파일 샤나로 파일구조 변형이 가능한가요? 승자는혼자다 2019.02.25 196 0
1614 3D 동영상 2D 변환 클래시컬 2019.02.24 352 0
1613 제네시스 DH용 프리셋이 있을까요? 2 데빗 2019.02.24 207 1
1612 영상옆에 사진 입히는거 방법 알고싶슴다 (사진첨부) 3 file 노진구 2019.02.23 487 0
1611 자막을 입혔을시 줄바꿈이 안되서 자막이 잘리는 경우가 있네요 1 kni6475 2019.02.23 345 0
1610 덕분에 잘 활용하고 있습니다. 노랑배 2019.02.21 236 0
1609 자막 글꼴로 나눔스퀘어 Extrabold를 사용중인데 대체 글꼴은 사용하지 못하나요? 1 file 신버 2019.02.21 297 0
1608 파일병합할때 비트레이트기준을 어떻게 잡아야할까요 1 머대리과장 2019.02.18 696 0
1607 더블 프레임 레이트 사용해서 인코딩했는데 다시 인코딩해야하나요 ? 1 라임 2019.02.16 598 0
1606 샤나인코더로 인코딩하면 프레임이 늘어나요 file 날라가 2019.02.12 549 0
1605 H264(QSV ) 인코딩을 사용하기 위해선 외장 그래픽카드가 없는 시스템이어야 하나요? 1 초보인코더j 2019.02.10 951 0
1604 자막 글씨체 ... 1 file RaSeo 2019.02.10 392 0
1603 소리와 화면이 맞지 않아요 2 선물이맘 2019.02.10 879 0
1602 비트레이트 인코딩시 무조건 2패스 인코딩해야하나요? 3 머대리과장 2019.02.10 1446 0
» 파일에 있는 설정을 그대로 인코딩 설정으로 만들수 있나요? 2 태극랍스타 2019.02.10 530 0
1600 HEVC(NVENC) 로 인코딩시 영상 재생이 잘 안됩니다. 푸루푸루 2019.02.09 742 0
1599 mkv→mp4 변환 어떻게해야하나요?? 2 RaSeo 2019.02.08 1655 0
1598 오디오 채널이 원본은 6채널인데 오디오코덱 스트림복사 하면 2채널이 됩니다. 1 샤나쨩 2019.02.08 766 0
1597 동영상 자막 합치기에 관해서... 1 엉뚱한곰 2019.02.08 910 0
Board Pagination Prev 1 ... 19 20 21 22 23 24 25 26 27 28 ... 104 Next
/ 104