Views 344 Votes 0 Comment 2
?

Shortcut

PrevPrev Article

NextNext Article

Larger Font Smaller Font Up Down Go comment Print Attachment
?

Shortcut

PrevPrev Article

NextNext Article

Larger Font Smaller Font Up Down Go comment Print Attachment

MP4 + SMI를 MP4에 자막을 입혀 하나의 파일로 만들려고 했습니다.

 

 

 

 

 

Format 후 Windows 10 Pro 64bit (=MS에서 구매한 정품) 설치한 PC라 프로그램 재설치를 요구하는 상황은 아니겠죠?

 

 

 

 

 

샤나 설정 상태

 

001.PNG

002.PNG

003.PNG

004.PNG

 

 

 

 

 

입력된 파일의 정보

 

General
Complete name                            : **********.mp4
Format                                   : MPEG-4
Format profile                           : Base Media
Codec ID                                 : isom (isom/iso2/avc1/mp41)
File size                                : 1.47 GiB
Duration                                 : 1 h 37 min
Overall bit rate                         : 2 159 kb/s
Frame rate                               : 23.976 FPS
Writing application                      : Lavf57.23.100

Video
ID                                       : 1
Format                                   : AVC
Format/Info                              : Advanced Video Codec
Format profile                           : High@L4.1
Format settings                          : CABAC / 4 Ref Frames
Format settings, CABAC                   : Yes
Format settings, Reference frames        : 4 frames
Codec ID                                 : avc1
Codec ID/Info                            : Advanced Video Coding
Duration                                 : 1 h 37 min
Bit rate                                 : 2 050 kb/s
Width                                    : 1 920 pixels
Height                                   : 1 040 pixels
Display aspect ratio                     : 1.85:1
Frame rate mode                          : Constant
Frame rate                               : 23.976 FPS
Color space                              : YUV
Chroma subsampling                       : 4:2:0
Bit depth                                : 8 bits
Scan type                                : Progressive
Bits/(Pixel*Frame)                       : 0.043
Stream size                              : 1.40 GiB (95%)
Writing library                          : x264 core 148
Encoding settings                        : cabac=1 / ref=4 / deblock=1:-1:-1 / analyse=0x3:0x133 / me=umh / subme=9 / psy=1 / psy_rd=1.00:0.15 / mixed_ref=1 / me_range=24 / chroma_me=1 / trellis=2 / 8x8dct=1 / cqm=0 / deadzone=21,11 / fast_pskip=0 / chroma_qp_offset=-3 / threads=12 / lookahead_threads=1 / sliced_threads=0 / nr=0 / decimate=1 / interlaced=0 / bluray_compat=0 / constrained_intra=0 / bframes=3 / b_pyramid=2 / b_adapt=2 / b_bias=0 / direct=3 / weightb=1 / open_gop=0 / weightp=2 / keyint=250 / keyint_min=23 / scenecut=40 / intra_refresh=0 / rc_lookahead=60 / rc=2pass / mbtree=1 / bitrate=2050 / ratetol=1.0 / qcomp=0.60 / qpmin=0 / qpmax=69 / qpstep=4 / cplxblur=20.0 / qblur=0.5 / vbv_maxrate=31250 / vbv_bufsize=31250 / nal_hrd=none / filler=0 / ip_ratio=1.40 / aq=1:1.00
Codec configuration box                  : avcC

Audio
ID                                       : 2
Format                                   : AAC LC
Format/Info                              : Advanced Audio Codec Low Complexity
Codec ID                                 : mp4a-40-2
Duration                                 : 1 h 37 min
Duration_LastFrame                       : -11 ms
Bit rate mode                            : Constant
Bit rate                                 : 105 kb/s
Channel(s)                               : 2 channels
Channel layout                           : L R
Sampling rate                            : 48.0 kHz
Frame rate                               : 46.875 FPS (1024 SPF)
Compression mode                         : Lossy
Stream size                              : 73.4 MiB (5%)
Default                                  : Yes
Alternate group                          : 1

자세한 정보

General
Count                                    : 348
Count of stream of this kind             : 1
Kind of stream                           : General
Kind of stream                           : General
Stream identifier                        : 0
Count of video streams                   : 1
Count of audio streams                   : 1
Video_Format_List                        : AVC
Video_Format_WithHint_List               : AVC
Codecs Video                             : AVC
Audio_Format_List                        : AAC LC
Audio_Format_WithHint_List               : AAC LC
Audio codecs                             : AAC LC
Audio_Channels_Total                     : 2
Complete name                            : **********.mp4
Folder name                              : **********.mp4
File name extension                      : **********.mp4
File name                                : **********.mp4
File extension                           : mp4
Format                                   : MPEG-4
Format                                   : MPEG-4
Format/Extensions usually used           : braw mov mp4 m4v m4a m4b m4p m4r 3ga 3gpa 3gpp 3gp 3gpp2 3g2 k3g jpm jpx mqv ismv isma ismt f4a f4b f4v
Commercial name                          : MPEG-4
Format profile                           : Base Media
Internet media type                      : video/mp4
Codec ID                                 : isom
Codec ID                                 : isom (isom/iso2/avc1/mp41)
Codec ID/Url                             : http://www.apple.com/quicktime/download/standalone.html
CodecID_Compatible                       : isom/iso2/avc1/mp41
File size                                : 1583678098
File size                                : 1.47 GiB
File size                                : 1 GiB
File size                                : 1.5 GiB
File size                                : 1.47 GiB
File size                                : 1.475 GiB
Duration                                 : 5867915
Duration                                 : 1 h 37 min
Duration                                 : 1 h 37 min 47 s 915 ms
Duration                                 : 1 h 37 min
Duration                                 : 01:37:47.915
Duration                                 : 01:37:49;06
Duration                                 : 01:37:47.915 (01:37:49;06)
Overall bit rate                         : 2159102
Overall bit rate                         : 2 159 kb/s
Frame rate                               : 23.976
Frame rate                               : 23.976 FPS
Frame count                              : 140686
Stream size                              : 4053777
Stream size                              : 3.87 MiB (0%)
Stream size                              : 4 MiB
Stream size                              : 3.9 MiB
Stream size                              : 3.87 MiB
Stream size                              : 3.866 MiB
Stream size                              : 3.87 MiB (0%)
Proportion of this stream                : 0.00256
HeaderSize                               : 4053769
DataSize                                 : 1579624329
FooterSize                               : 0
IsStreamable                             : Yes
File creation date                       : 2024-06-18 04:05:28.610 UTC
File creation date (local)               : 2024-06-18 13:05:28.610
File last modification date              : 2024-06-18 04:32:15.896 UTC
File last modification date (local)      : 2024-06-18 13:32:15.896
Writing application                      : Lavf57.23.100
Writing application                      : Lavf57.23.100

Video
Count                                    : 382
Count of stream of this kind             : 1
Kind of stream                           : Video
Kind of stream                           : Video
Stream identifier                        : 0
StreamOrder                              : 0
ID                                       : 1
ID                                       : 1
Format                                   : AVC
Format                                   : AVC
Format/Info                              : Advanced Video Codec
Format/Url                               : http://developers.videolan.org/x264.html
Commercial name                          : AVC
Format profile                           : High@L4.1
Format settings                          : CABAC / 4 Ref Frames
Format settings, CABAC                   : Yes
Format settings, CABAC                   : Yes
Format settings, Reference frames        : 4
Format settings, Reference frames        : 4 frames
Internet media type                      : video/H264
Codec ID                                 : avc1
Codec ID/Info                            : Advanced Video Coding
Duration                                 : 5867788
Duration                                 : 1 h 37 min
Duration                                 : 1 h 37 min 47 s 788 ms
Duration                                 : 1 h 37 min
Duration                                 : 01:37:47.788
Duration                                 : 01:37:49;06
Duration                                 : 01:37:47.788 (01:37:49;06)
Bit rate                                 : 2050000
Bit rate                                 : 2 050 kb/s
Width                                    : 1920
Width                                    : 1 920 pixels
Height                                   : 1040
Height                                   : 1 040 pixels
Sampled_Width                            : 1920
Sampled_Height                           : 1040
Pixel aspect ratio                       : 1.000
Display aspect ratio                     : 1.846
Display aspect ratio                     : 1.85:1
Rotation                                 : 0.000
Frame rate mode                          : CFR
Frame rate mode                          : Constant
FrameRate_Mode_Original                  : VFR
Frame rate                               : 23.976
Frame rate                               : 23.976 FPS
Frame count                              : 140686
Color space                              : YUV
Chroma subsampling                       : 4:2:0
Chroma subsampling                       : 4:2:0
Bit depth                                : 8
Bit depth                                : 8 bits
Scan type                                : Progressive
Scan type                                : Progressive
Bits/(Pixel*Frame)                       : 0.043
Stream size                              : 1502632825
Stream size                              : 1.40 GiB (95%)
Stream size                              : 1 GiB
Stream size                              : 1.4 GiB
Stream size                              : 1.40 GiB
Stream size                              : 1.399 GiB
Stream size                              : 1.40 GiB (95%)
Proportion of this stream                : 0.94882
Writing library                          : x264 - core 148
Writing library                          : x264 core 148
Encoded_Library_Name                     : x264
Encoded_Library_Version                  : core 148
Encoding settings                        : cabac=1 / ref=4 / deblock=1:-1:-1 / analyse=0x3:0x133 / me=umh / subme=9 / psy=1 / psy_rd=1.00:0.15 / mixed_ref=1 / me_range=24 / chroma_me=1 / trellis=2 / 8x8dct=1 / cqm=0 / deadzone=21,11 / fast_pskip=0 / chroma_qp_offset=-3 / threads=12 / lookahead_threads=1 / sliced_threads=0 / nr=0 / decimate=1 / interlaced=0 / bluray_compat=0 / constrained_intra=0 / bframes=3 / b_pyramid=2 / b_adapt=2 / b_bias=0 / direct=3 / weightb=1 / open_gop=0 / weightp=2 / keyint=250 / keyint_min=23 / scenecut=40 / intra_refresh=0 / rc_lookahead=60 / rc=2pass / mbtree=1 / bitrate=2050 / ratetol=1.0 / qcomp=0.60 / qpmin=0 / qpmax=69 / qpstep=4 / cplxblur=20.0 / qblur=0.5 / vbv_maxrate=31250 / vbv_bufsize=31250 / nal_hrd=none / filler=0 / ip_ratio=1.40 / aq=1:1.00
Codec configuration box                  : avcC

Audio
Count                                    : 285
Count of stream of this kind             : 1
Kind of stream                           : Audio
Kind of stream                           : Audio
Stream identifier                        : 0
StreamOrder                              : 1
ID                                       : 2
ID                                       : 2
Format                                   : AAC
Format                                   : AAC LC
Format/Info                              : Advanced Audio Codec Low Complexity
Commercial name                          : AAC
Format_AdditionalFeatures                : LC
Codec ID                                 : mp4a-40-2
Duration                                 : 5867915
Duration                                 : 1 h 37 min
Duration                                 : 1 h 37 min 47 s 915 ms
Duration                                 : 1 h 37 min
Duration                                 : 01:37:47.915
Duration                                 : 01:37:47.915
Duration_LastFrame                       : -11
Duration_LastFrame                       : -11 ms
Duration_LastFrame                       : -11 ms
Duration_LastFrame                       : -11 ms
Duration_LastFrame                       : -00:00:00.011
Duration_LastFrame                       : -00:00:00.011
Bit rate mode                            : CBR
Bit rate mode                            : Constant
Bit rate                                 : 104966
Bit rate                                 : 105 kb/s
Channel(s)                               : 2
Channel(s)                               : 2 channels
Channel positions                        : Front: L R
Channel positions                        : 2/0/0
Channel layout                           : L R
Samples per frame                        : 1024
Sampling rate                            : 48000
Sampling rate                            : 48.0 kHz
Samples count                            : 281659920
Frame rate                               : 46.875
Frame rate                               : 46.875 FPS (1024 SPF)
Frame count                              : 275059
Compression mode                         : Lossy
Compression mode                         : Lossy
Stream size                              : 76991496
Stream size                              : 73.4 MiB (5%)
Stream size                              : 73 MiB
Stream size                              : 73 MiB
Stream size                              : 73.4 MiB
Stream size                              : 73.42 MiB
Stream size                              : 73.4 MiB (5%)
Proportion of this stream                : 0.04862
Default                                  : Yes
Default                                  : Yes
Alternate group                          : 1
Alternate group                          : 1

MediaInfoLib - v23.07

 

 

 

 

 

샤나 에러 확인 내용

 

Stream mapping:
  Stream #1:0 -> #0:0 (ass (ssa) -> mov_text (native))
  Stream #0:0 -> #0:1 (h264 (native) -> h264 (libx264))
  Stream #0:1 -> #0:2 (aac (native) -> mp3 (libmp3lame))
[libx264 @ 000002de1ade8140] using SAR=1/1
[libx264 @ 000002de1ade8140] using cpu capabilities: MMX2 SSE2Fast SSSE3 SSE4.2 AVX FMA3 BMI2 AVX2
[libx264 @ 000002de1ade8140] profile Constrained Baseline, level 4.0, 4:2:0, 8-bit
[libx264 @ 000002de1ade8140] 264 - core 164 r3107 a8b68eb - H.264/MPEG-4 AVC codec - Copyleft 2003-2023 - http://www.videolan.org/x264.html - options: cabac=0 ref=1 deblock=1:0:0 analyse=0x1:0x111 me=hex subme=2 psy=1 psy_rd=1.00:0.00 mixed_ref=0 me_range=16 chroma_me=1 trellis=0 8x8dct=0 cqm=0 deadzone=21,11 fast_pskip=1 chroma_qp_offset=0 threads=18 lookahead_threads=6 sliced_threads=0 nr=0 decimate=1 interlaced=0 bluray_compat=0 constrained_intra=0 bframes=0 weightp=0 keyint=250 keyint_min=23 scenecut=40 intra_refresh=0 rc_lookahead=10 rc=crf mbtree=1 crf=24.0 qcomp=0.60 qpmin=0 qpmax=69 qpstep=4 ip_ratio=1.40 aq=1:1.00
[mp4 @ 000002de1adc8680] Application provided duration: 4294611666000 is invalid
[vost#0:1/libx264 @ 000002de1ade7e40] Error submitting a packet to the muxer: Invalid argument
[out#0/mp4 @ 000002de1add2040] Error muxing a packet
[out#0/mp4 @ 000002de1add2040] video:1942897kB audio:87373kB subtitle:34kB other streams:0kB global headers:0kB muxing overhead: 0.116830%
[libx264 @ 000002de1ade8140] frame I:1636  Avg QP:21.23  size: 84075
[libx264 @ 000002de1ade8140] frame P:132426 Avg QP:23.49  size: 13989
[libx264 @ 000002de1ade8140] mb I  I16..4: 57.0%  0.0% 43.0%
[libx264 @ 000002de1ade8140] mb P  I16..4: 10.0%  0.0%  1.7%  P16..4: 27.0%  7.0%  1.2%  0.0%  0.0%    skip:53.0%
[libx264 @ 000002de1ade8140] coded y,uvDC,uvAC intra: 19.0% 41.0% 4.9% inter: 5.4% 8.6% 0.1%
[libx264 @ 000002de1ade8140] i16 v,h,dc,p: 42% 26% 18% 15%
[libx264 @ 000002de1ade8140] i4 v,h,dc,ddl,ddr,vr,hd,vl,hu: 24% 19% 21%  6%  7%  7%  6%  6%  4%
[libx264 @ 000002de1ade8140] i8c dc,h,v,p: 54% 19% 23%  4%
[libx264 @ 000002de1ade8140] kb/s:2847.21
Conversion failed!

 * [3] 인코딩 오류가 발생했습니다.

Atachment
Attachment '4'
Facebook Twitter Pinterest Kakao
  • ?
    그라스 2024.06.26 07:51

    혹시 내장 자막 복사 안 함을 선택하여 해보세요 만약에 가능할지 모름니다.

  • ?
    유니파트 2024.06.27 23:50

    감사합니다.

     

    기존 설정 [ 빠른 설정 ] - [ 기타 ] - [ V ] Closed Caption(파일 형식 안에 자막 넣기)에서

     

    [ 빠른 설정 ] - [ 기타 ] - [ V ]내장 자막 복사안 함

    + [ 영상 / 자막 ] - [ V ] 영상에 자막 입히기

     

    변경하여 자막을 영상에 입혔습니다.

     

    감사합니다.


List of Articles
No. Category Subject Author Date Views Votes
Notice 소리를 4가지로 분리하는 샤나보컬리무버 프로그램을 소개합니다. Rina 2024.03.22 5379 4
Notice 샤나인코더 통합 검색 기능 개선(샤나인코더 우측 상단에 있는 검색창을 사용해 보세요.) Rina 2021.09.30 20578 2
Notice 자유게시판에서는 자유롭게 글을 작성할 수 있지만 다음과 같은 내용은 삭제돼요 Rina 2020.03.18 18028 5
Notice 일반 [필독] 질문 전에 반드시 읽으세요!!! 3 file JKyle 2019.09.16 37510 7
Notice 일반 [알림] 질문 먹튀하지 마시기 바랍니다 => 본문 변경 금지 23 JKyle 2018.10.12 32251 16
3243 일반 인코딩 완료 후 원본 파일 삭제 1 러기늬 2024.07.20 368 0
3242 질문 동영상과 사진을 합치기 모드로 인코딩시 사진의 재생 시간을 늘리는 방법 있을까요 에피 2024.07.20 122 0
3241 일반 인코딩 하다보면 프레임 드랍이 생기는 영상이 있는데요 1 브라보콘 2024.07.19 183 0
3240 질문 MKV to MP4 오류 해결 방법 좀 알려주세요. 유니파트 2024.07.19 95 0
3239 질문 아이폰 영상 3개를 합치고 싶은데 색감이 물빠진 색깔로 됩니다. 아렌티 2024.07.17 125 0
3238 질문 뻥튀기된 프레임 확인방법 있을까요 1 인상적인인절미 2024.07.17 175 0
3237 질문 신기해서 질문 드려봅니다. 1 영식이 2024.07.13 402 0
3236 질문 인터레이스 영상 인코딩 할 때 디인터레이스 옵션... 2 하늘아재 2024.07.12 209 0
3235 질문 빠른 설정 자막 탭 없음 2 file 현앙 2024.07.07 346 0
3234 질문 XVID와 XVID(core) 코덱의 차이가 궁금합니다. 데그므라 2024.07.04 350 0
3233 일반 파일면의 앞문자 추가외에 뒷문자도 추가 가능한가요 1 lilly 2024.07.03 265 0
3232 질문 샤나 인코더 입문자인데요 file 랄라꼴레이션 2024.07.03 283 0
3231 질문 GPU로 인코딩 하는 게 화질이 어느정도 차이나는 건가요? 1 bard 2024.07.03 422 0
3230 질문 비디오는 스트림 복사하고, 오디오만 인코딩 할 때 2 인상적인인절미 2024.06.30 275 0
3229 질문 다중 자막 중 한글 선택 하면 영어와 같이 이중으로 입혀집니다. 미드추천 2024.06.26 272 0
3228 질문 오래된 컴퓨터 교체할 생각인데 체감이 어느정도 될런지요? 4 reo 2024.06.26 489 0
» 질문 MP4에 SMI 자막을 입히려는데 계속 에러가 발생합니다. 2 file 유니파트 2024.06.24 344 0
3226 질문 인코딩 하는데 cpu gpu 점유율이 낮게 나와요 1 Tailor 2024.06.24 367 0
3225 질문 팟플레이어에서 기준 FPS가 29.963 영상을 인코딩할 때 브라보콘 2024.06.24 199 0
3224 질문 시스템 업그레이드 하려고합니다. 질문있습니다 1 님덕내탓 2024.06.21 345 0
Board Pagination Prev 1 2 3 4 5 6 7 8 9 10 ... 163 Next
/ 163