Skip to menu

본문시작



질문하기 전에 검색하세요(Search before asking a question)


?

Shortcut

PrevPrev Article

NextNext Article

Larger Font Smaller Font Up Down Go comment Print Attachment
?

Shortcut

PrevPrev Article

NextNext Article

Larger Font Smaller Font Up Down Go comment Print Attachment

- 컴퓨터 사양 -

CPU : i7-13700KF (인텔 13세대 랩터레이크)

RAM : 32GB
GPU : RTX 4080 16GB

Power : 델타 GPS-1000EB 80PLUS GOLD (1000W)

운영체제 : Windows 11

 

파일 정보, 매개변수, 빠른 설정 등은 글 하단에 적어놓았습니다.

 

 

---------------------------------------------------------------------------------------------------------------------------------------------------------------

안녕하세요....

아무리 검색해도 나오질 않아 질문드리고자 합니다....

 

(질문 전, 공지사항에 올라와있던 글을 전부 읽었으며,

기초 지식 등 반드시 읽어보라는 글도 확인하였습니다.

그 밖에, 이 사이트의 많은 글들과, 다른 사이트의 관련된 글들을 검색하여 많이 읽어보았습니다....)

 

 

다름이 아니라 8k H265 mp4 영상을 av1 코덱을 이용하여 8k mkv 영상으로 2패스 인코딩하고자 합니다.

(8k h265 mp4 -> 8k av1 mkv)

(후자여야만 유튜브에 8k 영상으로 업로드가 가능하더라구요.)

 

그런데 시범삼아 해보았던 2초짜리 영상은 짧은 시간이 걸려 인코딩이 성공(유튜브 8k 업로드도 성공)하였으나,

두번째 시범인 1분 7초짜리 영상은 거진 7시간이 지나도록 인코딩이 끝나지 않고 2패스 진행중 5x.xx% 였습니다.

(남은시간 표기는 6시간 xx분 xx초...)

 

그래서 뭔가 잘못된 건가 싶어서 강제 종료하고 여러번 다시 시도해보았으나 같은 현상을 보이고 있습니다.

그 와중에 cpu 사용률은 100%를 찍으며 다른 프로그램을 종료해버리곤 하네요.

 

이곳의 게시글에선 av1은 소프트웨어 코덱으로, gpu를 사용할 수 없다는 글들을 보았는데..

또 어떤 사이트에서는 win10부터 av1에 하드웨어 코덱을 지원해준다고 하며 av1 video extension을 설치하면 된다고 하고...

(물론, 설치해보았지만 아무런 변화가 없었습니다.)

 

으음... 사실 이 상황이 잘 이해가 되질 않습니다....

최대한 질문은 피하고자 이 사이트, 저 사이트 검색을 수차례 하면서 여러 글을 읽었습니다만...

큰 의미는 없었던 것 같습니다....

 

혹시나 싶어서 환경설정 - 하드웨어 디코딩 - NVIDIA CUDA(NVDEC)도 체크해보았습니다만...

아무런 변화도 없었습니다.

 

 

사실... 상기하였듯 현재 굉장히 오래 걸리고 있는 1분 7초짜리 영상도 시험 영상이고,

실제로 인코딩 하려는 것은 2시간짜리 영상으로,

1분 7초짜리도 12시간이 걸린다면 대체 2시간 짜리 영상은 인코딩이 가능한 것일까.... 라는 생각도 드네요.

(해당 영상 : 8k h265 mp4 2시간)

 

아니면...

av1 mkv으로 인코딩하지 않고도 8k 화질로서 유튜브에 업로드할 수 있는 방법이 있을까요...?

(지금 방법 또한, 구글과 네이버, 유튜브에 수시간에 걸쳐서 검색한 결과를 조합해서 알아낸 방법이네요....)

 

요약하자면,

 

1. (8k h265 mp4 -> 8k av1 mkv) 인코딩이 굉장히 오래 걸릴 뿐더러 cpu를 거진 100%를 사용하곤 합니다.

gpu를 사용한다든가, 개선할 수 있는 방법이 있을까요?

 

2. av1 mkv로만 8k 영상을 유튜브에 업로드할 수 있음을 여러번의 실험을 통해 알아냈습니다.

하지만 1번에서 말씀드렸듯 굉장히 오래 걸리고, cpu가 혹사당하는 것 같아 혹시 다른 방법이 있는지 여쭙고 싶습니다.

 

긴 글 읽어주셔서 감사합니다...

 

---------------------------------------------------------------------------------------------------------------------------------------------------

영상 정보는 아직 시도해보지 않은 2시간 짜리 영상이 아니라,

현재 오래 걸리고 있는 1분 7초짜리 영상 정보를 올립니다.

(참고로, 이 영상 파일은 기존 4k 영상을 유튜브 8k 업로드 실험을 위해 프리미어 프로로 h256 8k로 인코딩했던 영상입니다.)

(실험에 성공한 2초짜리 영상 또한 강제로 8k로 늘였던 영상이었습니다.)

(반면, 2시간짜리 영상은 8k로 녹화된 영상입니다.)

 

영상 파일 정보

 

General
Complete name                            : E:\탱크.mp4
Format                                   : MPEG-4
Format profile                           : Base Media / Version 2
Codec ID                                 : mp42 (mp42/mp41)
File size                                : 1.02 GiB
Duration                                 : 1 min 7 s
Overall bit rate mode                    : Variable
Overall bit rate                         : 130 Mb/s
Encoded date                             : UTC 2023-01-12 23:48:48
Tagged date                              : UTC 2023-01-12 23:49:22
TIM                                      : 00:00:00:00
TSC                                      : 30000
TSZ                                      : 1001

Video
ID                                       : 1
Format                                   : HEVC
Format/Info                              : High Efficiency Video Coding
Format profile                           : Main@L6.2@Main
Codec ID                                 : hvc1
Codec ID/Info                            : High Efficiency Video Coding
Duration                                 : 1 min 7 s
Bit rate                                 : 130 Mb/s
Width                                    : 7 680 pixels
Height                                   : 4 320 pixels
Display aspect ratio                     : 16:9
Frame rate mode                          : Constant
Frame rate                               : 29.970 (30000/1001) FPS
Color space                              : YUV
Chroma subsampling                       : 4:2:0
Bit depth                                : 8 bits
Bits/(Pixel*Frame)                       : 0.130
Stream size                              : 1.02 GiB (100%)
Language                                 : English
Encoded date                             : UTC 2023-01-12 23:48:48
Tagged date                              : UTC 2023-01-12 23:48:48
Color range                              : Limited
Color primaries                          : BT.709
Transfer characteristics                 : BT.709
Matrix coefficients                      : BT.709
Codec configuration box                  : hvcC

Audio
ID                                       : 2
Format                                   : AAC LC
Format/Info                              : Advanced Audio Codec Low Complexity
Codec ID                                 : mp4a-40-2
Duration                                 : 1 min 7 s
Source duration                          : 1 min 7 s
Bit rate mode                            : Variable
Bit rate                                 : 317 kb/s
Maximum bit rate                         : 369 kb/s
Channel(s)                               : 2 channels
Channel layout                           : L R
Sampling rate                            : 48.0 kHz
Frame rate                               : 46.875 FPS (1024 SPF)
Compression mode                         : Lossy
Stream size                              : 2.56 MiB (0%)
Source stream size                       : 2.56 MiB (0%)
Language                                 : English
Encoded date                             : UTC 2023-01-12 23:48:48
Tagged date                              : UTC 2023-01-12 23:48:48

자세한 정보

General
Count                                    : 334
Count of stream of this kind             : 1
Kind of stream                           : General
Kind of stream                           : General
Stream identifier                        : 0
Count of video streams                   : 1
Count of audio streams                   : 1
Video_Format_List                        : HEVC
Video_Format_WithHint_List               : HEVC
Codecs Video                             : HEVC
Video_Language_List                      : English
Audio_Format_List                        : AAC LC
Audio_Format_WithHint_List               : AAC LC
Audio codecs                             : AAC LC
Audio_Language_List                      : English
Complete name                            : E:\탱크.mp4
Folder name                              : E:
File name extension                      : 탱크.mp4
File name                                : 탱크
File extension                           : mp4
Format                                   : MPEG-4
Format                                   : MPEG-4
Format/Extensions usually used           : braw mov mp4 m4v m4a m4b m4p m4r 3ga 3gpa 3gpp 3gp 3gpp2 3g2 k3g jpm jpx mqv ismv isma ismt f4a f4b f4v
Commercial name                          : MPEG-4
Format profile                           : Base Media / Version 2
Internet media type                      : video/mp4
Codec ID                                 : mp42
Codec ID                                 : mp42 (mp42/mp41)
Codec ID/Url                             : http://www.apple.com/quicktime/download/standalone.html
CodecID_Compatible                       : mp42/mp41
File size                                : 1099268346
File size                                : 1.02 GiB
File size                                : 1 GiB
File size                                : 1.0 GiB
File size                                : 1.02 GiB
File size                                : 1.024 GiB
Duration                                 : 67634
Duration                                 : 1 min 7 s
Duration                                 : 1 min 7 s 634 ms
Duration                                 : 1 min 7 s
Duration                                 : 00:01:07.634
Duration                                 : 00:01:07;19
Duration                                 : 00:01:07.634 (00:01:07;19)
Overall bit rate mode                    : VBR
Overall bit rate mode                    : Variable
Overall bit rate                         : 130025531
Overall bit rate                         : 130 Mb/s
Frame rate                               : 29.970
Frame rate                               : 29.970 FPS
Frame count                              : 2027
Stream size                              : 38715
Stream size                              : 37.8 KiB (0%)
Stream size                              : 38 KiB
Stream size                              : 38 KiB
Stream size                              : 37.8 KiB
Stream size                              : 37.81 KiB
Stream size                              : 37.8 KiB (0%)
Proportion of this stream                : 0.00004
HeaderSize                               : 36151
DataSize                                 : 1099232195
FooterSize                               : 0
IsStreamable                             : Yes
Encoded date                             : UTC 2023-01-12 23:48:48
Tagged date                              : UTC 2023-01-12 23:49:22
File creation date                       : UTC 2023-01-12 23:48:48.415
File creation date (local)               : 2023-01-13 08:48:48.415
File last modification date              : UTC 2023-01-12 23:49:22.602
File last modification date (local)      : 2023-01-13 08:49:22.602
TIM                                      : 00:00:00:00
TSC                                      : 30000
TSZ                                      : 1001

Video
Count                                    : 380
Count of stream of this kind             : 1
Kind of stream                           : Video
Kind of stream                           : Video
Stream identifier                        : 0
StreamOrder                              : 0
ID                                       : 1
ID                                       : 1
Format                                   : HEVC
Format                                   : HEVC
Format/Info                              : High Efficiency Video Coding
Format/Url                               : http://www.itu.int
Commercial name                          : HEVC
Format profile                           : Main@L6.2@Main
Internet media type                      : video/H265
Codec ID                                 : hvc1
Codec ID/Info                            : High Efficiency Video Coding
Codec ID/Url                             : http://www.itu.int/
Duration                                 : 67634
Duration                                 : 1 min 7 s
Duration                                 : 1 min 7 s 634 ms
Duration                                 : 1 min 7 s
Duration                                 : 00:01:07.634
Duration                                 : 00:01:07;19
Duration                                 : 00:01:07.634 (00:01:07;19)
Bit rate                                 : 129703047
Bit rate                                 : 130 Mb/s
Width                                    : 7680
Width                                    : 7 680 pixels
Height                                   : 4320
Height                                   : 4 320 pixels
Sampled_Width                            : 7680
Sampled_Height                           : 4320
Pixel aspect ratio                       : 1.000
Display aspect ratio                     : 1.778
Display aspect ratio                     : 16:9
Rotation                                 : 0.000
Frame rate mode                          : CFR
Frame rate mode                          : Constant
Frame rate                               : 29.970
Frame rate                               : 29.970 (30000/1001) FPS
FrameRate_Num                            : 30000
FrameRate_Den                            : 1001
Frame count                              : 2027
Color space                              : YUV
Chroma subsampling                       : 4:2:0
Chroma subsampling                       : 4:2:0
Bit depth                                : 8
Bit depth                                : 8 bits
Bits/(Pixel*Frame)                       : 0.130
Stream size                              : 1096546862
Stream size                              : 1.02 GiB (100%)
Stream size                              : 1 GiB
Stream size                              : 1.0 GiB
Stream size                              : 1.02 GiB
Stream size                              : 1.021 GiB
Stream size                              : 1.02 GiB (100%)
Proportion of this stream                : 0.99752
Language                                 : en
Language                                 : English
Language                                 : English
Language                                 : en
Language                                 : eng
Language                                 : en
Encoded date                             : UTC 2023-01-12 23:48:48
Tagged date                              : UTC 2023-01-12 23:48:48
colour_description_present               : Yes
colour_description_present_Source        : Stream
Color range                              : Limited
colour_range_Source                      : Stream
Color primaries                          : BT.709
colour_primaries_Source                  : Stream
Transfer characteristics                 : BT.709
transfer_characteristics_Source          : Stream
Matrix coefficients                      : BT.709
matrix_coefficients_Source               : Stream
Codec configuration box                  : hvcC

Audio
Count                                    : 280
Count of stream of this kind             : 1
Kind of stream                           : Audio
Kind of stream                           : Audio
Stream identifier                        : 0
StreamOrder                              : 1
ID                                       : 2
ID                                       : 2
Format                                   : AAC
Format                                   : AAC LC
Format/Info                              : Advanced Audio Codec Low Complexity
Commercial name                          : AAC
Format_AdditionalFeatures                : LC
Codec ID                                 : mp4a-40-2
Duration                                 : 67634
Duration                                 : 1 min 7 s
Duration                                 : 1 min 7 s 634 ms
Duration                                 : 1 min 7 s
Duration                                 : 00:01:07.634
Duration                                 : 00:01:07:21
Duration                                 : 00:01:07.634 (00:01:07:21)
Source duration                          : 67691
Source duration                          : 1 min 7 s
Source duration                          : 1 min 7 s 691 ms
Source duration                          : 1 min 7 s
Source duration                          : 00:01:07.691
Bit rate mode                            : VBR
Bit rate mode                            : Variable
Bit rate                                 : 317363
Bit rate                                 : 317 kb/s
Maximum bit rate                         : 368625
Maximum bit rate                         : 369 kb/s
Channel(s)                               : 2
Channel(s)                               : 2 channels
Channel positions                        : Front: L R
Channel positions                        : 2/0/0
Channel layout                           : L R
Samples per frame                        : 1024
Sampling rate                            : 48000
Sampling rate                            : 48.0 kHz
Samples count                            : 3246432
Frame rate                               : 46.875
Frame rate                               : 46.875 FPS (1024 SPF)
Frame count                              : 3170
Source frame count                       : 3173
Compression mode                         : Lossy
Compression mode                         : Lossy
Stream size                              : 2682769
Stream size                              : 2.56 MiB (0%)
Stream size                              : 3 MiB
Stream size                              : 2.6 MiB
Stream size                              : 2.56 MiB
Stream size                              : 2.558 MiB
Stream size                              : 2.56 MiB (0%)
Proportion of this stream                : 0.00244
Source stream size                       : 2685317
Source stream size                       : 2.56 MiB (0%)
Source stream size                       : 3 MiB
Source stream size                       : 2.6 MiB
Source stream size                       : 2.56 MiB
Source stream size                       : 2.561 MiB
Source stream size                       : 2.56 MiB (0%)
Source_StreamSize_Proportion             : 0.00244
Language                                 : en
Language                                 : English
Language                                 : English
Language                                 : en
Language                                 : eng
Language                                 : en
Encoded date                             : UTC 2023-01-12 23:48:48
Tagged date                              : UTC 2023-01-12 23:48:48

MediaInfoLib - v21.09

 

매개변수

 

매개변수.png

 

빠른 설정

 

화면 캡처 2023-01-13 224754.png

 

 

감사합니다.

 

--------------------------------------------------------------------------------------------------------------------------------------------------------------------

추가.

 

엇... 인코딩 할 필요가 없어졌습니다.

프리미어 프로에서 h.256으로 8k 인코딩한 것도 이틀 정도 지나니 유튜브에서도 8k가 적용되었습니다.

 

감사합니다.

TAG •
Facebook Twitter Pinterest Kakao
  • ?
    lilililililililil 2023.01.14 01:55

    답댓아니지만

    8K는 화질이 매우 높은거라 시간이 많이 걸리는덴데

    그리고 경로가 E되어있는데 혹시 외장하드이나 이동디스크쪽 위치인지?

    외장하드등 이동디스크쪽이면 속도 영향이 있긴합니다.

  • ?
    WhiteWeddingDress 2023.01.14 11:37
    앗, 넵! 이동디스크 5TB의 WD 외장하드입니다!
    그럼 C드라이브로 옮겨서 한 번 해보겠습니다!
  • ?
    lilililililililil 2023.01.25 00:26

    유튜브 경우 확장명와 코덱 상관없이 화질이 8K이면 자동으로 8K으로 처리됩니다.

    단 8K적용하는데 시간이 많이 걸리기때문에 기다려야할겁니다.


List of Articles
No. Category Subject Author Date Views Votes
Notice 샤나인코더 통합 검색 기능 개선(샤나인코더 우측 상단에 있는 검색창을 사용해 보세요.) Rina 2021.09.30 10056 2
Notice 자유게시판에서는 자유롭게 글을 작성할 수 있지만 다음과 같은 내용은 삭제돼요 Rina 2020.03.18 8477 3
Notice 일반 [필독] 질문 전에 반드시 읽으세요!!! 3 file JKyle 2019.09.16 20537 6
Notice 일반 [알림] 질문 먹튀하지 마시기 바랍니다 => 본문 변경 금지 20 JKyle 2018.10.12 17507 14
2935 질문 챕터 삽입 메타데이터 김아무개 2023.02.02 36 0
2934 질문 mkv에서 mp4 변환할때요 1 기면 2023.01.31 182 0
2933 일반 샤나 5.1.0.2 3 왕눈이 2023.01.30 201 0
2932 질문 동영상 파일을 샤나로 인코딩 할 때 vliant64 2023.01.30 131 0
2931 질문 보통 HW인코딩은 엔비디아가 인텔보다 우위라고 알고 있는데 sleik 2023.01.27 277 0
2930 질문 아이폰 촬영영상 mov 파일을 윈도우에서 프리미어프로로 편집하려고 할 때 어떻게 변환해야 하나요? file 만쏭 2023.01.25 225 0
2929 질문 fsbs(3840x1080) 영상을 hsbs(1920x1080) 으로 변경하고 싶습니다. 1 통돌이 2023.01.23 299 0
2928 질문 다음인코더는 되는데 샤나는 파일추가가 안됩니다 1 아이브 2023.01.23 234 0
2927 질문 h264를 h265(hevc)로 인코딩을 할려고 하는데 바로 오류가 발생하네요 sleik 2023.01.21 312 0
2926 질문 스트림복사에 무슨 문제가 있을까요? Sugar 2023.01.21 206 0
2925 질문 이 글을 보았는데 8비트 영상을 10비트로 인코딩을 해도 상관이 없나요?? 2 sleik 2023.01.19 231 0
2924 질문 HDR 10+에서 HDR로 톤매핑할 수 있을까요? 김민기 2023.01.18 172 0
2923 질문 mts파일 mp4변환 시 변환된 영상에 원본 촬영일시가 자막처럼 표시되는데요... 왜 이럴까요? 좋으니까 2023.01.18 161 0
2922 질문 파일들의 자막을 일괄 선택하여 변경하는 매개변수가 있을까요? file clame 2023.01.16 139 0
2921 질문 같은 음질로 인코딩 하면 손실은...? 1 인코더플 2023.01.15 284 0
2920 질문 제발 도와주세요.. 용량이 너무 큰 영상을 어떻게 변환해야할까요? 2 도앵이 2023.01.15 453 0
» 질문 유튜브를 위해 8k av1 mkv 인코딩을 하고자 하는데 속도가 굉장히 느립니다. 3 file WhiteWeddingDress 2023.01.13 381 0
2918 질문 투명 배경 영상을 webp 변환시 알파값이 날아갑니다 ㅇㅅㅇㅅㅇㅅ 2023.01.13 129 0
2917 질문 mp4 h264 인코딩시 에러 아이츄 2023.01.13 189 0
2916 정보 테블릿 영상 인코딩 시청자 프리셋 공유 1 file 환상지기 2023.01.10 222 0
Board Pagination Prev 1 2 3 4 5 6 7 8 9 10 ... 147 Next
/ 147