Skip to menu

본문시작



질문하기 전에 검색하세요(Search before asking a question)


?

Shortcut

PrevPrev Article

NextNext Article

Larger Font Smaller Font Up Down Go comment Print
?

Shortcut

PrevPrev Article

NextNext Article

Larger Font Smaller Font Up Down Go comment Print

안녕하세요. 

mp4 원본 영상을 음성/영상 모두 스트림복사로 2~3개로 분할하는 작업을 하려고 합니다.

 

작업 후에 확인해 보면,

분할된 1번째 영상에서는 그런 현상이 없는데

분할된 2번째 이후의 영상에서는 팟플레이어 등의 동영상 플레이어에서 구간탐색시에

이동된 위치의 영상이 즉시 플레이되지 않고 잠깐씩 렉(이동 전 플레이중인 영상에서 잠깐 멈춤)이 발생합니다.

 

구간설정/잘라내기 시에 시작시간/종료시간 설정은 항상 I프레임 에서 시작하고 종료하도록 하였습니다.

 

원인이나 해결방법을 아시는 분이 있으시면 도움 주시면 좋겠습니다.

 

 

원본 영상 정보


General
Complete name                            : C:\Users\jykim\Downloads\Tor\Completed\f4805c9d-51a4-49ec-b942-80f50008f6bc.mp4
Format                                   : MPEG-4
Format profile                           : Base Media
Codec ID                                 : isom (isom/iso2/avc1/mp41)
File size                                : 1.39 GiB
Duration                                 : 1 h 25 min
Overall bit rate                         : 2 334 kb/s
Writing application                      : Lavf58.26.101

Video
ID                                       : 1
Format                                   : AVC
Format/Info                              : Advanced Video Codec
Format profile                           : High@L4.2
Format settings                          : CABAC / 4 Ref Frames
Format settings, CABAC                   : Yes
Format settings, Reference frames        : 4 frames
Codec ID                                 : avc1
Codec ID/Info                            : Advanced Video Coding
Duration                                 : 1 h 25 min
Bit rate                                 : 2 200 kb/s
Width                                    : 1 920 pixels
Height                                   : 1 080 pixels
Display aspect ratio                     : 16:9
Frame rate mode                          : Constant
Frame rate                               : 24.000 FPS
Color space                              : YUV
Chroma subsampling                       : 4:2:0
Bit depth                                : 8 bits
Scan type                                : Progressive
Bits/(Pixel*Frame)                       : 0.044
Stream size                              : 1.31 GiB (94%)
Writing library                          : x264 core 157
Encoding settings                        : cabac=1 / ref=1 / deblock=1:0:0 / analyse=0x3:0x3 / me=dia / subme=1 / psy=1 / psy_rd=1.00:0.00 / mixed_ref=0 / me_range=16 / chroma_me=1 / trellis=0 / 8x8dct=1 / cqm=0 / deadzone=21,11 / fast_pskip=1 / chroma_qp_offset=0 / threads=15 / lookahead_threads=2 / sliced_threads=0 / nr=0 / decimate=1 / interlaced=0 / bluray_compat=0 / constrained_intra=0 / bframes=3 / b_pyramid=2 / b_adapt=1 / b_bias=0 / direct=1 / weightb=1 / open_gop=0 / weightp=1 / keyint=250 / keyint_min=24 / scenecut=40 / intra_refresh=0 / rc=2pass / mbtree=0 / bitrate=2200 / ratetol=1.0 / qcomp=0.60 / qpmin=0 / qpmax=69 / qpstep=4 / cplxblur=20.0 / qblur=0.5 / ip_ratio=1.40 / pb_ratio=1.30 / aq=1:1.00
Codec configuration box                  : avcC

Audio
ID                                       : 2
Format                                   : AAC LC
Format/Info                              : Advanced Audio Codec Low Complexity
Codec ID                                 : mp4a-40-2
Duration                                 : 1 h 25 min
Bit rate mode                            : Constant
Bit rate                                 : 128 kb/s
Channel(s)                               : 2 channels
Channel layout                           : L R
Sampling rate                            : 48.0 kHz
Frame rate                               : 46.875 FPS (1024 SPF)
Compression mode                         : Lossy
Stream size                              : 78.2 MiB (5%)
Default                                  : Yes
Alternate group                          : 1

자세한 정보

General
Count                                    : 331
Count of stream of this kind             : 1
Kind of stream                           : General
Kind of stream                           : General
Stream identifier                        : 0
Count of video streams                   : 1
Count of audio streams                   : 1
Video_Format_List                        : AVC
Video_Format_WithHint_List               : AVC
Codecs Video                             : AVC
Audio_Format_List                        : AAC LC
Audio_Format_WithHint_List               : AAC LC
Audio codecs                             : AAC LC
Complete name                            : C:\Users\jykim\Downloads\Tor\Completed\f4805c9d-51a4-49ec-b942-80f50008f6bc.mp4
Folder name                              : C:\Users\jykim\Downloads\Tor\Completed
File name extension                      : f4805c9d-51a4-49ec-b942-80f50008f6bc.mp4
File name                                : f4805c9d-51a4-49ec-b942-80f50008f6bc
File extension                           : mp4
Format                                   : MPEG-4
Format                                   : MPEG-4
Format/Extensions usually used           : braw mov mp4 m4v m4a m4b m4p m4r 3ga 3gpa 3gpp 3gp 3gpp2 3g2 k3g jpm jpx mqv ismv isma ismt f4a f4b f4v
Commercial name                          : MPEG-4
Format profile                           : Base Media
Internet media type                      : video/mp4
Codec ID                                 : isom
Codec ID                                 : isom (isom/iso2/avc1/mp41)
Codec ID/Url                             : http://www.apple.com/quicktime/download/standalone.html
CodecID_Compatible                       : isom/iso2/avc1/mp41
File size                                : 1495528952
File size                                : 1.39 GiB
File size                                : 1 GiB
File size                                : 1.4 GiB
File size                                : 1.39 GiB
File size                                : 1.393 GiB
Duration                                 : 5127084
Duration                                 : 1 h 25 min
Duration                                 : 1 h 25 min 27 s 84 ms
Duration                                 : 1 h 25 min
Duration                                 : 01:25:27.084
Duration                                 : 01:25:27:02
Duration                                 : 01:25:27.084 (01:25:27:02)
Overall bit rate                         : 2333535
Overall bit rate                         : 2 334 kb/s
Frame rate                               : 24.000
Frame rate                               : 24.000 FPS
Frame count                              : 123050
Stream size                              : 3552342
Stream size                              : 3.39 MiB (0%)
Stream size                              : 3 MiB
Stream size                              : 3.4 MiB
Stream size                              : 3.39 MiB
Stream size                              : 3.388 MiB
Stream size                              : 3.39 MiB (0%)
Proportion of this stream                : 0.00238
HeaderSize                               : 3552334
DataSize                                 : 1491976618
FooterSize                               : 0
IsStreamable                             : Yes
File creation date                       : UTC 2022-07-22 09:00:47.281
File creation date (local)               : 2022-07-22 18:00:47.281
File last modification date              : UTC 2022-07-22 05:29:28.154
File last modification date (local)      : 2022-07-22 14:29:28.154
Writing application                      : Lavf58.26.101
Writing application                      : Lavf58.26.101

Video
Count                                    : 378
Count of stream of this kind             : 1
Kind of stream                           : Video
Kind of stream                           : Video
Stream identifier                        : 0
StreamOrder                              : 0
ID                                       : 1
ID                                       : 1
Format                                   : AVC
Format                                   : AVC
Format/Info                              : Advanced Video Codec
Format/Url                               : http://developers.videolan.org/x264.html
Commercial name                          : AVC
Format profile                           : High@L4.2
Format settings                          : CABAC / 4 Ref Frames
Format settings, CABAC                   : Yes
Format settings, CABAC                   : Yes
Format settings, Reference frames        : 4
Format settings, Reference frames        : 4 frames
Internet media type                      : video/H264
Codec ID                                 : avc1
Codec ID/Info                            : Advanced Video Coding
Duration                                 : 5127084
Duration                                 : 1 h 25 min
Duration                                 : 1 h 25 min 27 s 84 ms
Duration                                 : 1 h 25 min
Duration                                 : 01:25:27.084
Duration                                 : 01:25:27:02
Duration                                 : 01:25:27.084 (01:25:27:02)
Bit rate                                 : 2200000
Bit rate                                 : 2 200 kb/s
Width                                    : 1920
Width                                    : 1 920 pixels
Height                                   : 1080
Height                                   : 1 080 pixels
Stored_Height                            : 1088
Sampled_Width                            : 1920
Sampled_Height                           : 1080
Pixel aspect ratio                       : 1.000
Display aspect ratio                     : 1.778
Display aspect ratio                     : 16:9
Rotation                                 : 0.000
Frame rate mode                          : CFR
Frame rate mode                          : Constant
FrameRate_Mode_Original                  : VFR
Frame rate                               : 24.000
Frame rate                               : 24.000 FPS
Frame count                              : 123050
Color space                              : YUV
Chroma subsampling                       : 4:2:0
Chroma subsampling                       : 4:2:0
Bit depth                                : 8
Bit depth                                : 8 bits
Scan type                                : Progressive
Scan type                                : Progressive
Bits/(Pixel*Frame)                       : 0.044
Stream size                              : 1409944269
Stream size                              : 1.31 GiB (94%)
Stream size                              : 1 GiB
Stream size                              : 1.3 GiB
Stream size                              : 1.31 GiB
Stream size                              : 1.313 GiB
Stream size                              : 1.31 GiB (94%)
Proportion of this stream                : 0.94277
Writing library                          : x264 - core 157
Writing library                          : x264 core 157
Encoded_Library_Name                     : x264
Encoded_Library_Version                  : core 157
Encoding settings                        : cabac=1 / ref=1 / deblock=1:0:0 / analyse=0x3:0x3 / me=dia / subme=1 / psy=1 / psy_rd=1.00:0.00 / mixed_ref=0 / me_range=16 / chroma_me=1 / trellis=0 / 8x8dct=1 / cqm=0 / deadzone=21,11 / fast_pskip=1 / chroma_qp_offset=0 / threads=15 / lookahead_threads=2 / sliced_threads=0 / nr=0 / decimate=1 / interlaced=0 / bluray_compat=0 / constrained_intra=0 / bframes=3 / b_pyramid=2 / b_adapt=1 / b_bias=0 / direct=1 / weightb=1 / open_gop=0 / weightp=1 / keyint=250 / keyint_min=24 / scenecut=40 / intra_refresh=0 / rc=2pass / mbtree=0 / bitrate=2200 / ratetol=1.0 / qcomp=0.60 / qpmin=0 / qpmax=69 / qpstep=4 / cplxblur=20.0 / qblur=0.5 / ip_ratio=1.40 / pb_ratio=1.30 / aq=1:1.00
Codec configuration box                  : avcC

Audio
Count                                    : 280
Count of stream of this kind             : 1
Kind of stream                           : Audio
Kind of stream                           : Audio
Stream identifier                        : 0
StreamOrder                              : 1
ID                                       : 2
ID                                       : 2
Format                                   : AAC
Format                                   : AAC LC
Format/Info                              : Advanced Audio Codec Low Complexity
Commercial name                          : AAC
Format_AdditionalFeatures                : LC
Codec ID                                 : mp4a-40-2
Duration                                 : 5127062
Duration                                 : 1 h 25 min
Duration                                 : 1 h 25 min 27 s 62 ms
Duration                                 : 1 h 25 min
Duration                                 : 01:25:27.062
Duration                                 : 01:25:13:20
Duration                                 : 01:25:27.062 (01:25:13:20)
Bit rate mode                            : CBR
Bit rate mode                            : Constant
Bit rate                                 : 127998
Bit rate                                 : 128 kb/s
Channel(s)                               : 2
Channel(s)                               : 2 channels
Channel positions                        : Front: L R
Channel positions                        : 2/0/0
Channel layout                           : L R
Samples per frame                        : 1024
Sampling rate                            : 48000
Sampling rate                            : 48.0 kHz
Samples count                            : 246098976
Frame rate                               : 46.875
Frame rate                               : 46.875 FPS (1024 SPF)
Frame count                              : 240331
Compression mode                         : Lossy
Compression mode                         : Lossy
Stream size                              : 82032341
Stream size                              : 78.2 MiB (5%)
Stream size                              : 78 MiB
Stream size                              : 78 MiB
Stream size                              : 78.2 MiB
Stream size                              : 78.23 MiB
Stream size                              : 78.2 MiB (5%)
Proportion of this stream                : 0.05485
Default                                  : Yes
Default                                  : Yes
Alternate group                          : 1
Alternate group                          : 1

MediaInfoLib - v19.09

Facebook Twitter Pinterest Kakao
  • ?
    JKyle 2022.07.23 12:55

    https://shana.pe.kr/shanaencoder_tip/87979 '구간 설정' 부분 확인

    https://shana.pe.kr/shanaencoder_board/70500 참고

     

    결론은 키프레임과 I 프레임의 괴리로 생기는 원본 구조 문제

    ⇒ 스트림 복사가 아닌 재인코딩이나, 전문 영상 분할 프로그램을 이용

     
  • ?
    샤나맛 2022.08.01 14:26

    답변 감사합니다.

    일단, 샤나인코더 4.7 버전으로 동일하게 스트림 복사 작업을 했더니 해당 현상이 해결되었습니다.
    4.8 이후에 뭔가 달라진건지...

  • ?
    JKyle 2022.08.01 14:35

    최근 버전은 환경 설정에서 '키 프레임 탐색 사용'이 기본적으로 꺼져 있어서 그런 듯.

    그래서 키 프레임이 아닌 I 프레임에서도 잘려서 해당 문제가 발생하는 게 아닌가 의심됩니다.
    아마 그거 켜고 하면 구 버전하고 동일하게 작동할 겁니다. 대신 구 버전과 마찬가지로, 스트림 복사 시 원하는 곳에서 자르기는 더 힘들어지겠지요.

     

List of Articles
No. Category Subject Author Date Views Votes
Notice 샤나인코더 통합 검색 기능 개선(샤나인코더 우측 상단에 있는 검색창을 사용해 보세요.) Rina 2021.09.30 4515 2
Notice 자유게시판에서는 자유롭게 글을 작성할 수 있지만 다음과 같은 내용은 삭제돼요 Rina 2020.03.18 7128 3
Notice 일반 [필독] 질문 전에 반드시 읽으세요!!! 3 file JKyle 2019.09.16 17224 6
Notice 일반 [알림] 질문 먹튀하지 마시기 바랍니다 => 본문 변경 금지 19 JKyle 2018.10.12 15803 13
2839 질문 HEVC와 비슷한 용량으로 HEVC(NVENC)로 인코딩 방법 1 하늘보리 2022.08.10 159 0
2838 질문 dvd 영상인데 팟플레이어 h/w체크하면 프레임이 두배가 돼요 3 file 고구려의큐브 2022.08.10 107 0
2837 질문 자막폰트 적용시 기본폰트로 돌아 가지 않습니다. 1 달료 2022.08.09 94 0
2836 일반 아이팟에서 영상을 재생하면 끊기는 현상이 있네요 1 해피만세 2022.08.08 101 0
2835 질문 같은 옵션으로 인코딩하더라도 PC에 따라 인코딩 결과물 용량이 다른가요? 2 루그렛 2022.08.06 345 0
2834 질문 디인터레이스 2 승쓰 2022.08.05 166 0
2833 질문 mkv를 mp4로 변환시 오류가 바로 뜹니다 1 file 시소맨 2022.08.05 193 0
2832 질문 cpu core 몇개까지 지원되나요? 2 비사용중 2022.08.05 241 0
2831 질문 mp4 프레임레이트가 29.97인데 60으로 읽힙니다 1 file box 2022.08.04 188 0
2830 일반 글쓰기 권한 레벨 제한이 필요하지 않을까요 2 JKyle 2022.08.03 174 0
2829 질문 hdr ---> sdr로 인코딩 했는데 색이 너무 어둡게 나옵니다 2 file XTAXY 2022.08.02 203 0
2828 질문 영상의 프레임은 25프레임인데 인코더에 불러오면 60프레임이라고 뜹니다 3 file 매우개 2022.08.01 181 0
2827 질문 샤나인코더 av1 하드웨어 인코딩 되나요? 2 핥아버지 2022.07.30 248 0
2826 질문 구버전 샤나인코더 받을 수 있는 곳 있을까요? 5 샤나맛 2022.07.30 251 0
2825 질문 오디오 인코딩 설정 중 비트레이트 셋팅에 대해 궁금한것이 있습니다. 1 최강기 2022.07.28 189 0
2824 질문 소리보다 화면이 먼저나옵니다 3 relisius 2022.07.24 275 0
2823 질문 맥 노트북에서 페러럴즈에서 샤나인코더 1 si 2022.07.23 115 0
2822 질문 아래 촬영 시각 등 표시 안되게 할 수 없나요 ? 1 kjk5850 2022.07.23 156 0
» 질문 스트림복사로 분할시 두번째 영상의 구간탐색 렉 현상 문의 드립니다. 3 샤나맛 2022.07.22 111 0
2820 질문 샤나인코더 인코딩 작업관리자에서 표시되는거 질문입니다 1 file tkm 2022.07.22 148 0
Board Pagination Prev 1 2 3 4 5 6 7 8 9 10 ... 142 Next
/ 142