Skip to menu

본문시작



질문하기 전에 검색하세요(Search before asking a question)


?

Shortcut

PrevPrev Article

NextNext Article

Larger Font Smaller Font Up Down Go comment Print Attachment
?

Shortcut

PrevPrev Article

NextNext Article

Larger Font Smaller Font Up Down Go comment Print Attachment

다른 영상들은 티비로 볼때 아래 방식으로 해서

K-036.jpg

인코딩해서 다 보앗습니다..헌데 이파일은 미리 보기하면 음성만 나오네요..

해결 방법이 없을까요?

 

General
Unique ID                                : 330529106004157789064399197064476717338 (0xF8A9971C3AB3DB8364D4D75650A3711A)
Complete name                            : F:\1월 상영중 [- SING 투게더 -]초고화질 더빙자막\SING 투게더.mkv
Format                                   : Matroska
Format version                           : Version 4
File size                                : 5.61 GiB
Duration                                 : 1 h 49 min
Overall bit rate                         : 7 311 kb/s
Encoded date                             : UTC 2022-01-12 06:32:54
Writing application                      : mkvmerge v56.1.0 ('My Friend') 64-bit
Writing library                          : libebml v1.4.2 + libmatroska v1.6.4

Video
ID                                       : 1
Format                                   : AVC
Format/Info                              : Advanced Video Codec
Format profile                           : High@L4
Format settings                          : CABAC / 4 Ref Frames
Format settings, CABAC                   : Yes
Format settings, Reference frames        : 4 frames
Codec ID                                 : V_MPEG4/ISO/AVC
Duration                                 : 1 h 49 min
Bit rate                                 : 6 540 kb/s
Width                                    : 1 918 pixels
Height                                   : 1 036 pixels
Display aspect ratio                     : 1.85:1
Frame rate mode                          : Constant
Frame rate                               : 23.976 (24000/1001) FPS
Color space                              : YUV
Chroma subsampling                       : 4:2:0
Bit depth                                : 8 bits
Scan type                                : Progressive
Bits/(Pixel*Frame)                       : 0.137
Stream size                              : 5.02 GiB (89%)
Default                                  : Yes
Forced                                   : No
Color range                              : Limited
Color primaries                          : BT.709
Transfer characteristics                 : BT.709
Matrix coefficients                      : BT.709

Audio
ID                                       : 2
Format                                   : E-AC-3 JOC
Format/Info                              : Enhanced AC-3 with Joint Object Coding
Commercial name                          : Dolby Digital Plus with Dolby Atmos
Codec ID                                 : A_EAC3
Duration                                 : 1 h 49 min
Bit rate mode                            : Constant
Bit rate                                 : 768 kb/s
Channel(s)                               : 6 channels
Channel layout                           : L R C LFE Ls Rs
Sampling rate                            : 48.0 kHz
Frame rate                               : 31.250 FPS (1536 SPF)
Compression mode                         : Lossy
Stream size                              : 603 MiB (11%)
Title                                    : English
Language                                 : English
Service kind                             : Complete Main
Default                                  : No
Forced                                   : No
Complexity index                         : 16
Number of dynamic objects                : 15
Bed channel count                        : 1 channel
Bed channel configuration                : LFE

Text #1
ID                                       : 3
Format                                   : UTF-8
Codec ID                                 : S_TEXT/UTF8
Codec ID/Info                            : UTF-8 Plain Text
Duration                                 : 1 h 44 min
Bit rate                                 : 81 b/s
Count of elements                        : 2072
Stream size                              : 62.1 KiB (0%)
Language                                 : English
Default                                  : Yes
Forced                                   : No

Text #2
ID                                       : 4
Format                                   : UTF-8
Codec ID                                 : S_TEXT/UTF8
Codec ID/Info                            : UTF-8 Plain Text
Duration                                 : 1 h 49 min
Bit rate                                 : 90 b/s
Count of elements                        : 2403
Stream size                              : 72.4 KiB (0%)
Title                                    : SDH
Language                                 : English
Default                                  : No
Forced                                   : No

 

자세한 정보

General
Count                                    : 331
Count of stream of this kind             : 1
Kind of stream                           : General
Kind of stream                           : General
Stream identifier                        : 0
Unique ID                                : 330529106004157789064399197064476717338
Unique ID                                : 330529106004157789064399197064476717338 (0xF8A9971C3AB3DB8364D4D75650A3711A)
Count of video streams                   : 1
Count of audio streams                   : 1
Count of text streams                    : 2
Video_Format_List                        : AVC
Video_Format_WithHint_List               : AVC
Codecs Video                             : AVC
Audio_Format_List                        : E-AC-3 JOC
Audio_Format_WithHint_List               : E-AC-3 JOC
Audio codecs                             : E-AC-3 JOC
Audio_Language_List                      : English
Text_Format_List                         : UTF-8 / UTF-8
Text_Format_WithHint_List                : UTF-8 / UTF-8
Text codecs                              : UTF-8 / UTF-8
Text_Language_List                       : English / English
Complete name                            : F:\1월 상영중 [- SING 투게더 -]초고화질 더빙자막\SING 투게더.mkv
Folder name                              : F:\1월 상영중 [- SING 투게더 -]초고화질 더빙자막
File name extension                      : SING 투게더.mkv
File name                                : SING 투게더
File extension                           : mkv
Format                                   : Matroska
Format                                   : Matroska
Format/Url                               : https://matroska.org/downloads/windows.html
Format/Extensions usually used           : mkv mk3d mka mks
Commercial name                          : Matroska
Format version                           : Version 4
File size                                : 6020327093
File size                                : 5.61 GiB
File size                                : 6 GiB
File size                                : 5.6 GiB
File size                                : 5.61 GiB
File size                                : 5.607 GiB
Duration                                 : 6588000
Duration                                 : 1 h 49 min
Duration                                 : 1 h 49 min 48 s 0 ms
Duration                                 : 1 h 49 min
Duration                                 : 01:49:48.000
Duration                                 : 01:49:49;16
Duration                                 : 01:49:48.000 (01:49:49;16)
Overall bit rate                         : 7310658
Overall bit rate                         : 7 311 kb/s
Frame rate                               : 23.976
Frame rate                               : 23.976 FPS
Frame count                              : 157954
Stream size                              : 1764436
Stream size                              : 1.68 MiB (0%)
Stream size                              : 2 MiB
Stream size                              : 1.7 MiB
Stream size                              : 1.68 MiB
Stream size                              : 1.683 MiB
Stream size                              : 1.68 MiB (0%)
Proportion of this stream                : 0.00029
IsStreamable                             : Yes
Encoded date                             : UTC 2022-01-12 06:32:54
File creation date                       : UTC 2022-01-12 09:18:09.764
File creation date (local)               : 2022-01-12 18:18:09.764
File last modification date              : UTC 2022-01-12 09:19:52.819
File last modification date (local)      : 2022-01-12 18:19:52.819
Writing application                      : mkvmerge v56.1.0 ('My Friend') 64-bit
Writing application                      : mkvmerge v56.1.0 ('My Friend') 64-bit
Writing library                          : libebml v1.4.2 + libmatroska v1.6.4
Writing library                          : libebml v1.4.2 + libmatroska v1.6.4

Video
Count                                    : 377
Count of stream of this kind             : 1
Kind of stream                           : Video
Kind of stream                           : Video
Stream identifier                        : 0
StreamOrder                              : 0
ID                                       : 1
ID                                       : 1
Unique ID                                : 7528583218482863339
Format                                   : AVC
Format                                   : AVC
Format/Info                              : Advanced Video Codec
Format/Url                               : http://developers.videolan.org/x264.html
Commercial name                          : AVC
Format profile                           : High@L4
Format settings                          : CABAC / 4 Ref Frames
Format settings, CABAC                   : Yes
Format settings, CABAC                   : Yes
Format settings, Reference frames        : 4
Format settings, Reference frames        : 4 frames
Internet media type                      : video/H264
Codec ID                                 : V_MPEG4/ISO/AVC
Codec ID/Url                             : http://ffdshow-tryout.sourceforge.net/
Duration                                 : 6587998.000000
Duration                                 : 1 h 49 min
Duration                                 : 1 h 49 min 47 s 998 ms
Duration                                 : 1 h 49 min
Duration                                 : 01:49:47.998
Duration                                 : 01:49:49;16
Duration                                 : 01:49:47.998 (01:49:49;16)
Bit rate                                 : 6540350
Bit rate                                 : 6 540 kb/s
Width                                    : 1918
Width                                    : 1 918 pixels
Height                                   : 1036
Height                                   : 1 036 pixels
Stored_Width                             : 1920
Stored_Height                            : 1040
Sampled_Width                            : 1918
Sampled_Height                           : 1036
Pixel aspect ratio                       : 1.000
Display aspect ratio                     : 1.851
Display aspect ratio                     : 1.85:1
Frame rate mode                          : CFR
Frame rate mode                          : Constant
Frame rate                               : 23.976
Frame rate                               : 23.976 (24000/1001) FPS
FrameRate_Num                            : 24000
FrameRate_Den                            : 1001
Frame count                              : 157954
Color space                              : YUV
Chroma subsampling                       : 4:2:0
Chroma subsampling                       : 4:2:0
Bit depth                                : 8
Bit depth                                : 8 bits
Scan type                                : Progressive
Scan type                                : Progressive
Bits/(Pixel*Frame)                       : 0.137
Delay                                    : 0
Delay                                    : 00:00:00.000
Delay, origin                            : Container
Delay, origin                            : Container
Stream size                              : 5385977005
Stream size                              : 5.02 GiB (89%)
Stream size                              : 5 GiB
Stream size                              : 5.0 GiB
Stream size                              : 5.02 GiB
Stream size                              : 5.016 GiB
Stream size                              : 5.02 GiB (89%)
Proportion of this stream                : 0.89463
Default                                  : Yes
Default                                  : Yes
Forced                                   : No
Forced                                   : No
colour_description_present               : Yes
colour_description_present_Source        : Stream
Color range                              : Limited
colour_range_Source                      : Stream
Color primaries                          : BT.709
colour_primaries_Source                  : Stream
Transfer characteristics                 : BT.709
transfer_characteristics_Source          : Stream
Matrix coefficients                      : BT.709
matrix_coefficients_Source               : Stream

Audio
Count                                    : 306
Count of stream of this kind             : 1
Kind of stream                           : Audio
Kind of stream                           : Audio
Stream identifier                        : 0
StreamOrder                              : 1
ID                                       : 2
ID                                       : 2
Unique ID                                : 13716789987601673790
Format                                   : E-AC-3
Format                                   : E-AC-3 JOC
Format/Info                              : Enhanced AC-3 with Joint Object Coding
Format/Url                               : https://en.wikipedia.org/wiki/Dolby_Digital_Plus
Commercial name                          : Dolby Digital Plus with Dolby Atmos
Commercial name                          : Dolby Digital Plus with Dolby Atmos
Format settings, Endianness              : Big
Format_AdditionalFeatures                : JOC
Internet media type                      : audio/eac3
Codec ID                                 : A_EAC3
Duration                                 : 6588000.000000
Duration                                 : 1 h 49 min
Duration                                 : 1 h 49 min 48 s 0 ms
Duration                                 : 1 h 49 min
Duration                                 : 01:49:48.000
Duration                                 : 01:50:41:04
Duration                                 : 01:49:48.000 (01:50:41:04)
Bit rate mode                            : CBR
Bit rate mode                            : Constant
Bit rate                                 : 768000
Bit rate                                 : 768 kb/s
Channel(s)                               : 6
Channel(s)                               : 6 channels
Channel positions                        : Front: L C R, Side: L R, LFE
Channel positions                        : 3/2/0.1
Channel layout                           : L R C LFE Ls Rs
Samples per frame                        : 1536
Sampling rate                            : 48000
Sampling rate                            : 48.0 kHz
Samples count                            : 316224000
Frame rate                               : 31.250
Frame rate                               : 31.250 FPS (1536 SPF)
Frame count                              : 205875
Compression mode                         : Lossy
Compression mode                         : Lossy
Delay                                    : 0
Delay                                    : 00:00:00.000
Delay, origin                            : Container
Delay, origin                            : Container
Delay relative to video                  : 0
Delay relative to video                  : 00:00:00.000
Stream size                              : 632448000
Stream size                              : 603 MiB (11%)
Stream size                              : 603 MiB
Stream size                              : 603 MiB
Stream size                              : 603 MiB
Stream size                              : 603.1 MiB
Stream size                              : 603 MiB (11%)
Proportion of this stream                : 0.10505
Title                                    : English
Language                                 : en
Language                                 : English
Language                                 : English
Language                                 : en
Language                                 : eng
Language                                 : en
Service kind                             : CM
Service kind                             : Complete Main
Default                                  : No
Default                                  : No
Forced                                   : No
Forced                                   : No
Complexity index                         : 16
Number of dynamic objects                : 15
Bed channel count                        : 1
Bed channel count                        : 1 channel
Bed channel configuration                : LFE
bsid                                     : 16
dialnorm                                 : -24
dialnorm                                 : -24 dB
compr                                    : -0.28
compr                                    : -0.28 dB
acmod                                    : 7
lfeon                                    : 1
dialnorm_Average                         : -24
dialnorm_Average                         : -24 dB
dialnorm_Minimum                         : -24
dialnorm_Minimum                         : -24 dB
dialnorm_Maximum                         : -24
dialnorm_Maximum                         : -24 dB
dialnorm_Count                           : 1154
compr_Average                            : 1.99
compr_Average                            : 1.99 dB
compr_Minimum                            : 0.53
compr_Minimum                            : 0.53 dB
compr_Maximum                            : 4.54
compr_Maximum                            : 4.54 dB
compr_Count                              : 172

Text #1
Count                                    : 238
Count of stream of this kind             : 2
Kind of stream                           : Text
Kind of stream                           : Text
Stream identifier                        : 0
Stream identifier                        : 1
StreamOrder                              : 2
ID                                       : 3
ID                                       : 3
Unique ID                                : 11782835854044644184
Format                                   : UTF-8
Format                                   : UTF-8
Commercial name                          : UTF-8
Codec ID                                 : S_TEXT/UTF8
Codec ID/Info                            : UTF-8 Plain Text
Duration                                 : 6240274.000000
Duration                                 : 1 h 44 min
Duration                                 : 1 h 44 min 0 s 274 ms
Duration                                 : 1 h 44 min
Duration                                 : 01:44:00.274
Duration                                 : 01:44:00.274
Bit rate                                 : 81
Bit rate                                 : 81 b/s
Frame rate                               : 0.332
Frame rate                               : 0.332 FPS
Frame count                              : 2072
Count of elements                        : 2072
Stream size                              : 63546
Stream size                              : 62.1 KiB (0%)
Stream size                              : 62 KiB
Stream size                              : 62 KiB
Stream size                              : 62.1 KiB
Stream size                              : 62.06 KiB
Stream size                              : 62.1 KiB (0%)
Proportion of this stream                : 0.00001
Language                                 : en
Language                                 : English
Language                                 : English
Language                                 : en
Language                                 : eng
Language                                 : en
Default                                  : Yes
Default                                  : Yes
Forced                                   : No
Forced                                   : No

Text #2
Count                                    : 238
Count of stream of this kind             : 2
Kind of stream                           : Text
Kind of stream                           : Text
Stream identifier                        : 1
Stream identifier                        : 2
StreamOrder                              : 3
ID                                       : 4
ID                                       : 4
Unique ID                                : 7742990518975076096
Format                                   : UTF-8
Format                                   : UTF-8
Commercial name                          : UTF-8
Codec ID                                 : S_TEXT/UTF8
Codec ID/Info                            : UTF-8 Plain Text
Duration                                 : 6583184.000000
Duration                                 : 1 h 49 min
Duration                                 : 1 h 49 min 43 s 184 ms
Duration                                 : 1 h 49 min
Duration                                 : 01:49:43.184
Duration                                 : 01:49:43.184
Bit rate                                 : 90
Bit rate                                 : 90 b/s
Frame rate                               : 0.365
Frame rate                               : 0.365 FPS
Frame count                              : 2403
Count of elements                        : 2403
Stream size                              : 74106
Stream size                              : 72.4 KiB (0%)
Stream size                              : 72 KiB
Stream size                              : 72 KiB
Stream size                              : 72.4 KiB
Stream size                              : 72.37 KiB
Stream size                              : 72.4 KiB (0%)
Proportion of this stream                : 0.00001
Title                                    : SDH
Language                                 : en
Language                                 : English
Language                                 : English
Language                                 : en
Language                                 : eng
Language                                 : en
Default                                  : No
Default                                  : No
Forced                                   : No
Forced                                   : No

MediaInfoLib - v19.09

Atachment
Attachment '1'
Facebook Twitter Pinterest Kakao

List of Articles
No. Category Subject Author Date Views Votes
Notice 샤나인코더 통합 검색 기능 개선(샤나인코더 우측 상단에 있는 검색창을 사용해 보세요.) Rina 2021.09.30 1935 1
Notice 자유게시판에서는 자유롭게 글을 작성할 수 있지만 다음과 같은 내용은 삭제돼요 Rina 2020.03.18 4859 3
Notice 일반 [필독] 질문 전에 반드시 읽으세요!!! 2 file JKyle 2019.09.16 13115 6
Notice 일반 [알림] 질문 먹튀하지 마시기 바랍니다 => 본문 변경 금지 16 JKyle 2018.10.12 12957 13
2705 질문 블루레이에 있는 Truehd 를 인코딩 하는 방법을 알고 싶습니다 1 highst 2022.01.16 47 0
2704 질문 동영상 썸네일 지정 가능할까요? 3 아렌티 2022.01.16 64 0
2703 질문 릴이 다른 동영상과 음성을 합쳤을때 밀림현상 36점5 2022.01.15 63 0
2702 질문 lg tv 에서 재생이 안되는데 뭐가 문제일까요? nodmaina 2022.01.14 131 0
2701 질문 자료실 움짤만들기 프리셋 문제 메모리 오버플로우 1 file 미네르바 2022.01.13 108 0
» 질문 컴퓨터에서는 나오는데..tv에서 안나오길레 인코딩 할려는데 음악만 나오네요. file 늙은돼지 2022.01.12 151 0
2699 질문 코덱ID를 M4V로 바꾸고 싶습니다. 고수가되고파요 2022.01.12 100 0
2698 질문 H264(AMF)는 되는데, HEVC(AMF)는 왜 안될까요? 6 update 원태빠 2022.01.11 216 0
2697 질문 출력이 왜 고정이죠? file zrang 2022.01.10 199 0
2696 질문 혹시 필요한 부분들만 골라서 잘라내기 가능한가요? 4 몸근영 2022.01.08 304 0
2695 질문 유튜브 무대 영상을 고화질로 인코딩 할려면 어떻게 해야하나요? 1 gkdsa 2022.01.06 399 0
2694 질문 빠른 자막 넣기 방법을 알려주세요. 칠뜩8853 2022.01.05 296 0
2693 질문 hevc(nvenc) 인코딩 시작부터 오류가 뜹니다. 1 갈퀴손 2022.01.02 640 0
2692 질문 "(작업한)폴더열기" 기능 만들어주세요. 크로이드 2022.01.02 290 0
2691 질문 리사이즈시 -1 사용하면 화면 하단 녹색띠 버그 수정이 아직 안되었네요 file P군 2022.01.01 268 0
2690 질문 사용중인 프리셋 환경을 'ffmpeg' 기준으로 명령어를 변환한다면 어떻게 해야할까요? 1 file 민min 2021.12.31 274 0
2689 질문 인텔12세대 i7-12700k와 윈도우11에서 호환문제가 좀 의심되네요 3 Windows10 2021.12.30 422 0
2688 질문 10bit 영상 1 승쓰 2021.12.29 306 0
2687 질문 화면 비율은 그대로 유지하고 크기만 줄이는 방법은 없나요? 3 슬라임킹 2021.12.29 434 0
2686 일반 인코딩시 ㅆ ㅠ 요런글자들이 공백으로 나타는 현상은 왜그런걸까요? 1 file 한글자막 2021.12.26 241 0
Board Pagination Prev 1 2 3 4 5 6 7 8 9 10 ... 136 Next
/ 136