Skip to menu

본문시작



질문하기 전에 검색하세요(Search before asking a question)


?

Shortcut

PrevPrev Article

NextNext Article

Larger Font Smaller Font Up Down Go comment Print
?

Shortcut

PrevPrev Article

NextNext Article

Larger Font Smaller Font Up Down Go comment Print

아카이브 작업때문에 여러 동영상을 한가지 규격으로 통일하는 작업을 하고 있습니다.

 

원본 자료를

Format                                   : MPEG-4
Format profile                           : Base Media
Codec ID                                 : isom (isom/iso2/avc1/mp41)
File size                                : 104 MiB
Duration                                 : 7 min 10 s
Overall bit rate                         : 2 023 kb/s
Writing application                      : Lavf58.12.100
exvr                                     : EX1.8.2(C1.0.9)

Video
ID                                       : 1
Format                                   : AVC
Format/Info                              : Advanced Video Codec
Format profile                           : Main@L3.1
Format settings                          : CABAC / 4 Ref Frames
Format settings, CABAC                   : Yes
Format settings, Reference frames        : 4 frames
Codec ID                                 : avc1
Codec ID/Info                            : Advanced Video Coding
Duration                                 : 7 min 10 s
Bit rate                                 : 1 826 kb/s
Width                                    : 1 280 pixels
Height                                   : 720 pixels
Display aspect ratio                     : 16:9
Frame rate mode                          : Constant
Frame rate                               : 29.970 (29970/1000) FPS
Color space                              : YUV
Chroma subsampling                       : 4:2:0
Bit depth                                : 8 bits
Scan type                                : Progressive
Bits/(Pixel*Frame)                       : 0.066
Stream size                              : 93.6 MiB (90%)
Color range                              : Limited
Color primaries                          : BT.709
Transfer characteristics                 : BT.709
Matrix coefficients                      : BT.709
Codec configuration box                  : avcC

Audio
ID                                       : 2
Format                                   : AAC LC
Format/Info                              : Advanced Audio Codec Low Complexity
Codec ID                                 : mp4a-40-2
Duration                                 : 7 min 10 s
Duration_LastFrame                       : -11 ms
Bit rate mode                            : Constant
Bit rate                                 : 192 kb/s
Channel(s)                               : 2 channels
Channel layout                           : L R
Sampling rate                            : 48.0 kHz
Frame rate                               : 46.875 FPS (1024 SPF)
Compression mode                         : Lossy
Stream size                              : 9.85 MiB (9%)
Default                                  : Yes
Alternate group                          : 1

 

자세한 정보

General
Count                                    : 332
Count of stream of this kind             : 1
Kind of stream                           : General
Kind of stream                           : General
Stream identifier                        : 0
Count of video streams                   : 1
Count of audio streams                   : 1
Video_Format_List                        : AVC
Video_Format_WithHint_List               : AVC
Codecs Video                             : AVC
Audio_Format_List                        : AAC LC
Audio_Format_WithHint_List               : AAC LC
Audio codecs                             : AAC LC

File extension                           : mp4
Format                                   : MPEG-4
Format                                   : MPEG-4
Format/Extensions usually used           : braw mov mp4 m4v m4a m4b m4p m4r 3ga 3gpa 3gpp 3gp 3gpp2 3g2 k3g jpm jpx mqv ismv isma ismt f4a f4b f4v
Commercial name                          : MPEG-4
Format profile                           : Base Media
Internet media type                      : video/mp4
Codec ID                                 : isom
Codec ID                                 : isom (isom/iso2/avc1/mp41)
Codec ID/Url                             : http://www.apple.com/quicktime/download/standalone.html
CodecID_Compatible                       : isom/iso2/avc1/mp41
File size                                : 108768297
File size                                : 104 MiB
File size                                : 104 MiB
File size                                : 104 MiB
File size                                : 104 MiB
File size                                : 103.7 MiB
Duration                                 : 430155
Duration                                 : 7 min 10 s
Duration                                 : 7 min 10 s 155 ms
Duration                                 : 7 min 10 s
Duration                                 : 00:07:10.155
Duration                                 : 00:07:10;04
Duration                                 : 00:07:10.155 (00:07:10;04)
Overall bit rate                         : 2022867
Overall bit rate                         : 2 023 kb/s
Frame rate                               : 29.970
Frame rate                               : 29.970 FPS
Frame count                              : 12890
Stream size                              : 250624
Stream size                              : 245 KiB (0%)
Stream size                              : 245 KiB
Stream size                              : 245 KiB
Stream size                              : 245 KiB
Stream size                              : 244.8 KiB
Stream size                              : 245 KiB (0%)
Proportion of this stream                : 0.00230
HeaderSize                               : 250616
DataSize                                 : 108517681
FooterSize                               : 0
IsStreamable                             : Yes
File creation date                       : UTC 2021-10-07 11:50:27.607
File creation date (local)               : 2021-10-07 20:50:27.607
File last modification date              : UTC 2021-10-07 11:49:31.000
File last modification date (local)      : 2021-10-07 20:49:31.000
Writing application                      : Lavf58.12.100
Writing application                      : Lavf58.12.100
exvr                                     : EX1.8.2(C1.0.9)

Video
Count                                    : 378
Count of stream of this kind             : 1
Kind of stream                           : Video
Kind of stream                           : Video
Stream identifier                        : 0
StreamOrder                              : 0
ID                                       : 1
ID                                       : 1
Format                                   : AVC
Format                                   : AVC
Format/Info                              : Advanced Video Codec
Format/Url                               : http://developers.videolan.org/x264.html
Commercial name                          : AVC
Format profile                           : Main@L3.1
Format settings                          : CABAC / 4 Ref Frames
Format settings, CABAC                   : Yes
Format settings, CABAC                   : Yes
Format settings, Reference frames        : 4
Format settings, Reference frames        : 4 frames
Internet media type                      : video/H264
Codec ID                                 : avc1
Codec ID/Info                            : Advanced Video Coding
Duration                                 : 430097
Duration                                 : 7 min 10 s
Duration                                 : 7 min 10 s 97 ms
Duration                                 : 7 min 10 s
Duration                                 : 00:07:10.097
Duration                                 : 00:07:10;04
Duration                                 : 00:07:10.097 (00:07:10;04)
Bit rate                                 : 1826449
Bit rate                                 : 1 826 kb/s
Width                                    : 1280
Width                                    : 1 280 pixels
Height                                   : 720
Height                                   : 720 pixels
Sampled_Width                            : 1280
Sampled_Height                           : 720
Pixel aspect ratio                       : 1.000
Display aspect ratio                     : 1.778
Display aspect ratio                     : 16:9
Rotation                                 : 0.000
Frame rate mode                          : CFR
Frame rate mode                          : Constant
FrameRate_Mode_Original                  : VFR
Frame rate                               : 29.970
Frame rate                               : 29.970 (29970/1000) FPS
FrameRate_Num                            : 29970
FrameRate_Den                            : 1000
Frame count                              : 12890
Color space                              : YUV
Chroma subsampling                       : 4:2:0
Chroma subsampling                       : 4:2:0
Bit depth                                : 8
Bit depth                                : 8 bits
Scan type                                : Progressive
Scan type                                : Progressive
Bits/(Pixel*Frame)                       : 0.066
Stream size                              : 98193704
Stream size                              : 93.6 MiB (90%)
Stream size                              : 94 MiB
Stream size                              : 94 MiB
Stream size                              : 93.6 MiB
Stream size                              : 93.64 MiB
Stream size                              : 93.6 MiB (90%)
Proportion of this stream                : 0.90278
colour_description_present               : Yes
colour_description_present_Source        : Stream
Color range                              : Limited
colour_range_Source                      : Stream
Color primaries                          : BT.709
colour_primaries_Source                  : Stream
Transfer characteristics                 : BT.709
transfer_characteristics_Source          : Stream
Matrix coefficients                      : BT.709
matrix_coefficients_Source               : Stream
Codec configuration box                  : avcC

Audio
Count                                    : 280
Count of stream of this kind             : 1
Kind of stream                           : Audio
Kind of stream                           : Audio
Stream identifier                        : 0
StreamOrder                              : 1
ID                                       : 2
ID                                       : 2
Format                                   : AAC
Format                                   : AAC LC
Format/Info                              : Advanced Audio Codec Low Complexity
Commercial name                          : AAC
Format_AdditionalFeatures                : LC
Codec ID                                 : mp4a-40-2
Duration                                 : 430155
Duration                                 : 7 min 10 s
Duration                                 : 7 min 10 s 155 ms
Duration                                 : 7 min 10 s
Duration                                 : 00:07:10.155
Duration                                 : 00:07:09:01
Duration                                 : 00:07:10.155 (00:07:09:01)
Duration_LastFrame                       : -11
Duration_LastFrame                       : -11 ms
Duration_LastFrame                       : -11 ms
Duration_LastFrame                       : -11 ms
Duration_LastFrame                       : -00:00:00.011
Bit rate mode                            : CBR
Bit rate mode                            : Constant
Bit rate                                 : 192000
Bit rate                                 : 192 kb/s
Channel(s)                               : 2
Channel(s)                               : 2 channels
Channel positions                        : Front: L R
Channel positions                        : 2/0/0
Channel layout                           : L R
Samples per frame                        : 1024
Sampling rate                            : 48000
Sampling rate                            : 48.0 kHz
Samples count                            : 20647440
Frame rate                               : 46.875
Frame rate                               : 46.875 FPS (1024 SPF)
Frame count                              : 20164
Compression mode                         : Lossy
Compression mode                         : Lossy
Stream size                              : 10323969
Stream size                              : 9.85 MiB (9%)
Stream size                              : 10 MiB
Stream size                              : 9.8 MiB
Stream size                              : 9.85 MiB
Stream size                              : 9.846 MiB
Stream size                              : 9.85 MiB (9%)
Proportion of this stream                : 0.09492
Default                                  : Yes
Default                                  : Yes
Alternate group                          : 1
Alternate group                          : 1

 

아래 기준으로 바꿔야 하는데

Format                                   : MPEG-4
Format profile                           : Base Media / Version 2
Codec ID                                 : mp42 (mp42/iso2/isom/avc1)
File size                                : 107 MiB
Duration                                 : 7 min 10 s
Overall bit rate                         : 2 079 kb/s
Encoded date                             : UTC 2021-08-30 06:36:48
Tagged date                              : UTC 2021-08-30 06:36:48

Video
ID                                       : 1
Format                                   : AVC
Format/Info                              : Advanced Video Codec
Format profile                           : Baseline@L3.1
Format settings                          : 2 Ref Frames
Format settings, CABAC                   : No
Format settings, Reference frames        : 2 frames
Format settings, GOP                     : M=1, N=30
Codec ID                                 : avc1
Codec ID/Info                            : Advanced Video Coding
Duration                                 : 7 min 10 s
Bit rate                                 : 1 951 kb/s
Maximum bit rate                         : 2 000 kb/s
Width                                    : 1 280 pixels
Height                                   : 720 pixels
Display aspect ratio                     : 16:9
Frame rate mode                          : Constant
Frame rate                               : 29.970 (30000/1001) FPS
Standard                                 : NTSC
Color space                              : YUV
Chroma subsampling                       : 4:2:0
Bit depth                                : 8 bits
Scan type                                : Progressive
Bits/(Pixel*Frame)                       : 0.071
Stream size                              : 100 MiB (94%)
Language                                 : English
Encoded date                             : UTC 2021-08-30 06:36:48
Tagged date                              : UTC 2021-08-30 06:36:48
Color range                              : Limited
Codec configuration box                  : avcC

Audio
ID                                       : 2
Format                                   : AAC LC
Format/Info                              : Advanced Audio Codec Low Complexity
Codec ID                                 : mp4a-40-2
Duration                                 : 7 min 10 s
Source duration                          : 7 min 10 s
Bit rate mode                            : Constant
Bit rate                                 : 128 kb/s
Channel(s)                               : 2 channels
Channel layout                           : L R
Sampling rate                            : 48.0 kHz
Frame rate                               : 46.875 FPS (1024 SPF)
Compression mode                         : Lossy
Stream size                              : 6.44 MiB (6%)
Source stream size                       : 6.44 MiB (6%)
Language                                 : English
Encoded date                             : UTC 2021-08-30 06:36:48
Tagged date                              : UTC 2021-08-30 06:36:48

 

자세한 정보

General
Count                                    : 331
Count of stream of this kind             : 1
Kind of stream                           : General
Kind of stream                           : General
Stream identifier                        : 0
Count of video streams                   : 1
Count of audio streams                   : 1
Video_Format_List                        : AVC
Video_Format_WithHint_List               : AVC
Codecs Video                             : AVC
Video_Language_List                      : English
Audio_Format_List                        : AAC LC
Audio_Format_WithHint_List               : AAC LC
Audio codecs                             : AAC LC
Audio_Language_List                      : English

File extension                           : mp4
Format                                   : MPEG-4
Format                                   : MPEG-4
Format/Extensions usually used           : braw mov mp4 m4v m4a m4b m4p m4r 3ga 3gpa 3gpp 3gp 3gpp2 3g2 k3g jpm jpx mqv ismv isma ismt f4a f4b f4v
Commercial name                          : MPEG-4
Format profile                           : Base Media / Version 2
Internet media type                      : video/mp4
Codec ID                                 : mp42
Codec ID                                 : mp42 (mp42/iso2/isom/avc1)
Codec ID/Url                             : http://www.apple.com/quicktime/download/standalone.html
CodecID_Compatible                       : mp42/iso2/isom/avc1
File size                                : 111936559
File size                                : 107 MiB
File size                                : 107 MiB
File size                                : 107 MiB
File size                                : 107 MiB
File size                                : 106.8 MiB
Duration                                 : 430830
Duration                                 : 7 min 10 s
Duration                                 : 7 min 10 s 830 ms
Duration                                 : 7 min 10 s
Duration                                 : 00:07:10.830
Duration                                 : 00:07:10;26
Duration                                 : 00:07:10.830 (00:07:10;26)
Overall bit rate                         : 2078529
Overall bit rate                         : 2 079 kb/s
Frame rate                               : 29.970
Frame rate                               : 29.970 FPS
Frame count                              : 12912
Stream size                              : 140028
Stream size                              : 137 KiB (0%)
Stream size                              : 137 KiB
Stream size                              : 137 KiB
Stream size                              : 137 KiB
Stream size                              : 136.7 KiB
Stream size                              : 137 KiB (0%)
Proportion of this stream                : 0.00125
HeaderSize                               : 139678
DataSize                                 : 111796881
FooterSize                               : 0
IsStreamable                             : Yes
Encoded date                             : UTC 2021-08-30 06:36:48
Tagged date                              : UTC 2021-08-30 06:36:48
File creation date                       : UTC 2021-09-29 14:46:31.161
File creation date (local)               : 2021-09-29 23:46:31.161
File last modification date              : UTC 2021-09-29 14:46:45.495
File last modification date (local)      : 2021-09-29 23:46:45.495

Video
Count                                    : 378
Count of stream of this kind             : 1
Kind of stream                           : Video
Kind of stream                           : Video
Stream identifier                        : 0
StreamOrder                              : 0
ID                                       : 1
ID                                       : 1
Format                                   : AVC
Format                                   : AVC
Format/Info                              : Advanced Video Codec
Format/Url                               : http://developers.videolan.org/x264.html
Commercial name                          : AVC
Format profile                           : Baseline@L3.1
Format settings                          : 2 Ref Frames
Format settings, CABAC                   : No
Format settings, CABAC                   : No
Format settings, Reference frames        : 2
Format settings, Reference frames        : 2 frames
Format settings, GOP                     : M=1, N=30
Internet media type                      : video/H264
Codec ID                                 : avc1
Codec ID/Info                            : Advanced Video Coding
Duration                                 : 430830
Duration                                 : 7 min 10 s
Duration                                 : 7 min 10 s 830 ms
Duration                                 : 7 min 10 s
Duration                                 : 00:07:10.830
Duration                                 : 00:07:10;26
Duration                                 : 00:07:10.830 (00:07:10;26)
Bit rate                                 : 1950551
Bit rate                                 : 1 951 kb/s
Maximum bit rate                         : 2000000
Maximum bit rate                         : 2 000 kb/s
Width                                    : 1280
Width                                    : 1 280 pixels
Height                                   : 720
Height                                   : 720 pixels
Sampled_Width                            : 1280
Sampled_Height                           : 720
Pixel aspect ratio                       : 1.000
Display aspect ratio                     : 1.778
Display aspect ratio                     : 16:9
Rotation                                 : 0.000
Frame rate mode                          : CFR
Frame rate mode                          : Constant
Frame rate                               : 29.970
Frame rate                               : 29.970 (30000/1001) FPS
FrameRate_Num                            : 30000
FrameRate_Den                            : 1001
Frame count                              : 12912
Standard                                 : NTSC
Color space                              : YUV
Chroma subsampling                       : 4:2:0
Chroma subsampling                       : 4:2:0
Bit depth                                : 8
Bit depth                                : 8 bits
Scan type                                : Progressive
Scan type                                : Progressive
Bits/(Pixel*Frame)                       : 0.071
Stream size                              : 105044669
Stream size                              : 100 MiB (94%)
Stream size                              : 100 MiB
Stream size                              : 100 MiB
Stream size                              : 100 MiB
Stream size                              : 100.2 MiB
Stream size                              : 100 MiB (94%)
Proportion of this stream                : 0.93843
Language                                 : en
Language                                 : English
Language                                 : English
Language                                 : en
Language                                 : eng
Language                                 : en
Encoded date                             : UTC 2021-08-30 06:36:48
Tagged date                              : UTC 2021-08-30 06:36:48
Color range                              : Limited
colour_range_Source                      : Stream
Codec configuration box                  : avcC

Audio
Count                                    : 280
Count of stream of this kind             : 1
Kind of stream                           : Audio
Kind of stream                           : Audio
Stream identifier                        : 0
StreamOrder                              : 1
ID                                       : 2
ID                                       : 2
Format                                   : AAC
Format                                   : AAC LC
Format/Info                              : Advanced Audio Codec Low Complexity
Commercial name                          : AAC
Format_AdditionalFeatures                : LC
Codec ID                                 : mp4a-40-2
Duration                                 : 430830
Duration                                 : 7 min 10 s
Duration                                 : 7 min 10 s 830 ms
Duration                                 : 7 min 10 s
Duration                                 : 00:07:10.830
Duration                                 : 00:07:09:32
Duration                                 : 00:07:10.830 (00:07:09:32)
Source duration                          : 430848
Source duration                          : 7 min 10 s
Source duration                          : 7 min 10 s 848 ms
Source duration                          : 7 min 10 s
Source duration                          : 00:07:10.848
Bit rate mode                            : CBR
Bit rate mode                            : Constant
Bit rate                                 : 128000
Bit rate                                 : 128 kb/s
Channel(s)                               : 2
Channel(s)                               : 2 channels
Channel positions                        : Front: L R
Channel positions                        : 2/0/0
Channel layout                           : L R
Samples per frame                        : 1024
Sampling rate                            : 48000
Sampling rate                            : 48.0 kHz
Samples count                            : 20679840
Frame rate                               : 46.875
Frame rate                               : 46.875 FPS (1024 SPF)
Frame count                              : 20195
Source frame count                       : 20196
Compression mode                         : Lossy
Compression mode                         : Lossy
Stream size                              : 6751862
Stream size                              : 6.44 MiB (6%)
Stream size                              : 6 MiB
Stream size                              : 6.4 MiB
Stream size                              : 6.44 MiB
Stream size                              : 6.439 MiB
Stream size                              : 6.44 MiB (6%)
Proportion of this stream                : 0.06032
Source stream size                       : 6752196
Source stream size                       : 6.44 MiB (6%)
Source stream size                       : 6 MiB
Source stream size                       : 6.4 MiB
Source stream size                       : 6.44 MiB
Source stream size                       : 6.439 MiB
Source stream size                       : 6.44 MiB (6%)
Source_StreamSize_Proportion             : 0.06032
Language                                 : en
Language                                 : English
Language                                 : English
Language                                 : en
Language                                 : eng
Language                                 : en
Encoded date                             : UTC 2021-08-30 06:36:48
Tagged date                              : UTC 2021-08-30 06:36:48

 

파일 형식, 비트레이트 조정, 영상 사이즈 조정, 오디오 코덱은 기준본과 비슷하게 했습니다.

 

Format                                   : MPEG-4
Format profile                           : Base Media
Codec ID                                 : isom (isom/iso2/avc1/mp41)
File size                                : 106 MiB
Duration                                 : 7 min 10 s
Overall bit rate                         : 2 076 kb/s
Encoded date                             : UTC 2021-08-27 07:00:06
Writing application                      : ShanaEncoder

Video
ID                                       : 1
Format                                   : AVC
Format/Info                              : Advanced Video Codec
Format profile                           : Baseline@L3.1
Format settings                          : 1 Ref Frames
Format settings, CABAC                   : No
Format settings, Reference frames        : 1 frame
Codec ID                                 : avc1
Codec ID/Info                            : Advanced Video Coding
Duration                                 : 7 min 10 s
Bit rate                                 : 2 042 kb/s
Width                                    : 1 280 pixels
Height                                   : 720 pixels
Display aspect ratio                     : 16:9
Frame rate mode                          : Constant
Frame rate                               : 29.970 (30000/1001) FPS
Color space                              : YUV
Chroma subsampling                       : 4:2:0
Bit depth                                : 8 bits
Scan type                                : Progressive
Bits/(Pixel*Frame)                       : 0.074
Stream size                              : 99.7 MiB (94%)
Writing library                          : x264 core 157 r2969 d4099dd
Encoding settings                        : cabac=0 / ref=1 / deblock=1:0:0 / analyse=0x1:0x111 / me=hex / subme=2 / psy=1 / psy_rd=1.00:0.00 / mixed_ref=0 / me_range=16 / chroma_me=1 / trellis=0 / 8x8dct=0 / cqm=0 / deadzone=21,11 / fast_pskip=1 / chroma_qp_offset=0 / threads=6 / lookahead_threads=2 / sliced_threads=0 / nr=0 / decimate=1 / interlaced=0 / bluray_compat=0 / constrained_intra=0 / bframes=0 / weightp=0 / keyint=250 / keyint_min=25 / scenecut=40 / intra_refresh=0 / rc_lookahead=10 / rc=abr / mbtree=1 / bitrate=2042 / ratetol=1.0 / qcomp=0.60 / qpmin=0 / qpmax=69 / qpstep=4 / ip_ratio=1.40 / aq=1:1.00
Codec configuration box                  : avcC

Audio
ID                                       : 2
Format                                   : AAC LC
Format/Info                              : Advanced Audio Codec Low Complexity
Codec ID                                 : mp4a-40-2
Duration                                 : 7 min 10 s
Bit rate mode                            : Constant
Bit rate                                 : 125 kb/s
Channel(s)                               : 2 channels
Channel layout                           : L R
Sampling rate                            : 48.0 kHz
Frame rate                               : 46.875 FPS (1024 SPF)
Compression mode                         : Lossy
Stream size                              : 6.41 MiB (6%)
Default                                  : Yes
Alternate group                          : 1

 

자세한 정보

General
Count                                    : 331
Count of stream of this kind             : 1
Kind of stream                           : General
Kind of stream                           : General
Stream identifier                        : 0
Count of video streams                   : 1
Count of audio streams                   : 1
Video_Format_List                        : AVC
Video_Format_WithHint_List               : AVC
Codecs Video                             : AVC
Audio_Format_List                        : AAC LC
Audio_Format_WithHint_List               : AAC LC
Audio codecs                             : AAC LC

File extension                           : mp4
Format                                   : MPEG-4
Format                                   : MPEG-4
Format/Extensions usually used           : braw mov mp4 m4v m4a m4b m4p m4r 3ga 3gpa 3gpp 3gp 3gpp2 3g2 k3g jpm jpx mqv ismv isma ismt f4a f4b f4v
Commercial name                          : MPEG-4
Format profile                           : Base Media
Internet media type                      : video/mp4
Codec ID                                 : isom
Codec ID                                 : isom (isom/iso2/avc1/mp41)
Codec ID/Url                             : http://www.apple.com/quicktime/download/standalone.html
CodecID_Compatible                       : isom/iso2/avc1/mp41
File size                                : 111650919
File size                                : 106 MiB
File size                                : 106 MiB
File size                                : 106 MiB
File size                                : 106 MiB
File size                                : 106.5 MiB
Duration                                 : 430208
Duration                                 : 7 min 10 s
Duration                                 : 7 min 10 s 208 ms
Duration                                 : 7 min 10 s
Duration                                 : 00:07:10.208
Duration                                 : 00:07:10;04
Duration                                 : 00:07:10.208 (00:07:10;04)
Overall bit rate                         : 2076222
Overall bit rate                         : 2 076 kb/s
Frame rate                               : 29.970
Frame rate                               : 29.970 FPS
Frame count                              : 12890
Stream size                              : 372071
Stream size                              : 363 KiB (0%)
Stream size                              : 363 KiB
Stream size                              : 363 KiB
Stream size                              : 363 KiB
Stream size                              : 363.4 KiB
Stream size                              : 363 KiB (0%)
Proportion of this stream                : 0.00333
HeaderSize                               : 40
DataSize                                 : 111278856
FooterSize                               : 372023
IsStreamable                             : No
Encoded date                             : UTC 2021-08-27 07:00:06
File creation date                       : UTC 2021-09-29 14:46:25.269
File creation date (local)               : 2021-09-29 23:46:25.269
File last modification date              : UTC 2021-08-27 07:00:09.261
File last modification date (local)      : 2021-08-27 16:00:09.261
Writing application                      : ShanaEncoder
Writing application                      : ShanaEncoder

Video
Count                                    : 378
Count of stream of this kind             : 1
Kind of stream                           : Video
Kind of stream                           : Video
Stream identifier                        : 0
StreamOrder                              : 0
ID                                       : 1
ID                                       : 1
Format                                   : AVC
Format                                   : AVC
Format/Info                              : Advanced Video Codec
Format/Url                               : http://developers.videolan.org/x264.html
Commercial name                          : AVC
Format profile                           : Baseline@L3.1
Format settings                          : 1 Ref Frames
Format settings, CABAC                   : No
Format settings, CABAC                   : No
Format settings, Reference frames        : 1
Format settings, Reference frames        : 1 frame
Internet media type                      : video/H264
Codec ID                                 : avc1
Codec ID/Info                            : Advanced Video Coding
Duration                                 : 430097
Duration                                 : 7 min 10 s
Duration                                 : 7 min 10 s 97 ms
Duration                                 : 7 min 10 s
Duration                                 : 00:07:10.097
Duration                                 : 00:07:10;04
Duration                                 : 00:07:10.097 (00:07:10;04)
Bit rate                                 : 2042000
Bit rate                                 : 2 042 kb/s
Width                                    : 1280
Width                                    : 1 280 pixels
Height                                   : 720
Height                                   : 720 pixels
Sampled_Width                            : 1280
Sampled_Height                           : 720
Pixel aspect ratio                       : 1.000
Display aspect ratio                     : 1.778
Display aspect ratio                     : 16:9
Rotation                                 : 0.000
Frame rate mode                          : CFR
Frame rate mode                          : Constant
FrameRate_Mode_Original                  : VFR
Frame rate                               : 29.970
Frame rate                               : 29.970 (30000/1001) FPS
FrameRate_Num                            : 30000
FrameRate_Den                            : 1001
Frame count                              : 12890
Color space                              : YUV
Chroma subsampling                       : 4:2:0
Chroma subsampling                       : 4:2:0
Bit depth                                : 8
Bit depth                                : 8 bits
Scan type                                : Progressive
Scan type                                : Progressive
Bits/(Pixel*Frame)                       : 0.074
Stream size                              : 104556847
Stream size                              : 99.7 MiB (94%)
Stream size                              : 100 MiB
Stream size                              : 100 MiB
Stream size                              : 99.7 MiB
Stream size                              : 99.71 MiB
Stream size                              : 99.7 MiB (94%)
Proportion of this stream                : 0.93646
Writing library                          : x264 - core 157 r2969 d4099dd
Writing library                          : x264 core 157 r2969 d4099dd
Encoded_Library_Name                     : x264
Encoded_Library_Version                  : core 157 r2969 d4099dd
Encoding settings                        : cabac=0 / ref=1 / deblock=1:0:0 / analyse=0x1:0x111 / me=hex / subme=2 / psy=1 / psy_rd=1.00:0.00 / mixed_ref=0 / me_range=16 / chroma_me=1 / trellis=0 / 8x8dct=0 / cqm=0 / deadzone=21,11 / fast_pskip=1 / chroma_qp_offset=0 / threads=6 / lookahead_threads=2 / sliced_threads=0 / nr=0 / decimate=1 / interlaced=0 / bluray_compat=0 / constrained_intra=0 / bframes=0 / weightp=0 / keyint=250 / keyint_min=25 / scenecut=40 / intra_refresh=0 / rc_lookahead=10 / rc=abr / mbtree=1 / bitrate=2042 / ratetol=1.0 / qcomp=0.60 / qpmin=0 / qpmax=69 / qpstep=4 / ip_ratio=1.40 / aq=1:1.00
Codec configuration box                  : avcC

Audio
Count                                    : 280
Count of stream of this kind             : 1
Kind of stream                           : Audio
Kind of stream                           : Audio
Stream identifier                        : 0
StreamOrder                              : 1
ID                                       : 2
ID                                       : 2
Format                                   : AAC
Format                                   : AAC LC
Format/Info                              : Advanced Audio Codec Low Complexity
Commercial name                          : AAC
Format_AdditionalFeatures                : LC
Codec ID                                 : mp4a-40-2
Duration                                 : 430208
Duration                                 : 7 min 10 s
Duration                                 : 7 min 10 s 208 ms
Duration                                 : 7 min 10 s
Duration                                 : 00:07:10.208
Duration                                 : 00:07:09:03
Duration                                 : 00:07:10.208 (00:07:09:03)
Bit rate mode                            : CBR
Bit rate mode                            : Constant
Bit rate                                 : 125000
Bit rate                                 : 125 kb/s
Channel(s)                               : 2
Channel(s)                               : 2 channels
Channel positions                        : Front: L R
Channel positions                        : 2/0/0
Channel layout                           : L R
Samples per frame                        : 1024
Sampling rate                            : 48000
Sampling rate                            : 48.0 kHz
Samples count                            : 20649984
Frame rate                               : 46.875
Frame rate                               : 46.875 FPS (1024 SPF)
Frame count                              : 20166
Compression mode                         : Lossy
Compression mode                         : Lossy
Stream size                              : 6722001
Stream size                              : 6.41 MiB (6%)
Stream size                              : 6 MiB
Stream size                              : 6.4 MiB
Stream size                              : 6.41 MiB
Stream size                              : 6.411 MiB
Stream size                              : 6.41 MiB (6%)
Proportion of this stream                : 0.06021
Default                                  : Yes
Default                                  : Yes
Alternate group                          : 1
Alternate group                          : 1

 

확인하니 기준과 맞지 않네요. 문제는 위 영상뿐 아니라 아래 3개 영상도

 

General
Complete name                            : C:\Users\PC\Pictures\69bbcafa-2385-11ec-818c-48df37269fd0.mp4
Format                                   : MPEG-4
Format profile                           : Base Media
Codec ID                                 : isom (isom/iso2/avc1/mp41)
File size                                : 111 MiB
Duration                                 : 24 min 49 s
Overall bit rate                         : 627 kb/s
Writing application                      : Lavf58.12.100
exvr                                     : EX1.8.2(C1.0.9)

Video
ID                                       : 1
Format                                   : AVC
Format/Info                              : Advanced Video Codec
Format profile                           : Main@L3.1
Format settings                          : CABAC / 4 Ref Frames
Format settings, CABAC                   : Yes
Format settings, Reference frames        : 4 frames
Codec ID                                 : avc1
Codec ID/Info                            : Advanced Video Coding
Duration                                 : 24 min 49 s
Bit rate                                 : 494 kb/s
Width                                    : 854 pixels
Height                                   : 474 pixels
Display aspect ratio                     : 16:9
Frame rate mode                          : Constant
Frame rate                               : 29.970 (29970/1000) FPS
Color space                              : YUV
Chroma subsampling                       : 4:2:0
Bit depth                                : 8 bits
Scan type                                : Progressive
Bits/(Pixel*Frame)                       : 0.041
Stream size                              : 87.8 MiB (79%)
Codec configuration box                  : avcC

Audio
ID                                       : 2
Format                                   : AAC LC
Format/Info                              : Advanced Audio Codec Low Complexity
Codec ID                                 : mp4a-40-2
Duration                                 : 24 min 49 s
Bit rate mode                            : Constant
Bit rate                                 : 128 kb/s
Channel(s)                               : 2 channels
Channel layout                           : L R
Sampling rate                            : 48.0 kHz
Frame rate                               : 46.875 FPS (1024 SPF)
Compression mode                         : Lossy
Stream size                              : 22.7 MiB (20%)
Default                                  : Yes
Alternate group                          : 1

 

자세한 정보

General
Count                                    : 332
Count of stream of this kind             : 1
Kind of stream                           : General
Kind of stream                           : General
Stream identifier                        : 0
Count of video streams                   : 1
Count of audio streams                   : 1
Video_Format_List                        : AVC
Video_Format_WithHint_List               : AVC
Codecs Video                             : AVC
Audio_Format_List                        : AAC LC
Audio_Format_WithHint_List               : AAC LC
Audio codecs                             : AAC LC
Complete name                            : C:\Users\PC\Pictures\69bbcafa-2385-11ec-818c-48df37269fd0.mp4
Folder name                              : C:\Users\PC\Pictures
File name extension                      : 69bbcafa-2385-11ec-818c-48df37269fd0.mp4
File name                                : 69bbcafa-2385-11ec-818c-48df37269fd0
File extension                           : mp4
Format                                   : MPEG-4
Format                                   : MPEG-4
Format/Extensions usually used           : braw mov mp4 m4v m4a m4b m4p m4r 3ga 3gpa 3gpp 3gp 3gpp2 3g2 k3g jpm jpx mqv ismv isma ismt f4a f4b f4v
Commercial name                          : MPEG-4
Format profile                           : Base Media
Internet media type                      : video/mp4
Codec ID                                 : isom
Codec ID                                 : isom (isom/iso2/avc1/mp41)
Codec ID/Url                             : http://www.apple.com/quicktime/download/standalone.html
CodecID_Compatible                       : isom/iso2/avc1/mp41
File size                                : 116739547
File size                                : 111 MiB
File size                                : 111 MiB
File size                                : 111 MiB
File size                                : 111 MiB
File size                                : 111.3 MiB
Duration                                 : 1489280
Duration                                 : 24 min 49 s
Duration                                 : 24 min 49 s 280 ms
Duration                                 : 24 min 49 s
Duration                                 : 00:24:49.280
Duration                                 : 00:24:49;06
Duration                                 : 00:24:49.280 (00:24:49;06)
Overall bit rate                         : 627093
Overall bit rate                         : 627 kb/s
Frame rate                               : 29.970
Frame rate                               : 29.970 FPS
Frame count                              : 44632
Stream size                              : 877382
Stream size                              : 857 KiB (1%)
Stream size                              : 857 KiB
Stream size                              : 857 KiB
Stream size                              : 857 KiB
Stream size                              : 856.8 KiB
Stream size                              : 857 KiB (1%)
Proportion of this stream                : 0.00752
HeaderSize                               : 877374
DataSize                                 : 115862173
FooterSize                               : 0
IsStreamable                             : Yes
File creation date                       : UTC 2021-10-10 12:26:11.446
File creation date (local)               : 2021-10-10 21:26:11.446
File last modification date              : UTC 2021-10-10 12:17:19.000
File last modification date (local)      : 2021-10-10 21:17:19.000
Writing application                      : Lavf58.12.100
Writing application                      : Lavf58.12.100
exvr                                     : EX1.8.2(C1.0.9)

Video
Count                                    : 378
Count of stream of this kind             : 1
Kind of stream                           : Video
Kind of stream                           : Video
Stream identifier                        : 0
StreamOrder                              : 0
ID                                       : 1
ID                                       : 1
Format                                   : AVC
Format                                   : AVC
Format/Info                              : Advanced Video Codec
Format/Url                               : http://developers.videolan.org/x264.html
Commercial name                          : AVC
Format profile                           : Main@L3.1
Format settings                          : CABAC / 4 Ref Frames
Format settings, CABAC                   : Yes
Format settings, CABAC                   : Yes
Format settings, Reference frames        : 4
Format settings, Reference frames        : 4 frames
Internet media type                      : video/H264
Codec ID                                 : avc1
Codec ID/Info                            : Advanced Video Coding
Duration                                 : 1489223
Duration                                 : 24 min 49 s
Duration                                 : 24 min 49 s 223 ms
Duration                                 : 24 min 49 s
Duration                                 : 00:24:49.223
Duration                                 : 00:24:49;06
Duration                                 : 00:24:49.223 (00:24:49;06)
Bit rate                                 : 494399
Bit rate                                 : 494 kb/s
Width                                    : 854
Width                                    : 854 pixels
Height                                   : 474
Height                                   : 474 pixels
Stored_Width                             : 864
Stored_Height                            : 480
Sampled_Width                            : 854
Sampled_Height                           : 474
Pixel aspect ratio                       : 0.999
Display aspect ratio                     : 1.800
Display aspect ratio                     : 16:9
Rotation                                 : 0.000
Frame rate mode                          : CFR
Frame rate mode                          : Constant
FrameRate_Mode_Original                  : VFR
Frame rate                               : 29.970
Frame rate                               : 29.970 (29970/1000) FPS
FrameRate_Num                            : 29970
FrameRate_Den                            : 1000
Frame count                              : 44632
Color space                              : YUV
Chroma subsampling                       : 4:2:0
Chroma subsampling                       : 4:2:0
Bit depth                                : 8
Bit depth                                : 8 bits
Scan type                                : Progressive
Scan type                                : Progressive
Bits/(Pixel*Frame)                       : 0.041
Stream size                              : 92033684
Stream size                              : 87.8 MiB (79%)
Stream size                              : 88 MiB
Stream size                              : 88 MiB
Stream size                              : 87.8 MiB
Stream size                              : 87.77 MiB
Stream size                              : 87.8 MiB (79%)
Proportion of this stream                : 0.78837
Codec configuration box                  : avcC

Audio
Count                                    : 280
Count of stream of this kind             : 1
Kind of stream                           : Audio
Kind of stream                           : Audio
Stream identifier                        : 0
StreamOrder                              : 1
ID                                       : 2
ID                                       : 2
Format                                   : AAC
Format                                   : AAC LC
Format/Info                              : Advanced Audio Codec Low Complexity
Commercial name                          : AAC
Format_AdditionalFeatures                : LC
Codec ID                                 : mp4a-40-2
Duration                                 : 1489280
Duration                                 : 24 min 49 s
Duration                                 : 24 min 49 s 280 ms
Duration                                 : 24 min 49 s
Duration                                 : 00:24:49.280
Duration                                 : 00:24:45:15
Duration                                 : 00:24:49.280 (00:24:45:15)
Bit rate mode                            : CBR
Bit rate mode                            : Constant
Bit rate                                 : 128000
Bit rate                                 : 128 kb/s
Channel(s)                               : 2
Channel(s)                               : 2 channels
Channel positions                        : Front: L R
Channel positions                        : 2/0/0
Channel layout                           : L R
Samples per frame                        : 1024
Sampling rate                            : 48000
Sampling rate                            : 48.0 kHz
Samples count                            : 71485440
Frame rate                               : 46.875
Frame rate                               : 46.875 FPS (1024 SPF)
Frame count                              : 69810
Compression mode                         : Lossy
Compression mode                         : Lossy
Stream size                              : 23828481
Stream size                              : 22.7 MiB (20%)
Stream size                              : 23 MiB
Stream size                              : 23 MiB
Stream size                              : 22.7 MiB
Stream size                              : 22.72 MiB
Stream size                              : 22.7 MiB (20%)
Proportion of this stream                : 0.20412
Default                                  : Yes
Default                                  : Yes
Alternate group                          : 1
Alternate group                          : 1

MediaInfoLib - v19.09

 

General
Complete name                            : C:\Users\PC\Pictures\a20805d8-2385-11ec-b529-360f93b3ad9a.mp4
Format                                   : MPEG-4
Format profile                           : Base Media
Codec ID                                 : isom (isom/iso2/avc1/mp41)
File size                                : 338 MiB
Duration                                 : 45 min 29 s
Overall bit rate                         : 1 037 kb/s
Writing application                      : Lavf58.12.100
exvr                                     : EX1.8.2(C1.0.9)

Video
ID                                       : 1
Format                                   : AVC
Format/Info                              : Advanced Video Codec
Format profile                           : Main@L3.1
Format settings                          : CABAC / 4 Ref Frames
Format settings, CABAC                   : Yes
Format settings, Reference frames        : 4 frames
Codec ID                                 : avc1
Codec ID/Info                            : Advanced Video Coding
Duration                                 : 45 min 29 s
Bit rate                                 : 905 kb/s
Width                                    : 854 pixels
Height                                   : 474 pixels
Display aspect ratio                     : 16:9
Frame rate mode                          : Constant
Frame rate                               : 29.970 (29970/1000) FPS
Color space                              : YUV
Chroma subsampling                       : 4:2:0
Bit depth                                : 8 bits
Scan type                                : Progressive
Bits/(Pixel*Frame)                       : 0.075
Stream size                              : 294 MiB (87%)
Codec configuration box                  : avcC

Audio
ID                                       : 2
Format                                   : AAC LC
Format/Info                              : Advanced Audio Codec Low Complexity
Codec ID                                 : mp4a-40-2
Duration                                 : 45 min 29 s
Bit rate mode                            : Constant
Bit rate                                 : 128 kb/s
Channel(s)                               : 2 channels
Channel layout                           : L R
Sampling rate                            : 48.0 kHz
Frame rate                               : 46.875 FPS (1024 SPF)
Compression mode                         : Lossy
Stream size                              : 41.6 MiB (12%)
Default                                  : Yes
Alternate group                          : 1

 

자세한 정보

General
Count                                    : 332
Count of stream of this kind             : 1
Kind of stream                           : General
Kind of stream                           : General
Stream identifier                        : 0
Count of video streams                   : 1
Count of audio streams                   : 1
Video_Format_List                        : AVC
Video_Format_WithHint_List               : AVC
Codecs Video                             : AVC
Audio_Format_List                        : AAC LC
Audio_Format_WithHint_List               : AAC LC
Audio codecs                             : AAC LC
Complete name                            : C:\Users\PC\Pictures\a20805d8-2385-11ec-b529-360f93b3ad9a.mp4
Folder name                              : C:\Users\PC\Pictures
File name extension                      : a20805d8-2385-11ec-b529-360f93b3ad9a.mp4
File name                                : a20805d8-2385-11ec-b529-360f93b3ad9a
File extension                           : mp4
Format                                   : MPEG-4
Format                                   : MPEG-4
Format/Extensions usually used           : braw mov mp4 m4v m4a m4b m4p m4r 3ga 3gpa 3gpp 3gp 3gpp2 3g2 k3g jpm jpx mqv ismv isma ismt f4a f4b f4v
Commercial name                          : MPEG-4
Format profile                           : Base Media
Internet media type                      : video/mp4
Codec ID                                 : isom
Codec ID                                 : isom (isom/iso2/avc1/mp41)
Codec ID/Url                             : http://www.apple.com/quicktime/download/standalone.html
CodecID_Compatible                       : isom/iso2/avc1/mp41
File size                                : 353946388
File size                                : 338 MiB
File size                                : 338 MiB
File size                                : 338 MiB
File size                                : 338 MiB
File size                                : 337.5 MiB
Duration                                 : 2729344
Duration                                 : 45 min 29 s
Duration                                 : 45 min 29 s 344 ms
Duration                                 : 45 min 29 s
Duration                                 : 00:45:29.344
Duration                                 : 00:45:29;09
Duration                                 : 00:45:29.344 (00:45:29;09)
Overall bit rate                         : 1037455
Overall bit rate                         : 1 037 kb/s
Frame rate                               : 29.970
Frame rate                               : 29.970 FPS
Frame count                              : 81797
Stream size                              : 1559774
Stream size                              : 1.49 MiB (0%)
Stream size                              : 1 MiB
Stream size                              : 1.5 MiB
Stream size                              : 1.49 MiB
Stream size                              : 1.488 MiB
Stream size                              : 1.49 MiB (0%)
Proportion of this stream                : 0.00441
HeaderSize                               : 1559766
DataSize                                 : 352386622
FooterSize                               : 0
IsStreamable                             : Yes
File creation date                       : UTC 2021-10-10 12:26:17.700
File creation date (local)               : 2021-10-10 21:26:17.700
File last modification date              : UTC 2021-10-10 12:22:27.000
File last modification date (local)      : 2021-10-10 21:22:27.000
Writing application                      : Lavf58.12.100
Writing application                      : Lavf58.12.100
exvr                                     : EX1.8.2(C1.0.9)

Video
Count                                    : 378
Count of stream of this kind             : 1
Kind of stream                           : Video
Kind of stream                           : Video
Stream identifier                        : 0
StreamOrder                              : 0
ID                                       : 1
ID                                       : 1
Format                                   : AVC
Format                                   : AVC
Format/Info                              : Advanced Video Codec
Format/Url                               : http://developers.videolan.org/x264.html
Commercial name                          : AVC
Format profile                           : Main@L3.1
Format settings                          : CABAC / 4 Ref Frames
Format settings, CABAC                   : Yes
Format settings, CABAC                   : Yes
Format settings, Reference frames        : 4
Format settings, Reference frames        : 4 frames
Internet media type                      : video/H264
Codec ID                                 : avc1
Codec ID/Info                            : Advanced Video Coding
Duration                                 : 2729296
Duration                                 : 45 min 29 s
Duration                                 : 45 min 29 s 296 ms
Duration                                 : 45 min 29 s
Duration                                 : 00:45:29.296
Duration                                 : 00:45:29;09
Duration                                 : 00:45:29.296 (00:45:29;09)
Bit rate                                 : 904899
Bit rate                                 : 905 kb/s
Width                                    : 854
Width                                    : 854 pixels
Height                                   : 474
Height                                   : 474 pixels
Stored_Width                             : 864
Stored_Height                            : 480
Sampled_Width                            : 854
Sampled_Height                           : 474
Pixel aspect ratio                       : 0.999
Display aspect ratio                     : 1.800
Display aspect ratio                     : 16:9
Rotation                                 : 0.000
Frame rate mode                          : CFR
Frame rate mode                          : Constant
FrameRate_Mode_Original                  : VFR
Frame rate                               : 29.970
Frame rate                               : 29.970 (29970/1000) FPS
FrameRate_Num                            : 29970
FrameRate_Den                            : 1000
Frame count                              : 81797
Color space                              : YUV
Chroma subsampling                       : 4:2:0
Chroma subsampling                       : 4:2:0
Bit depth                                : 8
Bit depth                                : 8 bits
Scan type                                : Progressive
Scan type                                : Progressive
Bits/(Pixel*Frame)                       : 0.075
Stream size                              : 308717109
Stream size                              : 294 MiB (87%)
Stream size                              : 294 MiB
Stream size                              : 294 MiB
Stream size                              : 294 MiB
Stream size                              : 294.4 MiB
Stream size                              : 294 MiB (87%)
Proportion of this stream                : 0.87221
Codec configuration box                  : avcC

Audio
Count                                    : 280
Count of stream of this kind             : 1
Kind of stream                           : Audio
Kind of stream                           : Audio
Stream identifier                        : 0
StreamOrder                              : 1
ID                                       : 2
ID                                       : 2
Format                                   : AAC
Format                                   : AAC LC
Format/Info                              : Advanced Audio Codec Low Complexity
Commercial name                          : AAC
Format_AdditionalFeatures                : LC
Codec ID                                 : mp4a-40-2
Duration                                 : 2729344
Duration                                 : 45 min 29 s
Duration                                 : 45 min 29 s 344 ms
Duration                                 : 45 min 29 s
Duration                                 : 00:45:29.344
Duration                                 : 00:45:22:04
Duration                                 : 00:45:29.344 (00:45:22:04)
Bit rate mode                            : CBR
Bit rate mode                            : Constant
Bit rate                                 : 128000
Bit rate                                 : 128 kb/s
Channel(s)                               : 2
Channel(s)                               : 2 channels
Channel positions                        : Front: L R
Channel positions                        : 2/0/0
Channel layout                           : L R
Samples per frame                        : 1024
Sampling rate                            : 48000
Sampling rate                            : 48.0 kHz
Samples count                            : 131008512
Frame rate                               : 46.875
Frame rate                               : 46.875 FPS (1024 SPF)
Frame count                              : 127938
Compression mode                         : Lossy
Compression mode                         : Lossy
Stream size                              : 43669505
Stream size                              : 41.6 MiB (12%)
Stream size                              : 42 MiB
Stream size                              : 42 MiB
Stream size                              : 41.6 MiB
Stream size                              : 41.65 MiB
Stream size                              : 41.6 MiB (12%)
Proportion of this stream                : 0.12338
Default                                  : Yes
Default                                  : Yes
Alternate group                          : 1
Alternate group                          : 1

MediaInfoLib - v19.09

 

General
Complete name                            : C:\Users\PC\Pictures\c9776420-2385-11ec-818c-48df37269fd0.mp4
Format                                   : MPEG-4
Format profile                           : Base Media
Codec ID                                 : isom (isom/iso2/avc1/mp41)
File size                                : 355 MiB
Duration                                 : 48 min 10 s
Overall bit rate                         : 1 031 kb/s
Writing application                      : Lavf58.12.100
exvr                                     : EX1.8.2(C1.0.9)

Video
ID                                       : 1
Format                                   : AVC
Format/Info                              : Advanced Video Codec
Format profile                           : Main@L3.1
Format settings                          : CABAC / 4 Ref Frames
Format settings, CABAC                   : Yes
Format settings, Reference frames        : 4 frames
Codec ID                                 : avc1
Codec ID/Info                            : Advanced Video Coding
Duration                                 : 48 min 10 s
Bit rate                                 : 898 kb/s
Width                                    : 854 pixels
Height                                   : 474 pixels
Display aspect ratio                     : 16:9
Frame rate mode                          : Constant
Frame rate                               : 29.970 (29970/1000) FPS
Color space                              : YUV
Chroma subsampling                       : 4:2:0
Bit depth                                : 8 bits
Scan type                                : Progressive
Bits/(Pixel*Frame)                       : 0.074
Stream size                              : 309 MiB (87%)
Codec configuration box                  : avcC

Audio
ID                                       : 2
Format                                   : AAC LC
Format/Info                              : Advanced Audio Codec Low Complexity
Codec ID                                 : mp4a-40-2
Duration                                 : 48 min 10 s
Bit rate mode                            : Constant
Bit rate                                 : 128 kb/s
Channel(s)                               : 2 channels
Channel layout                           : L R
Sampling rate                            : 48.0 kHz
Frame rate                               : 46.875 FPS (1024 SPF)
Compression mode                         : Lossy
Stream size                              : 44.1 MiB (12%)
Default                                  : Yes
Alternate group                          : 1

 

자세한 정보

General
Count                                    : 332
Count of stream of this kind             : 1
Kind of stream                           : General
Kind of stream                           : General
Stream identifier                        : 0
Count of video streams                   : 1
Count of audio streams                   : 1
Video_Format_List                        : AVC
Video_Format_WithHint_List               : AVC
Codecs Video                             : AVC
Audio_Format_List                        : AAC LC
Audio_Format_WithHint_List               : AAC LC
Audio codecs                             : AAC LC
Complete name                            : C:\Users\PC\Pictures\c9776420-2385-11ec-818c-48df37269fd0.mp4
Folder name                              : C:\Users\PC\Pictures
File name extension                      : c9776420-2385-11ec-818c-48df37269fd0.mp4
File name                                : c9776420-2385-11ec-818c-48df37269fd0
File extension                           : mp4
Format                                   : MPEG-4
Format                                   : MPEG-4
Format/Extensions usually used           : braw mov mp4 m4v m4a m4b m4p m4r 3ga 3gpa 3gpp 3gp 3gpp2 3g2 k3g jpm jpx mqv ismv isma ismt f4a f4b f4v
Commercial name                          : MPEG-4
Format profile                           : Base Media
Internet media type                      : video/mp4
Codec ID                                 : isom
Codec ID                                 : isom (isom/iso2/avc1/mp41)
Codec ID/Url                             : http://www.apple.com/quicktime/download/standalone.html
CodecID_Compatible                       : isom/iso2/avc1/mp41
File size                                : 372362683
File size                                : 355 MiB
File size                                : 355 MiB
File size                                : 355 MiB
File size                                : 355 MiB
File size                                : 355.1 MiB
Duration                                 : 2890432
Duration                                 : 48 min 10 s
Duration                                 : 48 min 10 s 432 ms
Duration                                 : 48 min 10 s
Duration                                 : 00:48:10.432
Duration                                 : 00:48:10;13
Duration                                 : 00:48:10.432 (00:48:10;13)
Overall bit rate                         : 1030608
Overall bit rate                         : 1 031 kb/s
Frame rate                               : 29.970
Frame rate                               : 29.970 FPS
Frame count                              : 86625
Stream size                              : 1672178
Stream size                              : 1.59 MiB (0%)
Stream size                              : 2 MiB
Stream size                              : 1.6 MiB
Stream size                              : 1.59 MiB
Stream size                              : 1.595 MiB
Stream size                              : 1.59 MiB (0%)
Proportion of this stream                : 0.00449
HeaderSize                               : 1672170
DataSize                                 : 370690513
FooterSize                               : 0
IsStreamable                             : Yes
File creation date                       : UTC 2021-10-10 12:26:28.374
File creation date (local)               : 2021-10-10 21:26:28.374
File last modification date              : UTC 2021-10-10 12:22:58.000
File last modification date (local)      : 2021-10-10 21:22:58.000
Writing application                      : Lavf58.12.100
Writing application                      : Lavf58.12.100
exvr                                     : EX1.8.2(C1.0.9)

Video
Count                                    : 378
Count of stream of this kind             : 1
Kind of stream                           : Video
Kind of stream                           : Video
Stream identifier                        : 0
StreamOrder                              : 0
ID                                       : 1
ID                                       : 1
Format                                   : AVC
Format                                   : AVC
Format/Info                              : Advanced Video Codec
Format/Url                               : http://developers.videolan.org/x264.html
Commercial name                          : AVC
Format profile                           : Main@L3.1
Format settings                          : CABAC / 4 Ref Frames
Format settings, CABAC                   : Yes
Format settings, CABAC                   : Yes
Format settings, Reference frames        : 4
Format settings, Reference frames        : 4 frames
Internet media type                      : video/H264
Codec ID                                 : avc1
Codec ID/Info                            : Advanced Video Coding
Duration                                 : 2890391
Duration                                 : 48 min 10 s
Duration                                 : 48 min 10 s 391 ms
Duration                                 : 48 min 10 s
Duration                                 : 00:48:10.391
Duration                                 : 00:48:10;13
Duration                                 : 00:48:10.391 (00:48:10;13)
Bit rate                                 : 897992
Bit rate                                 : 898 kb/s
Width                                    : 854
Width                                    : 854 pixels
Height                                   : 474
Height                                   : 474 pixels
Stored_Width                             : 864
Stored_Height                            : 480
Sampled_Width                            : 854
Sampled_Height                           : 474
Pixel aspect ratio                       : 0.999
Display aspect ratio                     : 1.800
Display aspect ratio                     : 16:9
Rotation                                 : 0.000
Frame rate mode                          : CFR
Frame rate mode                          : Constant
FrameRate_Mode_Original                  : VFR
Frame rate                               : 29.970
Frame rate                               : 29.970 (29970/1000) FPS
FrameRate_Num                            : 29970
FrameRate_Den                            : 1000
Frame count                              : 86625
Color space                              : YUV
Chroma subsampling                       : 4:2:0
Chroma subsampling                       : 4:2:0
Bit depth                                : 8
Bit depth                                : 8 bits
Scan type                                : Progressive
Scan type                                : Progressive
Bits/(Pixel*Frame)                       : 0.074
Stream size                              : 324443592
Stream size                              : 309 MiB (87%)
Stream size                              : 309 MiB
Stream size                              : 309 MiB
Stream size                              : 309 MiB
Stream size                              : 309.4 MiB
Stream size                              : 309 MiB (87%)
Proportion of this stream                : 0.87131
Codec configuration box                  : avcC

Audio
Count                                    : 280
Count of stream of this kind             : 1
Kind of stream                           : Audio
Kind of stream                           : Audio
Stream identifier                        : 0
StreamOrder                              : 1
ID                                       : 2
ID                                       : 2
Format                                   : AAC
Format                                   : AAC LC
Format/Info                              : Advanced Audio Codec Low Complexity
Commercial name                          : AAC
Format_AdditionalFeatures                : LC
Codec ID                                 : mp4a-40-2
Duration                                 : 2890432
Duration                                 : 48 min 10 s
Duration                                 : 48 min 10 s 432 ms
Duration                                 : 48 min 10 s
Duration                                 : 00:48:10.432
Duration                                 : 00:48:02:35
Duration                                 : 00:48:10.432 (00:48:02:35)
Bit rate mode                            : CBR
Bit rate mode                            : Constant
Bit rate                                 : 128000
Bit rate                                 : 128 kb/s
Channel(s)                               : 2
Channel(s)                               : 2 channels
Channel positions                        : Front: L R
Channel positions                        : 2/0/0
Channel layout                           : L R
Samples per frame                        : 1024
Sampling rate                            : 48000
Sampling rate                            : 48.0 kHz
Samples count                            : 138740736
Frame rate                               : 46.875
Frame rate                               : 46.875 FPS (1024 SPF)
Frame count                              : 135489
Compression mode                         : Lossy
Compression mode                         : Lossy
Stream size                              : 46246913
Stream size                              : 44.1 MiB (12%)
Stream size                              : 44 MiB
Stream size                              : 44 MiB
Stream size                              : 44.1 MiB
Stream size                              : 44.10 MiB
Stream size                              : 44.1 MiB (12%)
Proportion of this stream                : 0.12420
Default                                  : Yes
Default                                  : Yes
Alternate group                          : 1
Alternate group                          : 1

MediaInfoLib - v19.09

 

인데

 

아래 기준으로

 

Format                                   : MPEG-4
Format profile                           : Base Media / Version 2
Codec ID                                 : mp42 (mp42/iso2/isom/avc1)
File size                                : 366 MiB
Duration                                 : 45 min 27 s
Overall bit rate                         : 1 126 kb/s
Encoded date                             : UTC 2021-10-07 14:16:39
Tagged date                              : UTC 2021-10-07 14:16:39

Video
ID                                       : 1
Format                                   : AVC
Format/Info                              : Advanced Video Codec
Format profile                           : Baseline@L3
Format settings                          : 2 Ref Frames
Format settings, CABAC                   : No
Format settings, Reference frames        : 2 frames
Codec ID                                 : avc1
Codec ID/Info                            : Advanced Video Coding
Duration                                 : 45 min 27 s
Bit rate                                 : 1 000 kb/s
Width                                    : 720 pixels
Height                                   : 400 pixels
Display aspect ratio                     : 16:9
Frame rate mode                          : Constant
Frame rate                               : 29.970 (30000/1001) FPS
Standard                                 : NTSC
Color space                              : YUV
Chroma subsampling                       : 4:2:0
Bit depth                                : 8 bits
Scan type                                : Progressive
Bits/(Pixel*Frame)                       : 0.116
Stream size                              : 324 MiB (89%)
Language                                 : English
Encoded date                             : UTC 2021-10-07 14:16:39
Tagged date                              : UTC 2021-10-07 14:16:39
Color range                              : Limited
Codec configuration box                  : avcC

Audio
ID                                       : 2
Format                                   : AAC LC
Format/Info                              : Advanced Audio Codec Low Complexity
Codec ID                                 : mp4a-40-2
Duration                                 : 45 min 27 s
Source duration                          : 45 min 27 s
Bit rate mode                            : Constant
Bit rate                                 : 128 kb/s
Channel(s)                               : 2 channels
Channel layout                           : L R
Sampling rate                            : 48.0 kHz
Frame rate                               : 46.875 FPS (1024 SPF)
Compression mode                         : Lossy
Stream size                              : 40.8 MiB (11%)
Source stream size                       : 40.8 MiB (11%)
Language                                 : English
Encoded date                             : UTC 2021-10-07 14:16:39
Tagged date                              : UTC 2021-10-07 14:16:39

 

자세한 정보

General
Count                                    : 331
Count of stream of this kind             : 1
Kind of stream                           : General
Kind of stream                           : General
Stream identifier                        : 0
Count of video streams                   : 1
Count of audio streams                   : 1
Video_Format_List                        : AVC
Video_Format_WithHint_List               : AVC
Codecs Video                             : AVC
Video_Language_List                      : English
Audio_Format_List                        : AAC LC
Audio_Format_WithHint_List               : AAC LC
Audio codecs                             : AAC LC
Audio_Language_List                      : English
File extension                           : mp4
Format                                   : MPEG-4
Format                                   : MPEG-4
Format/Extensions usually used           : braw mov mp4 m4v m4a m4b m4p m4r 3ga 3gpa 3gpp 3gp 3gpp2 3g2 k3g jpm jpx mqv ismv isma ismt f4a f4b f4v
Commercial name                          : MPEG-4
Format profile                           : Base Media / Version 2
Internet media type                      : video/mp4
Codec ID                                 : mp42
Codec ID                                 : mp42 (mp42/iso2/isom/avc1)
Codec ID/Url                             : http://www.apple.com/quicktime/download/standalone.html
CodecID_Compatible                       : mp42/iso2/isom/avc1
File size                                : 383799558
File size                                : 366 MiB
File size                                : 366 MiB
File size                                : 366 MiB
File size                                : 366 MiB
File size                                : 366.0 MiB
Duration                                 : 2727325
Duration                                 : 45 min 27 s
Duration                                 : 45 min 27 s 325 ms
Duration                                 : 45 min 27 s
Duration                                 : 00:45:27.325
Duration                                 : 00:45:27;10
Duration                                 : 00:45:27.325 (00:45:27;10)
Overall bit rate                         : 1125790
Overall bit rate                         : 1 126 kb/s
Frame rate                               : 29.970
Frame rate                               : 29.970 FPS
Frame count                              : 81738
Stream size                              : 878199
Stream size                              : 858 KiB (0%)
Stream size                              : 858 KiB
Stream size                              : 858 KiB
Stream size                              : 858 KiB
Stream size                              : 857.6 KiB
Stream size                              : 858 KiB (0%)
Proportion of this stream                : 0.00229
HeaderSize                               : 877849
DataSize                                 : 382921709
FooterSize                               : 0
IsStreamable                             : Yes
Encoded date                             : UTC 2021-10-07 14:16:39
Tagged date                              : UTC 2021-10-07 14:16:39
File creation date                       : UTC 2021-10-10 12:31:55.372
File creation date (local)               : 2021-10-10 21:31:55.372
File last modification date              : UTC 2021-10-10 12:03:53.000
File last modification date (local)      : 2021-10-10 21:03:53.000

Video
Count                                    : 378
Count of stream of this kind             : 1
Kind of stream                           : Video
Kind of stream                           : Video
Stream identifier                        : 0
StreamOrder                              : 0
ID                                       : 1
ID                                       : 1
Format                                   : AVC
Format                                   : AVC
Format/Info                              : Advanced Video Codec
Format/Url                               : http://developers.videolan.org/x264.html
Commercial name                          : AVC
Format profile                           : Baseline@L3
Format settings                          : 2 Ref Frames
Format settings, CABAC                   : No
Format settings, CABAC                   : No
Format settings, Reference frames        : 2
Format settings, Reference frames        : 2 frames
Internet media type                      : video/H264
Codec ID                                 : avc1
Codec ID/Info                            : Advanced Video Coding
Duration                                 : 2727325
Duration                                 : 45 min 27 s
Duration                                 : 45 min 27 s 325 ms
Duration                                 : 45 min 27 s
Duration                                 : 00:45:27.325
Duration                                 : 00:45:27;10
Duration                                 : 00:45:27.325 (00:45:27;10)
Bit rate                                 : 1000000
Bit rate                                 : 1 000 kb/s
Width                                    : 720
Width                                    : 720 pixels
Height                                   : 400
Height                                   : 400 pixels
Sampled_Width                            : 720
Sampled_Height                           : 400
Pixel aspect ratio                       : 0.988
Display aspect ratio                     : 1.778
Display aspect ratio                     : 16:9
Rotation                                 : 0.000
Frame rate mode                          : CFR
Frame rate mode                          : Constant
Frame rate                               : 29.970
Frame rate                               : 29.970 (30000/1001) FPS
FrameRate_Num                            : 30000
FrameRate_Den                            : 1001
Frame count                              : 81738
Standard                                 : NTSC
Color space                              : YUV
Chroma subsampling                       : 4:2:0
Chroma subsampling                       : 4:2:0
Bit depth                                : 8
Bit depth                                : 8 bits
Scan type                                : Progressive
Scan type                                : Progressive
Bits/(Pixel*Frame)                       : 0.116
Stream size                              : 340179182
Stream size                              : 324 MiB (89%)
Stream size                              : 324 MiB
Stream size                              : 324 MiB
Stream size                              : 324 MiB
Stream size                              : 324.4 MiB
Stream size                              : 324 MiB (89%)
Proportion of this stream                : 0.88635
Language                                 : en
Language                                 : English
Language                                 : English
Language                                 : en
Language                                 : eng
Language                                 : en
Encoded date                             : UTC 2021-10-07 14:16:39
Tagged date                              : UTC 2021-10-07 14:16:39
Color range                              : Limited
colour_range_Source                      : Stream
Codec configuration box                  : avcC

Audio
Count                                    : 280
Count of stream of this kind             : 1
Kind of stream                           : Audio
Kind of stream                           : Audio
Stream identifier                        : 0
StreamOrder                              : 1
ID                                       : 2
ID                                       : 2
Format                                   : AAC
Format                                   : AAC LC
Format/Info                              : Advanced Audio Codec Low Complexity
Commercial name                          : AAC
Format_AdditionalFeatures                : LC
Codec ID                                 : mp4a-40-2
Duration                                 : 2727325
Duration                                 : 45 min 27 s
Duration                                 : 45 min 27 s 325 ms
Duration                                 : 45 min 27 s
Duration                                 : 00:45:27.325
Duration                                 : 00:45:20:03
Duration                                 : 00:45:27.325 (00:45:20:03)
Source duration                          : 2727339
Source duration                          : 45 min 27 s
Source duration                          : 45 min 27 s 339 ms
Source duration                          : 45 min 27 s
Source duration                          : 00:45:27.339
Bit rate mode                            : CBR
Bit rate mode                            : Constant
Bit rate                                 : 128000
Bit rate                                 : 128 kb/s
Channel(s)                               : 2
Channel(s)                               : 2 channels
Channel positions                        : Front: L R
Channel positions                        : 2/0/0
Channel layout                           : L R
Samples per frame                        : 1024
Sampling rate                            : 48000
Sampling rate                            : 48.0 kHz
Samples count                            : 130911600
Frame rate                               : 46.875
Frame rate                               : 46.875 FPS (1024 SPF)
Frame count                              : 127843
Source frame count                       : 127844
Compression mode                         : Lossy
Compression mode                         : Lossy
Stream size                              : 42742177
Stream size                              : 40.8 MiB (11%)
Stream size                              : 41 MiB
Stream size                              : 41 MiB
Stream size                              : 40.8 MiB
Stream size                              : 40.76 MiB
Stream size                              : 40.8 MiB (11%)
Proportion of this stream                : 0.11137
Source stream size                       : 42742511
Source stream size                       : 40.8 MiB (11%)
Source stream size                       : 41 MiB
Source stream size                       : 41 MiB
Source stream size                       : 40.8 MiB
Source stream size                       : 40.76 MiB
Source stream size                       : 40.8 MiB (11%)
Source_StreamSize_Proportion             : 0.11137
Language                                 : en
Language                                 : English
Language                                 : English
Language                                 : en
Language                                 : eng
Language                                 : en
Encoded date                             : UTC 2021-10-07 14:16:39
Tagged date                              : UTC 2021-10-07 14:16:39

 

똑같은 프리셋을 써야하네요. 그리고 yuv420p(tv)로 한다네요.

 

문서 아카이브만 하다가 영상 아카이브는 처음이어서 도움이 필요하네요.

두 개 프리셋만 설정해주시면 크기만 변환할 수 있을 것 같네요.

일정이 촉박해서 급히 요청합니다!

Facebook Twitter Pinterest Kakao

List of Articles
No. Category Subject Author Date Views Votes
Notice 샤나인코더 통합 검색 기능 개선(샤나인코더 우측 상단에 있는 검색창을 사용해 보세요.) Rina 2021.09.30 741 0
Notice 자유게시판에서는 자유롭게 글을 작성할 수 있지만 다음과 같은 내용은 삭제돼요 Rina 2020.03.18 3972 3
Notice 일반 [필독] 질문 전에 반드시 읽으세요!!! 2 file JKyle 2019.09.16 11396 6
Notice 일반 [알림] 질문 먹튀하지 마시기 바랍니다 => 본문 변경 금지 16 JKyle 2018.10.12 11832 13
2649 질문 영상 초반 8초까지만 화질이 깨집니다 newfile rre4543ee 2021.10.19 54 0
2648 질문 살려주세요.. mp4 파일인데 영상재생이 안 돼요ㅠㅠ newfile 지연 2021.10.19 32 0
2647 질문 HEVC로 재 인코딩하여 영상을 저장하는데 용량이 더 커지는 이유가 궁금합니다 file TOME 2021.10.18 120 0
2646 질문 vob 파일 인코딩이 안됩니다 file cookieleeuns 2021.10.17 146 0
2645 질문 인코딩 후 어떤것은 재생이 되고 어떤것은 재생이 안되는 이유를 아실까요? ㅠ.ㅠ 류강열 2021.10.16 208 0
2644 질문 퀀타이저 보다 퀄리티를 추천하시는 이유가 있나요? tana. 2021.10.16 219 0
2643 질문 오디오 넣기 + 비디오 배속 한번에 할 수 있나요? avbaer01 2021.10.15 142 0
2642 질문 mp4파일에서 자막을 추출할수있나요. 나가 2021.10.14 212 0
2641 질문 원본 자동 삭제 1 트레비앙 2021.10.13 284 0
2640 질문 1080i H264 -> 1080i MPEG2 인코딩이 가능한가요? Antexon 2021.10.12 243 0
2639 질문 자막 색상 지정하기 1 산골소년 2021.10.12 176 0
» 질문 빠른답변 부탁합니다! 급합니다! 영상 변환에 문제가 있네요. Boney 2021.10.12 374 0
2637 질문 인코딩 오류 원인이 무엇일까요? TOME 2021.10.11 247 0
2636 질문 Crop 하고 Resize 할때 버그 P군 2021.10.10 197 0
2635 질문 HEVC 인코딩의 P7, SLOW 프리셋 차이가 궁금합니다 2 TOME 2021.10.09 265 0
2634 질문 삼성TV 인코딩 어떻게 해야 할까요 ㅠㅠㅠ 1 file didznl 2021.10.08 302 0
2633 질문 인코딩 후 영상 사라짐 1 오월 2021.10.07 332 0
2632 질문 인코딩 오류 로그좀 봐주세요... 프리셀 2021.10.05 716 0
2631 질문 [질문]h.264 프로파일과 레벨, 영상사이즈의 관계 jsjo 2021.10.05 292 0
2630 질문 홀짝 프레임만 추출하는 방법 ? 엘비라 2021.10.04 268 0
Board Pagination Prev 1 2 3 4 5 6 7 8 9 10 ... 133 Next
/ 133