Skip to menu

본문시작



질문하기 전에 검색하세요(Search before asking a question)


Views 463 Votes 0 Comment 3
?

Shortcut

PrevPrev Article

NextNext Article

Larger Font Smaller Font Up Down Go comment Print
?

Shortcut

PrevPrev Article

NextNext Article

Larger Font Smaller Font Up Down Go comment Print


Format                                   : Matroska
Format version                           : Version 4
File size                                : 47.9 GiB
Duration                                 : 1 h 27 min
Overall bit rate mode                    : Variable
Overall bit rate                         : 78.2 Mb/s
Encoded date                             : UTC 2019-10-01 19:18:53
Writing application                      : mkvmerge v37.0.0 ('Leave It') 64-bit
Writing library                          : libebml v1.3.9 + libmatroska v1.5.2
Cover                                    : Yes
Attachments                              : small_cover.jpg / small_cover_land.jpg / cover.jpg / cover_land.jpg

Video
ID                                       : 1
Format                                   : HEVC
Format/Info                              : High Efficiency Video Coding
Format profile                           : Main 10@L5.1@High
HDR format                               : SMPTE ST 2086, HDR10 compatible
Codec ID                                 : V_MPEGH/ISO/HEVC
Duration                                 : 1 h 27 min
Bit rate                                 : 53.6 Mb/s
Width                                    : 3 840 pixels
Height                                   : 2 160 pixels
Display aspect ratio                     : 16:9
Frame rate mode                          : Constant
Frame rate                               : 23.976 (24000/1001) FPS
Color space                              : YUV
Chroma subsampling                       : 4:2:0 (Type 2)
Bit depth                                : 10 bits
Bits/(Pixel*Frame)                       : 0.269
Stream size                              : 32.8 GiB (69%)
Title                                    : 2160p.BluRay.REMUX.HEVC.DTS-HD.MA.TrueHD.7.1.Atmos-FGT
Language                                 : English
Default                                  : No
Forced                                   : No
Color range                              : Limited
Color primaries                          : BT.2020
Transfer characteristics                 : PQ
Matrix coefficients                      : BT.2020 non-constant
Mastering display color primaries        : Display P3
Mastering display luminance              : min: 0.0050 cd/m2, max: 4000 cd/m2
Maximum Content Light Level              : 10000 cd/m2
Maximum Frame-Average Light Level        : 1166 cd/m2

Audio #1
ID                                       : 2
Format                                   : MLP FBA 16-ch
Format/Info                              : Meridian Lossless Packing FBA with 16-channel presentation
Commercial name                          : Dolby TrueHD with Dolby Atmos
Codec ID                                 : A_TRUEHD
Duration                                 : 1 h 27 min
Bit rate mode                            : Variable
Bit rate                                 : 3 096 kb/s
Maximum bit rate                         : 4 956 kb/s
Channel(s)                               : 8 channels
Channel layout                           : L R C LFE Ls Rs Lb Rb
Sampling rate                            : 48.0 kHz
Frame rate                               : 1 200.000 FPS (40 SPF)
Compression mode                         : Lossless
Stream size                              : 1.90 GiB (4%)
Language                                 : English
Default                                  : Yes
Forced                                   : No
Number of dynamic objects                : 11
Bed channel count                        : 1 channel
Bed channel configuration                : LFE

영화를 코덱을 바꾸려고 하는데 그냥 바꾸기에는 컴퓨터가 버티질 못할 것 같아서 스트림복사 하려고 합니다. 근데 전에는 저용량 영상은 잘만 됐었는데 이번 4k영화를 인코딩 하려하는데 mkv에서 mp4로 바꾸려고 하면 그냥 0k짜리 파일만 나오고 아무 반응이 없습니다. 어떡하죠 ...

Facebook Twitter Pinterest Kakao
  • ?
    sz 2021.09.05 10:47

    mp4复制truehd或flac需按f8在编码设置空白处按空格键加入 -strict -2

  • ?
    합풀 2021.09.05 21:15

    일단 저는 별로 지식이 없는 편이라는 것부터 알려드리구요

    코덱이 있고 컨테이너가 있는데요 컨테이너가 보통 우리가 생각하는 확장자로 알고있습니다

    그러니까 전에 저용량 파일들은 mkv와 mp4 모두에 담길수있는 코덱이었던거고

    이번 코덱은 mkv는 가능하고 mp4는 불가능해서 생기는 문제 인거같습니다

    근데 코덱은 그냥 보통 hevc네요 그럼 사운드쪽이거나 뭐 여튼 그런거일거같습니다

    여튼 mp4로는 포장이 불가능한 내용물이라고 해야될까요 그럴거 같습니다

  • ?
    삽자루 2021.09.17 19:06

    윗 질문과 동일하네요. 오디오 비트 레이트 비교해 보세요. 아마 다를 겁니다.

    똑같이 맞춘 뒤 렌더링 후 다시 합치기 해보세요. 근데 이렇게 할 바에는 곰믹스에서 합치기 하는 게 더 빠를 겁니다 


List of Articles
No. Category Subject Author Date Views Votes
Notice 자유게시판에서는 자유롭게 글을 작성할 수 있지만 다음과 같은 내용은 삭제돼요 Rina 2020.03.18 3686 3
Notice 일반 [필독] 질문 전에 반드시 읽으세요!!! 2 file JKyle 2019.09.16 10909 6
Notice 일반 [알림] 질문 먹튀하지 마시기 바랍니다 => 본문 변경 금지 16 JKyle 2018.10.12 11483 13
2625 일반 5.0 버전 설치 파일이나 포터블 가지고 계신 분 계신가요...? 3 우리스 2021.09.26 95 0
2624 질문 아이돌 음방영상 깍뚜기 영상 없에는 방법좀... 승쓰 2021.09.26 76 0
2623 질문 hevc로 인코딩을 하는편인데 화질 디테일이 설정한 매계변수보다 떨어지는거 같은데 이유를 모르겠습니다. 2 file 완자 2021.09.24 268 0
2622 질문 구형 AMD CPU에서 HEVC 인코딩의 효율성 문제 3 EON 2021.09.22 318 0
2621 질문 해외 교민인데 동영상 재생 관련하여 급한 질문이 있습니다. 꼭 좀 봐주세요 2 유니버셜킴 2021.09.21 321 0
2620 질문 샤나인코더 스마트폰 프리셋 질문 규를먹고싶음 2021.09.20 220 0
2619 질문 hevc 8bit, 10bit 인코딩 문의 1 talecue 2021.09.13 584 0
2618 질문 검색해도 없어서 질문합니다. 2 lilililililililil 2021.09.09 805 0
2617 질문 truehd atmos 를 eac3 atmos 로 변환 하는 방법이 있을까요 1 구름둥둥 2021.09.08 515 0
2616 질문 업스케일링 하는 방법 좀 알려주세요... 1 FXXKLUXY 2021.09.08 668 0
2615 질문 mp4 다운했는데 동영상 정보도 볼수 없을때는 어떻게 해야될까요 2 센스짱 2021.09.07 526 0
2614 질문 스트림 복사로 합치기 할 경우 ... 제대로 안되네요 1 무법자2 2021.09.07 513 0
» 질문 샤나인코더 mp4로 스트림 복사 오류 질문드립니다! 3 퓽차 2021.09.05 463 0
2612 질문 av1 8k 파일을 vp9 파일로 인코딩할때 적정 비트레이트가 얼마인가용? 형구 2021.09.03 310 0
2611 질문 영상속도를 아주 미세하게 조정해서 인코딩 할수있는 방법이 있을까요? 합풀 2021.09.03 244 0
2610 질문 VP9로 인코딩하고 싶은데 어떻게 해야되나요?? 1 ZeuS 2021.09.02 340 0
2609 질문 14GB 6분 영상 - 인코딩 최적화 2 talecue 2021.09.01 529 0
2608 질문 [이름│재생시간│자막│형식│프리셋│상태] 조절. 빛이 2021.09.01 342 0
2607 질문 인텔 퀵싱크 QSV 듀얼 디스플레이 1 뿜뿜 2021.08.31 225 0
2606 질문 샤나 최신 업데이트 후 NVENC 속도 반토막 납니다. 1 달표 2021.08.28 950 0
Board Pagination Prev 1 2 3 4 5 6 7 8 9 10 ... 132 Next
/ 132