Skip to menu

본문시작



질문하기 전에 검색하세요(Search before asking a question)


Views 387 Votes 0 Comment 0
?

Shortcut

PrevPrev Article

NextNext Article

Larger Font Smaller Font Up Down Go comment Print Attachment
?

Shortcut

PrevPrev Article

NextNext Article

Larger Font Smaller Font Up Down Go comment Print Attachment

제목 그대로 MP4파일을 TS파일로 변경하려 합니다.

기본 설정을 가지고 TS파일로 변경을 진행한 결과 TS파일을 재생할 프로그램에서 인식을 못하여 인코딩 설정 방법을 질문드리려고 합니다.

 

제가 설정한 정보는

매개변수.PNG

빠른설정.PNG

 

두가지로 진행하였고

 

원하는 출력물의 결과는 아래 사진과 동일합니다.

 

참고할TS정보.PNG

 

상세 파일 정보로는

General
ID                                       : 2081 (0x821)
Complete name                            : C:\ts\clear\TWICE_sketchbook.ts
Format                                   : MPEG-TS
File size                                : 1.74 GiB
Duration                                 : 13 min 42 s
Overall bit rate mode                    : Variable
Overall bit rate                         : 18.1 Mb/s

Video
ID                                       : 17 (0x11)
Menu ID                                  : 1 (0x1)
Format                                   : MPEG Video
Format version                           : Version 2
Format profile                           : Main@High
Format settings                          : CustomMatrix / BVOP
Format settings, BVOP                    : Yes
Format settings, Matrix                  : Custom
Format settings, GOP                     : M=3, N=15
Format settings, picture structure       : Frame
Codec ID                                 : 2
Duration                                 : 13 min 42 s
Bit rate mode                            : Constant
Bit rate                                 : 16.9 Mb/s
Maximum bit rate                         : 17.3 Mb/s
Width                                    : 1 920 pixels
Height                                   : 1 080 pixels
Display aspect ratio                     : 16:9
Frame rate                               : 29.970 (30000/1001) FPS
Standard                                 : Component
Color space                              : YUV
Chroma subsampling                       : 4:2:0
Bit depth                                : 8 bits
Scan type                                : Interlaced
Scan order                               : Top Field First
Compression mode                         : Lossy
Bits/(Pixel*Frame)                       : 0.271
Time code of first frame                 : 11:20:16;21
Time code source                         : Group of pictures header
GOP, Open/Closed                         : Open
Stream size                              : 1.61 GiB (93%)
Name                                     : ko:Video

Audio
ID                                       : 20 (0x14)
Menu ID                                  : 1 (0x1)
Format                                   : AC-3
Format/Info                              : Audio Coding 3
Commercial name                          : Dolby Digital
Codec ID                                 : 129
Duration                                 : 13 min 42 s
Bit rate mode                            : Constant
Bit rate                                 : 384 kb/s
Channel(s)                               : 6 channels
Channel layout                           : L R C LFE Ls Rs
Sampling rate                            : 48.0 kHz
Frame rate                               : 31.250 FPS (1536 SPF)
Compression mode                         : Lossy
Delay relative to video                  : -309 ms
Stream size                              : 37.7 MiB (2%)
Language                                 : Korean
Service kind                             : Complete Main
Name                                     : ko:Audio

Text
ID                                       : 17 (0x11)-1
Menu ID                                  : 1 (0x1)
Format                                   : EIA-708
Muxing mode                              : A/53 / DTVCC Transport
Muxing mode, more info                   : Muxed in Video #1
Duration                                 : 13 min 42 s
Bit rate mode                            : Constant
Stream size                              : 0.00 Byte (0%)
Language                                 : Korean

자세한 정보

General
Count                                    : 333
Count of stream of this kind             : 1
Kind of stream                           : General
Kind of stream                           : General
Stream identifier                        : 0
ID                                       : 2081
ID                                       : 2081 (0x821)
Count of video streams                   : 1
Count of audio streams                   : 1
Count of text streams                    : 1
Video_Format_List                        : MPEG Video
Video_Format_WithHint_List               : MPEG Video
Codecs Video                             : MPEG Video
Audio_Format_List                        : AC-3
Audio_Format_WithHint_List               : AC-3
Audio codecs                             : AC-3
Audio_Language_List                      : Korean
Text_Format_List                         : EIA-708
Text_Format_WithHint_List                : EIA-708
Text codecs                              : EIA-708
Text_Language_List                       : Korean
Complete name                            : C:\ts\clear\TWICE_sketchbook.ts
Folder name                              : C:\ts\clear
File name extension                      : TWICE_sketchbook.ts
File name                                : TWICE_sketchbook
File extension                           : ts
Format                                   : MPEG-TS
Format                                   : MPEG-TS
Format/Extensions usually used           : ts m2t m2s m4t m4s tmf ts tp trp ty
Commercial name                          : MPEG-TS
Internet media type                      : video/MP2T
File size                                : 1865511968
File size                                : 1.74 GiB
File size                                : 2 GiB
File size                                : 1.7 GiB
File size                                : 1.74 GiB
File size                                : 1.737 GiB
Duration                                 : 822555.737481
Duration                                 : 13 min 42 s
Duration                                 : 13 min 42 s 556 ms
Duration                                 : 13 min 42 s
Duration                                 : 00:13:42.556
Duration                                 : 00:13:42;19
Duration                                 : 00:13:42.556 (00:13:42;19)
Overall bit rate mode                    : VBR
Overall bit rate mode                    : Variable
Overall bit rate                         : 18142910
Overall bit rate                         : 18.1 Mb/s
Frame rate                               : 29.970
Frame rate                               : 29.970 FPS
Frame count                              : 24655
Delay                                    : 11768382.350407
Delay                                    : 3 h 16 min
Delay                                    : 3 h 16 min 8 s 382 ms
Delay                                    : 3 h 16 min
Delay                                    : 03:16:08.382
Stream size                              : 92423460
Stream size                              : 88.1 MiB (5%)
Stream size                              : 88 MiB
Stream size                              : 88 MiB
Stream size                              : 88.1 MiB
Stream size                              : 88.14 MiB
Stream size                              : 88.1 MiB (5%)
Proportion of this stream                : 0.04954
File creation date                       : UTC 2019-09-05 04:40:19.555
File creation date (local)               : 2019-09-05 13:40:19.555
File last modification date              : UTC 2017-11-14 07:49:58.000
File last modification date (local)      : 2017-11-14 16:49:58.000
OverallBitRate_Precision_Min             : 18142898
OverallBitRate_Precision_Max             : 18142921

Video
Count                                    : 379
Count of stream of this kind             : 1
Kind of stream                           : Video
Kind of stream                           : Video
Stream identifier                        : 0
StreamOrder                              : 0-0
ID                                       : 17
ID                                       : 17 (0x11)
Menu ID                                  : 1
Menu ID                                  : 1 (0x1)
Format                                   : MPEG Video
Format                                   : MPEG Video
Commercial name                          : MPEG-2 Video
Format version                           : Version 2
Format profile                           : Main@High
Format settings                          : CustomMatrix / BVOP
Format settings, BVOP                    : Yes
Format settings, BVOP                    : Yes
Format settings, Matrix                  : Custom
Format settings, Matrix                  : Custom
Format_Settings_Matrix_Data              : 0810102210223434343434344C404C5252524C4C4C4C5252525E5E5E7C7C7C5E5E5E52525E5E70707C7C8E948E82827C829494A0A0A0D0D0C4C4FFFFFFFFFFFF / 1016161C1C1C2222222228282828282E2E2E2E2E2E343434343434343A3A3A3A3A3A3A3A40404046404040464C4C4C4C465252525252585858586464646A6A76
Format settings, GOP                     : M=3, N=15
Format settings, picture structure       : Frame
Internet media type                      : video/MPV
Codec ID                                 : 2
Duration                                 : 822655
Duration                                 : 13 min 42 s
Duration                                 : 13 min 42 s 655 ms
Duration                                 : 13 min 42 s
Duration                                 : 00:13:42.655
Duration                                 : 00:13:42;19
Duration                                 : 00:13:42.655 (00:13:42;19)
Bit rate mode                            : CBR
Bit rate mode                            : Constant
Bit rate                                 : 16858650
Bit rate                                 : 16.9 Mb/s
Maximum bit rate                         : 17300000
Maximum bit rate                         : 17.3 Mb/s
Width                                    : 1920
Width                                    : 1 920 pixels
Height                                   : 1080
Height                                   : 1 080 pixels
Sampled_Width                            : 1920
Sampled_Height                           : 1080
Pixel aspect ratio                       : 1.000
Display aspect ratio                     : 1.778
Display aspect ratio                     : 16:9
Frame rate                               : 29.970
Frame rate                               : 29.970 (30000/1001) FPS
FrameRate_Num                            : 30000
FrameRate_Den                            : 1001
Frame count                              : 24655
Standard                                 : Component
Color space                              : YUV
Chroma subsampling                       : 4:2:0
Chroma subsampling                       : 4:2:0
Bit depth                                : 8
Bit depth                                : 8 bits
Scan type                                : Interlaced
Scan type                                : Interlaced
Scan order                               : TFF
Scan order                               : Top Field First
Compression mode                         : Lossy
Compression mode                         : Lossy
Bits/(Pixel*Frame)                       : 0.271
Delay                                    : 11768774.200000
Delay                                    : 3 h 16 min
Delay                                    : 3 h 16 min 8 s 774 ms
Delay                                    : 3 h 16 min
Delay                                    : 03:16:08.774
Delay_DropFrame                          : Yes
Delay, origin                            : Container
Delay, origin                            : Container
Delay_Original                           : 40816701
Delay_Original                           : 11 h 20 min
Delay_Original                           : 11 h 20 min 16 s 701 ms
Delay_Original                           : 11 h 20 min
Delay_Original                           : 11:20:16.701
Delay_Original_Settings                  : drop_frame_flag=1 / closed_gop=0 / broken_link=0
Delay_Original_DropFrame                 : Yes
Delay_Original_Source                    : Stream
Time code of first frame                 : 11:20:16;21
Time code source                         : Group of pictures header
GOP, Open/Closed                         : Open
GOP, Open/Closed                         : Open
Stream size                              : 1733608700
Stream size                              : 1.61 GiB (93%)
Stream size                              : 2 GiB
Stream size                              : 1.6 GiB
Stream size                              : 1.61 GiB
Stream size                              : 1.615 GiB
Stream size                              : 1.61 GiB (93%)
Proportion of this stream                : 0.92929
Buffer size                              : 999424
intra_dc_precision                       : 9
Name                                     : ko:Video

Audio
Count                                    : 295
Count of stream of this kind             : 1
Kind of stream                           : Audio
Kind of stream                           : Audio
Stream identifier                        : 0
StreamOrder                              : 0-1
ID                                       : 20
ID                                       : 20 (0x14)
Menu ID                                  : 1
Menu ID                                  : 1 (0x1)
Format                                   : AC-3
Format                                   : AC-3
Format/Info                              : Audio Coding 3
Format/Url                               : https://en.wikipedia.org/wiki/AC3
Commercial name                          : Dolby Digital
Commercial name                          : Dolby Digital
Format settings, Endianness              : Big
Codec ID                                 : 129
Duration                                 : 822496
Duration                                 : 13 min 42 s
Duration                                 : 13 min 42 s 496 ms
Duration                                 : 13 min 42 s
Duration                                 : 00:13:42.496
Duration                                 : 00:13:49:04
Duration                                 : 00:13:42.496 (00:13:49:04)
Bit rate mode                            : CBR
Bit rate mode                            : Constant
Bit rate                                 : 384000
Bit rate                                 : 384 kb/s
Channel(s)                               : 6
Channel(s)                               : 6 channels
Channel positions                        : Front: L C R, Side: L R, LFE
Channel positions                        : 3/2/0.1
Channel layout                           : L R C LFE Ls Rs
Samples per frame                        : 1536
Sampling rate                            : 48000
Sampling rate                            : 48.0 kHz
Samples count                            : 39479808
Frame rate                               : 31.250
Frame rate                               : 31.250 FPS (1536 SPF)
Frame count                              : 25703
Compression mode                         : Lossy
Compression mode                         : Lossy
Delay                                    : 11768464.588889
Delay                                    : 3 h 16 min
Delay                                    : 3 h 16 min 8 s 465 ms
Delay                                    : 3 h 16 min
Delay                                    : 03:16:08.465
Delay, origin                            : Container
Delay, origin                            : Container
Delay relative to video                  : -309
Delay relative to video                  : -309 ms
Delay relative to video                  : -309 ms
Delay relative to video                  : -309 ms
Delay relative to video                  : -00:00:00.309
Stream size                              : 39479808
Stream size                              : 37.7 MiB (2%)
Stream size                              : 38 MiB
Stream size                              : 38 MiB
Stream size                              : 37.7 MiB
Stream size                              : 37.65 MiB
Stream size                              : 37.7 MiB (2%)
Proportion of this stream                : 0.02116
Language                                 : ko
Language                                 : Korean
Language                                 : Korean
Language                                 : ko
Language                                 : kor
Language                                 : ko
Service kind                             : CM
Service kind                             : Complete Main
bsid                                     : 6
dialnorm                                 : -31
dialnorm                                 : -31 dB
compr                                    : -0.28
compr                                    : -0.28 dB
acmod                                    : 7
lfeon                                    : 1
dialnorm_Average                         : -31
dialnorm_Average                         : -31 dB
dialnorm_Minimum                         : -31
dialnorm_Minimum                         : -31 dB
dialnorm_Maximum                         : -31
dialnorm_Maximum                         : -31 dB
dialnorm_Count                           : 964
Name                                     : ko:Audio

Text
Count                                    : 240
Count of stream of this kind             : 1
Kind of stream                           : Text
Kind of stream                           : Text
Stream identifier                        : 0
StreamOrder                              : 0-0
ID                                       : 17-1
ID                                       : 17 (0x11)-1
Menu ID                                  : 1
Menu ID                                  : 1 (0x1)
Format                                   : EIA-708
Format                                   : EIA-708
Commercial name                          : EIA-708
Muxing mode                              : A/53 / DTVCC Transport
Muxing mode, more info                   : Muxed in Video #1
Duration                                 : 822655
Duration                                 : 13 min 42 s
Duration                                 : 13 min 42 s 655 ms
Duration                                 : 13 min 42 s
Duration                                 : 00:13:42.655
Duration                                 : 00:13:42.655
Bit rate mode                            : CBR
Bit rate mode                            : Constant
Delay                                    : 11768774.200000
Delay                                    : 3 h 16 min
Delay                                    : 3 h 16 min 8 s 774 ms
Delay                                    : 3 h 16 min
Delay                                    : 03:16:08.774
Delay, origin                            : Container
Delay, origin                            : Container
Delay relative to video                  : 0
Delay relative to video                  : 00:00:00.000
Stream size                              : 0
Stream size                              : 0.00 Byte (0%)
Stream size                              :  Byte0
Stream size                              : 0.0 Byte
Stream size                              : 0.00 Byte
Stream size                              : 0.000 Byte
Stream size                              : 0.00 Byte (0%)
Proportion of this stream                : 0.00000
Language                                 : ko
Language                                 : Korean
Language                                 : Korean
Language                                 : ko
Language                                 : kor
Language                                 : ko
CaptionServiceName                       : 1
CaptionServiceDescriptor_IsPresent       : Yes

MediaInfoLib - v19.09

 

 

입니다. 

 

조언 부탁드립니다.

 

 

Facebook Twitter Pinterest Kakao

List of Articles
No. Category Subject Author Date Views Votes
Notice 자유게시판에서는 자유롭게 글을 작성할 수 있지만 다음과 같은 내용은 삭제돼요 Rina 2020.03.18 3686 3
Notice 일반 [필독] 질문 전에 반드시 읽으세요!!! 2 file JKyle 2019.09.16 10909 6
Notice 일반 [알림] 질문 먹튀하지 마시기 바랍니다 => 본문 변경 금지 16 JKyle 2018.10.12 11483 13
» 질문 MP4 -> TS 파일 변환 관련 질문드립니다. file 도움이필요합니다 2021.08.27 387 0
2604 일반 티비에서 영화를 틀때 대사 소리 와 배경 소리가 너무 불균형 적입니다 2 file 아르센 2021.08.27 457 0
2603 질문 최신버전으로 업데이트후 NVENC 인코딩이 안됩니다 1 file edelweiss 2021.08.27 496 0
2602 질문 오디오를 앞당기고 싶은데 세리스에르네스 2021.08.26 256 0
2601 질문 인코딩된 영상을 배속 재생시 화면 끊김의 문제 JUk1 2021.08.26 221 0
2600 질문 gpu가 왜 일을 안할까요? 3 file 오미 2021.08.20 1039 0
2599 질문 dts-hd, trueHD, flac 를 PCM으로 2 Jungjhs888 2021.08.17 451 0
2598 질문 H264 인코딩 세팅을 똑같이 적용해볼려고 하는데요. 1 원할머니쌈 2021.08.16 682 0
2597 일반 자막이랑 영상이랑 같이 인코딩하는데 자막이 중복되는 부분이 있어요ㅠㅠ 1 file 도아자아 2021.08.16 692 0
2596 정보 [팁]4500u에서는 HEVC(AMF)가 가장 빠릅니다. 공사팀 2021.08.09 1055 0
2595 질문 이것저것 해보고 그래도 안되서 문의 드립니다. hevc(hev1) -> avc 인코딩 문의 입니다..ㅠㅠ 3 최후느 2021.08.09 832 0
2594 질문 파일 1개를 인코딩하면 그 파일이 반복해서 인코딩 되는 오류 해결 할 수 있나요? 낙천주의 2021.08.09 469 0
2593 질문 크기 설정을 적용해도 크기가 많이 커져요 2 vocal22 2021.08.08 579 0
2592 질문 TS파일 편집시 영상 안 뜸&음성 오류 발생하는데요... ㅂㄹㅂㄹ 2021.08.07 431 0
2591 질문 인코딩을 할때마다 갑자기 불시에 블루스크린이 뜨는데 이유가 뭘까요? 4 qazp1423 2021.08.04 831 0
2590 질문 레터박스 없애는 방법이 이거 맞나요? 2 닉넴 2021.08.03 513 0
2589 질문 영상 인코딩시 영상 프레임? 문제 질문 3 file DK 2021.08.02 449 0
2588 질문 HDR->SDR 변환시 최대한 무손실에 가깝게 변환하려고 합니다. jinwook222 2021.08.01 571 0
2587 질문 용량 줄이려는데 보급형 사양 같은거 있나요? 3 니래나 2021.08.01 827 0
2586 질문 DTS HD 에서 True HD 오디오 변환질문 3 커비킹 2021.07.31 414 0
Board Pagination Prev 1 2 3 4 5 6 7 8 9 10 ... 132 Next
/ 132