Skip to menu

본문시작



질문하기 전에 검색하세요(Search before asking a question)


Views 327 Votes 0 Comment 3
?

Shortcut

PrevPrev Article

NextNext Article

Larger Font Smaller Font Up Down Go comment Print
?

Shortcut

PrevPrev Article

NextNext Article

Larger Font Smaller Font Up Down Go comment Print

General
Complete name                            : C:\Download\[SHANA]1080P 흔적_cut.mp4
Format                                   : MPEG-4
Format profile                           : Base Media
Codec ID                                 : isom (isom/iso2/avc1/mp41)
File size                                : 936 MiB
Duration                                 : 25 min 45 s
Overall bit rate                         : 5 083 kb/s
Writing application                      : ShanaEncoder

Video
ID                                       : 1
Format                                   : AVC
Format/Info                              : Advanced Video Codec
Format profile                           : High@L4
Format settings                          : CABAC / 4 Ref Frames
Format settings, CABAC                   : Yes
Format settings, Reference frames        : 4 frames
Codec ID                                 : avc1
Codec ID/Info                            : Advanced Video Coding
Duration                                 : 25 min 45 s
Bit rate                                 : 4 950 kb/s
Width                                    : 1 920 pixels
Height                                   : 1 080 pixels
Display aspect ratio                     : 16:9
Frame rate mode                          : Variable
Frame rate                               : 24.000 FPS
Minimum frame rate                       : 12.000 FPS
Maximum frame rate                       : 24.000 FPS
Color space                              : YUV
Chroma subsampling                       : 4:2:0
Bit depth                                : 8 bits
Scan type                                : Progressive
Bits/(Pixel*Frame)                       : 0.099
Stream size                              : 912 MiB (97%)
Writing library                          : x264 core 161 r3015 4c2aafd
Encoding settings                        : cabac=1 / ref=3 / deblock=1:0:0 / analyse=0x3:0x113 / me=hex / subme=7 / psy=1 / psy_rd=1.00:0.00 / mixed_ref=1 / me_range=16 / chroma_me=1 / trellis=1 / 8x8dct=1 / cqm=0 / deadzone=21,11 / fast_pskip=1 / chroma_qp_offset=-2 / threads=12 / lookahead_threads=2 / sliced_threads=0 / nr=0 / decimate=1 / interlaced=0 / bluray_compat=0 / constrained_intra=0 / bframes=3 / b_pyramid=2 / b_adapt=1 / b_bias=0 / direct=1 / weightb=1 / open_gop=0 / weightp=2 / keyint=250 / keyint_min=24 / scenecut=40 / intra_refresh=0 / rc_lookahead=40 / rc=crf / mbtree=1 / crf=19.0 / qcomp=0.60 / qpmin=0 / qpmax=69 / qpstep=4 / ip_ratio=1.40 / aq=1:1.00
Codec configuration box                  : avcC

Audio
ID                                       : 2
Format                                   : AAC LC
Format/Info                              : Advanced Audio Codec Low Complexity
Codec ID                                 : mp4a-40-2
Duration                                 : 25 min 45 s
Bit rate mode                            : Constant
Bit rate                                 : 128 kb/s
Channel(s)                               : 2 channels
Channel layout                           : L R
Sampling rate                            : 44.1 kHz
Frame rate                               : 43.066 FPS (1024 SPF)
Compression mode                         : Lossy
Stream size                              : 23.6 MiB (3%)
Default                                  : Yes
Alternate group                          : 1

자세한 정보

General
Count                                    : 331
Count of stream of this kind             : 1
Kind of stream                           : General
Kind of stream                           : General
Stream identifier                        : 0
Count of video streams                   : 1
Count of audio streams                   : 1
Video_Format_List                        : AVC
Video_Format_WithHint_List               : AVC
Codecs Video                             : AVC
Audio_Format_List                        : AAC LC
Audio_Format_WithHint_List               : AAC LC
Audio codecs                             : AAC LC
Complete name                            : C:\Download\[SHANA]1080P 흔적_cut.mp4
Folder name                              : C:\Download
File name extension                      : [SHANA]1080P 흔적_cut.mp4
File name                                : [SHANA]1080P 흔적_cut
File extension                           : mp4
Format                                   : MPEG-4
Format                                   : MPEG-4
Format/Extensions usually used           : braw mov mp4 m4v m4a m4b m4p m4r 3ga 3gpa 3gpp 3gp 3gpp2 3g2 k3g jpm jpx mqv ismv isma ismt f4a f4b f4v
Commercial name                          : MPEG-4
Format profile                           : Base Media
Internet media type                      : video/mp4
Codec ID                                 : isom
Codec ID                                 : isom (isom/iso2/avc1/mp41)
Codec ID/Url                             : http://www.apple.com/quicktime/download/standalone.html
CodecID_Compatible                       : isom/iso2/avc1/mp41
File size                                : 981828602
File size                                : 936 MiB
File size                                : 936 MiB
File size                                : 936 MiB
File size                                : 936 MiB
File size                                : 936.3 MiB
Duration                                 : 1545192
Duration                                 : 25 min 45 s
Duration                                 : 25 min 45 s 192 ms
Duration                                 : 25 min 45 s
Duration                                 : 00:25:45.192
Duration                                 : 00:25:45:01
Duration                                 : 00:25:45.192 (00:25:45:01)
Overall bit rate                         : 5083270
Overall bit rate                         : 5 083 kb/s
Frame rate                               : 24.000
Frame rate                               : 24.000 FPS
Frame count                              : 37081
Stream size                              : 1139277
Stream size                              : 1.09 MiB (0%)
Stream size                              : 1 MiB
Stream size                              : 1.1 MiB
Stream size                              : 1.09 MiB
Stream size                              : 1.086 MiB
Stream size                              : 1.09 MiB (0%)
Proportion of this stream                : 0.00116
HeaderSize                               : 40
DataSize                                 : 980689333
FooterSize                               : 1139229
IsStreamable                             : No
File creation date                       : UTC 2021-07-19 04:12:17.992
File creation date (local)               : 2021-07-19 13:12:17.992
File last modification date              : UTC 2021-07-19 04:13:13.170
File last modification date (local)      : 2021-07-19 13:13:13.170
Writing application                      : ShanaEncoder
Writing application                      : ShanaEncoder

Video
Count                                    : 378
Count of stream of this kind             : 1
Kind of stream                           : Video
Kind of stream                           : Video
Stream identifier                        : 0
StreamOrder                              : 0
ID                                       : 1
ID                                       : 1
Format                                   : AVC
Format                                   : AVC
Format/Info                              : Advanced Video Codec
Format/Url                               : http://developers.videolan.org/x264.html
Commercial name                          : AVC
Format profile                           : High@L4
Format settings                          : CABAC / 4 Ref Frames
Format settings, CABAC                   : Yes
Format settings, CABAC                   : Yes
Format settings, Reference frames        : 4
Format settings, Reference frames        : 4 frames
Internet media type                      : video/H264
Codec ID                                 : avc1
Codec ID/Info                            : Advanced Video Coding
Duration                                 : 1545125
Duration                                 : 25 min 45 s
Duration                                 : 25 min 45 s 125 ms
Duration                                 : 25 min 45 s
Duration                                 : 00:25:45.125
Duration                                 : 00:25:45:01
Duration                                 : 00:25:45.125 (00:25:45:01)
Bit rate                                 : 4949852
Bit rate                                 : 4 950 kb/s
Width                                    : 1920
Width                                    : 1 920 pixels
Height                                   : 1080
Height                                   : 1 080 pixels
Stored_Height                            : 1088
Sampled_Width                            : 1920
Sampled_Height                           : 1080
Pixel aspect ratio                       : 1.000
Display aspect ratio                     : 1.778
Display aspect ratio                     : 16:9
Rotation                                 : 0.000
Frame rate mode                          : VFR
Frame rate mode                          : Variable
Frame rate                               : 24.000
Frame rate                               : 24.000 FPS
Minimum frame rate                       : 12.000
Minimum frame rate                       : 12.000 FPS
Maximum frame rate                       : 24.000
Maximum frame rate                       : 24.000 FPS
Frame count                              : 37081
Color space                              : YUV
Chroma subsampling                       : 4:2:0
Chroma subsampling                       : 4:2:0
Bit depth                                : 8
Bit depth                                : 8 bits
Scan type                                : Progressive
Scan type                                : Progressive
Bits/(Pixel*Frame)                       : 0.099
Stream size                              : 955965865
Stream size                              : 912 MiB (97%)
Stream size                              : 912 MiB
Stream size                              : 912 MiB
Stream size                              : 912 MiB
Stream size                              : 911.7 MiB
Stream size                              : 912 MiB (97%)
Proportion of this stream                : 0.97366
Writing library                          : x264 - core 161 r3015 4c2aafd
Writing library                          : x264 core 161 r3015 4c2aafd
Encoded_Library_Name                     : x264
Encoded_Library_Version                  : core 161 r3015 4c2aafd
Encoding settings                        : cabac=1 / ref=3 / deblock=1:0:0 / analyse=0x3:0x113 / me=hex / subme=7 / psy=1 / psy_rd=1.00:0.00 / mixed_ref=1 / me_range=16 / chroma_me=1 / trellis=1 / 8x8dct=1 / cqm=0 / deadzone=21,11 / fast_pskip=1 / chroma_qp_offset=-2 / threads=12 / lookahead_threads=2 / sliced_threads=0 / nr=0 / decimate=1 / interlaced=0 / bluray_compat=0 / constrained_intra=0 / bframes=3 / b_pyramid=2 / b_adapt=1 / b_bias=0 / direct=1 / weightb=1 / open_gop=0 / weightp=2 / keyint=250 / keyint_min=24 / scenecut=40 / intra_refresh=0 / rc_lookahead=40 / rc=crf / mbtree=1 / crf=19.0 / qcomp=0.60 / qpmin=0 / qpmax=69 / qpstep=4 / ip_ratio=1.40 / aq=1:1.00
Codec configuration box                  : avcC

Audio
Count                                    : 280
Count of stream of this kind             : 1
Kind of stream                           : Audio
Kind of stream                           : Audio
Stream identifier                        : 0
StreamOrder                              : 1
ID                                       : 2
ID                                       : 2
Format                                   : AAC
Format                                   : AAC LC
Format/Info                              : Advanced Audio Codec Low Complexity
Commercial name                          : AAC
Format_AdditionalFeatures                : LC
Codec ID                                 : mp4a-40-2
Duration                                 : 1545192
Duration                                 : 25 min 45 s
Duration                                 : 25 min 45 s 192 ms
Duration                                 : 25 min 45 s
Duration                                 : 00:25:45.192
Duration                                 : 00:25:47:25
Duration                                 : 00:25:45.192 (00:25:47:25)
Bit rate mode                            : CBR
Bit rate mode                            : Constant
Bit rate                                 : 128002
Bit rate                                 : 128 kb/s
Channel(s)                               : 2
Channel(s)                               : 2 channels
Channel positions                        : Front: L R
Channel positions                        : 2/0/0
Channel layout                           : L R
Samples per frame                        : 1024
Sampling rate                            : 44100
Sampling rate                            : 44.1 kHz
Samples count                            : 68142967
Frame rate                               : 43.066
Frame rate                               : 43.066 FPS (1024 SPF)
Frame count                              : 66546
Compression mode                         : Lossy
Compression mode                         : Lossy
Stream size                              : 24723460
Stream size                              : 23.6 MiB (3%)
Stream size                              : 24 MiB
Stream size                              : 24 MiB
Stream size                              : 23.6 MiB
Stream size                              : 23.58 MiB
Stream size                              : 23.6 MiB (3%)
Proportion of this stream                : 0.02518
Default                                  : Yes
Default                                  : Yes
Alternate group                          : 1
Alternate group                          : 1

MediaInfoLib - v19.09

 

 

 

 

-------------------------------------------------------------------------------------------------------------------------------------

 

어떻게 인코딩해야 버벅이거나 렉걸리는 걸 없앨수잇나요??

참고로 다른 영상은 괜찮아서 플레이어 문제는 아닌것같아요

 

원본이 없어져서 이걸로 해야되네요 ㅠㅠ

 

이걸로 안되는거면 말씀해주세요. 원본 구해볼려구요 

Facebook Twitter Pinterest Kakao
  • ?
    lilililililililil 2021.07.19 18:32

    인코딩 할떄 설정 잘못되거나 다른 이유로 발생한것같습니다

    원본 구해서 다시 작업하셔야할것같습니다

    그리고 작업다했다고 원본파일을 바로 삭제하지마시고 작업한 영상쪽 이상없는지 확인후 원본 파일 삭제하세요.

     

    작업한 파일으로 복구는 어려운것으로 판단됩니다.

  • ?
    김도깡 2021.07.19 20:47
    평소랑 똑같이 인코딩했는데 뭐가 문제엿을까요 ㅠㅠ
    어디가 잘못된건지 저걸로 알수있을까요?? 제가 아예 몰라서 이쪽은...

    우선 원본 찾는데 최대한 집중해야겟네요.
  • ?
    lilililililililil 2021.07.20 00:28
    제가 보니 원인파약불가한상태입니다.
    그리고 이상없이 작업되어도 오류표시안되는 경우가 있기때문에 문제 파약하는데 한계있습니다.

List of Articles
No. Category Subject Author Date Views Votes
Notice 자유게시판에서는 자유롭게 글을 작성할 수 있지만 다음과 같은 내용은 삭제돼요 Rina 2020.03.18 2759 2
Notice 일반 [필독] 질문 전에 반드시 읽으세요!!! 2 file JKyle 2019.09.16 9557 5
Notice 일반 [알림] 질문 먹튀하지 마시기 바랍니다 => 본문 변경 금지 16 JKyle 2018.10.12 10448 11
2585 일반 최근 오류가 자주 발생하네요 20 lilililililililil 2021.07.29 137 0
2584 일반 감사합니다. 그링 2021.07.29 66 0
2583 질문 프레임이 뻥튀기 되어 인코딩된거 같은데 정확한 프레임정보 알수있는 방법 있을까요? 2 DV 2021.07.28 131 0
2582 질문 음성싱크를 딜레이 줄 수 있나요? 1 사성빛 2021.07.27 93 0
2581 질문 인코딩한 영상의 자막 주석처리 오류에 대한 질문 1 file 사스콰치 2021.07.27 98 0
2580 질문 인코딩 후에 소리가 뒤로 밀리는 파일은 어떻게 인코딩을 해야 할까요? ㅠㅠ 2 최후느 2021.07.26 221 0
2579 질문 영상 합치기 질문 2 file cameralove 2021.07.22 300 0
2578 질문 동영상 자르기 및 합치기 질문 아리까리 2021.07.22 263 0
2577 질문 H264(NVENC) 질문 4 철벽이라고 2021.07.21 297 0
2576 질문 티스토리에 움짤 webp 업로드가 안되는데 이상한점이 있습니다 3 file 이승현 2021.07.20 238 0
2575 질문 인코딩중 멈춤 59% 2 file 클팡 2021.07.19 380 0
» 질문 인코딩한 영상 왜 버벅댈까요?? 렉걸리네요 3 김도깡 2021.07.19 327 0
2573 질문 인코딩하는 컴퓨터 사양에 따라 "속도 외 다른 부분"이 달라지지는 않겠죠? 2 ottoman 2021.07.18 270 0
2572 질문 기능 제안 혹은 방법을 하나 알고 싶습니다. 1 냥바 2021.07.16 171 0
2571 일반 몇 가지 제안 또는 희망(?) 사항 1 JKyle 2021.07.16 211 2
2570 질문 mxf파일 29.97fps -> 14.99fps 정보 확인 필요 합니다. 1 file 현쵸리 2021.07.15 204 0
2569 질문 자체자막 있는 동영상 구간설정시 2 김도깡 2021.07.15 112 0
2568 질문 4k로 인코딩시 비트레이트 설정 질문입니다 3 닉넴 2021.07.15 249 0
2567 질문 파일 병합시 음성이 사라지는 현상은 무엇 때문일까요 3 아동보호소 2021.07.14 170 0
2566 질문 그래픽 카드가 두 개인데 인코딩에 둘을 이용할수 있나요? 3 TOME 2021.07.13 304 0
Board Pagination Prev 1 2 3 4 5 6 7 8 9 10 ... 130 Next
/ 130