Skip to menu

본문시작



질문하기 전에 검색하세요(Search before asking a question)


Views 336 Votes 0 Comment 2
?

Shortcut

PrevPrev Article

NextNext Article

Larger Font Smaller Font Up Down Go comment Print
?

Shortcut

PrevPrev Article

NextNext Article

Larger Font Smaller Font Up Down Go comment Print

 

 소장용으로 강의를 윈도우 게임바로 녹화했는데요

노트북의 용량이 거의 다 차버려서 영상 용량을 줄이려고

 

파일 형식을 mp4

비디오 비트레이트 2000

 

이렇게 정말 간단하게 설정을 했는데 오류가 발생합니다.

구글에 용량 줄이기 검색하면 나오는 설정들을 따라해 보았는데 모두 오류로 실패 했습니다...

노트북에 남아있는 용량보다 더 크게 설정해서 그런가 하고 다시 해보았는데도 오류

혹시 몰라 샤나 사이트에 No such file or directory로 검색해보았는데 저와 같은 경우는 없는것 같습니다

 

 

인코딩 기록

 

[info] ShanaEncoder v5.2.1.2
[info] FFmpeg v2021.03.15.184
[info] Intel(R) HD Graphics 610

==================================================

 >> 작업 시작시간: 2021-05-27(목) 오후 5:43:31

 * 인코딩 시작: Zoom 회의 2021-04-29 13-39-38.mp4

C:\Users\이름\Videos\Captures\[SHANA]Zoom 회의 2021-04-29 13-39-38.mp4: No such file or directory

 * 인코딩 오류가 발생했습니다.

 >> 속도 0x 진행 시간 00:00:00

==================================================

 

매개변수

 

 -f mp4
 -c:v libx264 -profile:v baseline -level auto -preset veryfast -tune:v none -b:v 2000k -r 60
 -c:a libmp3lame -ac 2 -b:a 128k
 -sn -map_metadata -1 -map_chapters -1

 

 

원본 파일 정보도 같이 올립니다.

 

General
Complete name                            : C:\Users\이름\Videos\Captures\Zoom 회의 2021-04-29 13-39-38.mp4
Format                                   : MPEG-4
Format profile                           : Base Media / Version 2
Codec ID                                 : mp42 (mp41/isom)
File size                                : 11.5 GiB
Duration                                 : 2 h 36 min
Overall bit rate mode                    : Constant
Overall bit rate                         : 10.5 Mb/s
Movie name                               : Zoom 회의
Performer                                : Microsoft Game DVR
Encoded date                             : UTC 2021-04-29 07:16:34
Tagged date                              : UTC 2021-04-29 07:16:34
Xtra                                     : {0CEF7D53-FA64-11D1-A203-0000F81FEDEE} 4

Video
ID                                       : 1
Format                                   : AVC
Format/Info                              : Advanced Video Codec
Format profile                           : Main@L4.1
Format settings                          : CABAC / 1 Ref Frames
Format settings, CABAC                   : Yes
Format settings, Reference frames        : 1 frame
Codec ID                                 : avc1
Codec ID/Info                            : Advanced Video Coding
Duration                                 : 2 h 36 min
Source duration                          : 2 h 36 min
Bit rate mode                            : Constant
Bit rate                                 : 10.4 Mb/s
Width                                    : 1 920 pixels
Height                                   : 1 080 pixels
Display aspect ratio                     : 16:9
Frame rate mode                          : Variable
Frame rate                               : 30.000 FPS
Minimum frame rate                       : 12.014 FPS
Maximum frame rate                       : 61.224 FPS
Original frame rate                      : 29.970 (30000/1001) FPS
Color space                              : YUV
Chroma subsampling                       : 4:2:0
Bit depth                                : 8 bits
Scan type                                : Progressive
Bits/(Pixel*Frame)                       : 0.167
Stream size                              : 11.4 GiB (99%)
Source stream size                       : 11.4 GiB (99%)
Encoded date                             : UTC 2021-04-29 07:16:34
Tagged date                              : UTC 2021-04-29 07:16:34
mdhd_Duration                            : 9415902
Codec configuration box                  : avcC

Audio
ID                                       : 2
Format                                   : AAC LC
Format/Info                              : Advanced Audio Codec Low Complexity
Codec ID                                 : mp4a-40-2
Duration                                 : 2 h 36 min
Bit rate mode                            : Constant
Bit rate                                 : 115 kb/s
Nominal bit rate                         : 128 kb/s
Channel(s)                               : 2 channels
Channel layout                           : L R
Sampling rate                            : 48.0 kHz
Frame rate                               : 46.875 FPS (1024 SPF)
Compression mode                         : Lossy
Stream size                              : 129 MiB (1%)
Encoded date                             : UTC 2021-04-29 07:16:34
Tagged date                              : UTC 2021-04-29 07:16:34
mdhd_Duration                            : 9415894

자세한 정보

General
Count                                    : 332
Count of stream of this kind             : 1
Kind of stream                           : General
Kind of stream                           : General
Stream identifier                        : 0
Count of video streams                   : 1
Count of audio streams                   : 1
Video_Format_List                        : AVC
Video_Format_WithHint_List               : AVC
Codecs Video                             : AVC
Audio_Format_List                        : AAC LC
Audio_Format_WithHint_List               : AAC LC
Audio codecs                             : AAC LC
Complete name                            : C:\Users\이름\Videos\Captures\Zoom 회의 2021-04-29 13-39-38.mp4
Folder name                              : C:\Users\이름\Videos\Captures
File name extension                      : Zoom 회의 2021-04-29 13-39-38.mp4
File name                                : Zoom 회의 2021-04-29 13-39-38
File extension                           : mp4
Format                                   : MPEG-4
Format                                   : MPEG-4
Format/Extensions usually used           : braw mov mp4 m4v m4a m4b m4p m4r 3ga 3gpa 3gpp 3gp 3gpp2 3g2 k3g jpm jpx mqv ismv isma ismt f4a f4b f4v
Commercial name                          : MPEG-4
Format profile                           : Base Media / Version 2
Internet media type                      : video/mp4
Codec ID                                 : mp42
Codec ID                                 : mp42 (mp41/isom)
Codec ID/Url                             : http://www.apple.com/quicktime/download/standalone.html
CodecID_Compatible                       : mp41/isom
File size                                : 12359949386
File size                                : 11.5 GiB
File size                                : 12 GiB
File size                                : 12 GiB
File size                                : 11.5 GiB
File size                                : 11.51 GiB
Duration                                 : 9415902
Duration                                 : 2 h 36 min
Duration                                 : 2 h 36 min 55 s 902 ms
Duration                                 : 2 h 36 min
Duration                                 : 02:36:55.902
Duration                                 : 02:36:59:00
Duration                                 : 02:36:55.902 (02:36:59:00)
Overall bit rate mode                    : CBR
Overall bit rate mode                    : Constant
Overall bit rate                         : 10501341
Overall bit rate                         : 10.5 Mb/s
Frame rate                               : 30.000
Frame rate                               : 30.000 FPS
Frame count                              : 282570
Stream size                              : 8474824
Stream size                              : 8.08 MiB (0%)
Stream size                              : 8 MiB
Stream size                              : 8.1 MiB
Stream size                              : 8.08 MiB
Stream size                              : 8.082 MiB
Stream size                              : 8.08 MiB (0%)
Proportion of this stream                : 0.00069
HeaderSize                               : 64
DataSize                                 : 12351474578
FooterSize                               : 8474744
IsStreamable                             : No
Title                                    : Zoom 회의
Movie name                               : Zoom 회의
Performer                                : Microsoft Game DVR
Encoded date                             : UTC 2021-04-29 07:16:34
Tagged date                              : UTC 2021-04-29 07:16:34
File creation date                       : UTC 2021-04-29 04:39:38.329
File creation date (local)               : 2021-04-29 13:39:38.329
File last modification date              : UTC 2021-04-29 07:16:35.515
File last modification date (local)      : 2021-04-29 16:16:35.515
Xtra                                     : {0CEF7D53-FA64-11D1-A203-0000F81FEDEE} 4

Video
Count                                    : 379
Count of stream of this kind             : 1
Kind of stream                           : Video
Kind of stream                           : Video
Stream identifier                        : 0
StreamOrder                              : 0
ID                                       : 1
ID                                       : 1
Format                                   : AVC
Format                                   : AVC
Format/Info                              : Advanced Video Codec
Format/Url                               : http://developers.videolan.org/x264.html
Commercial name                          : AVC
Format profile                           : Main@L4.1
Format settings                          : CABAC / 1 Ref Frames
Format settings, CABAC                   : Yes
Format settings, CABAC                   : Yes
Format settings, Reference frames        : 1
Format settings, Reference frames        : 1 frame
Internet media type                      : video/H264
Codec ID                                 : avc1
Codec ID/Info                            : Advanced Video Coding
Duration                                 : 9415902
Duration                                 : 2 h 36 min
Duration                                 : 2 h 36 min 55 s 902 ms
Duration                                 : 2 h 36 min
Duration                                 : 02:36:55.902
Duration                                 : 02:36:59:00
Duration                                 : 02:36:55.902 (02:36:59:00)
Source duration                          : 9415895
Source duration                          : 2 h 36 min
Source duration                          : 2 h 36 min 55 s 895 ms
Source duration                          : 2 h 36 min
Source duration                          : 02:36:55.895
Bit rate mode                            : CBR
Bit rate mode                            : Constant
Bit rate                                 : 10368000
Bit rate                                 : 10.4 Mb/s
Width                                    : 1920
Width                                    : 1 920 pixels
Height                                   : 1080
Height                                   : 1 080 pixels
Stored_Height                            : 1088
Sampled_Width                            : 1920
Sampled_Height                           : 1080
Pixel aspect ratio                       : 1.000
Display aspect ratio                     : 1.778
Display aspect ratio                     : 16:9
Rotation                                 : 0.000
Frame rate mode                          : VFR
Frame rate mode                          : Variable
Frame rate                               : 30.000
Frame rate                               : 30.000 FPS
Minimum frame rate                       : 12.014
Minimum frame rate                       : 12.014 FPS
Maximum frame rate                       : 61.224
Maximum frame rate                       : 61.224 FPS
Original frame rate                      : 29.970
Original frame rate                      : 29.970 (30000/1001) FPS
FrameRate_Original_Num                   : 30000
FrameRate_Original_Den                   : 1001
Frame count                              : 282570
Source frame count                       : 282570
Color space                              : YUV
Chroma subsampling                       : 4:2:0
Chroma subsampling                       : 4:2:0
Bit depth                                : 8
Bit depth                                : 8 bits
Scan type                                : Progressive
Scan type                                : Progressive
Bits/(Pixel*Frame)                       : 0.167
Stream size                              : 12215878757
Stream size                              : 11.4 GiB (99%)
Stream size                              : 11 GiB
Stream size                              : 11 GiB
Stream size                              : 11.4 GiB
Stream size                              : 11.38 GiB
Stream size                              : 11.4 GiB (99%)
Proportion of this stream                : 0.98834
Source stream size                       : 12215878757
Source stream size                       : 11.4 GiB (99%)
Source stream size                       : 11 GiB
Source stream size                       : 11 GiB
Source stream size                       : 11.4 GiB
Source stream size                       : 11.38 GiB
Source stream size                       : 11.4 GiB (99%)
Source_StreamSize_Proportion             : 0.98834
Encoded date                             : UTC 2021-04-29 07:16:34
Tagged date                              : UTC 2021-04-29 07:16:34
Buffer size                              : 20736000
mdhd_Duration                            : 9415902
Codec configuration box                  : avcC

Audio
Count                                    : 281
Count of stream of this kind             : 1
Kind of stream                           : Audio
Kind of stream                           : Audio
Stream identifier                        : 0
StreamOrder                              : 1
ID                                       : 2
ID                                       : 2
Format                                   : AAC
Format                                   : AAC LC
Format/Info                              : Advanced Audio Codec Low Complexity
Commercial name                          : AAC
Format_AdditionalFeatures                : LC
Codec ID                                 : mp4a-40-2
Duration                                 : 9415893
Duration                                 : 2 h 36 min
Duration                                 : 2 h 36 min 55 s 893 ms
Duration                                 : 2 h 36 min
Duration                                 : 02:36:55.893
Duration                                 : 02:36:30:40
Duration                                 : 02:36:55.893 (02:36:30:40)
Bit rate mode                            : CBR
Bit rate mode                            : Constant
Bit rate                                 : 115206
Bit rate                                 : 115 kb/s
Nominal bit rate                         : 128000
Nominal bit rate                         : 128 kb/s
Channel(s)                               : 2
Channel(s)                               : 2 channels
Channel positions                        : Front: L R
Channel positions                        : 2/0/0
Channel layout                           : L R
Samples per frame                        : 1024
Sampling rate                            : 48000
Sampling rate                            : 48.0 kHz
Samples count                            : 451962864
Frame rate                               : 46.875
Frame rate                               : 46.875 FPS (1024 SPF)
Frame count                              : 441370
Compression mode                         : Lossy
Compression mode                         : Lossy
Stream size                              : 135595805
Stream size                              : 129 MiB (1%)
Stream size                              : 129 MiB
Stream size                              : 129 MiB
Stream size                              : 129 MiB
Stream size                              : 129.3 MiB
Stream size                              : 129 MiB (1%)
Proportion of this stream                : 0.01097
Encoded date                             : UTC 2021-04-29 07:16:34
Tagged date                              : UTC 2021-04-29 07:16:34
mdhd_Duration                            : 9415894

MediaInfoLib - v19.09

Facebook Twitter Pinterest Kakao
  • ?
    Rina 2021.05.27 18:11

    lrn@leerina.net 메일 주소로 다음을 통해 대용량으로 첨부해서 보내주시면 확인해볼게요.

    권한 문제일 가능성도 있으니 파일을 다른 곳에 옮겨서 인코딩해보세요.

  • ?
    sshen 2021.05.27 18:27
    파일을 바탕 화면으로 이동하니 인코딩이 되네요! 정말 감사합니다^^

List of Articles
No. Category Subject Author Date Views Votes
Notice TLS 1.0, TLS 1.1 버전 지원 중단에 따른 샤나인코더 구버전 및 윈도 7 사용자 안내 Rina 2021.06.07 511 1
Notice 자유게시판에서는 자유롭게 글을 작성할 수 있지만 다음과 같은 내용은 삭제돼요 Rina 2020.03.18 2216 2
Notice 일반 [필독] 질문 전에 반드시 읽으세요!!! 2 file JKyle 2019.09.16 8756 5
Notice 일반 [알림] 질문 먹튀하지 마시기 바랍니다 => 본문 변경 금지 16 JKyle 2018.10.12 9674 11
2531 질문 인코딩시 '상태'에 오류 라고 뜨면서 안됩니다. 1 무메이 2021.06.01 319 0
2530 질문 WebP 변환 시 Frame Disposal 끄는 법이 있나요? 3 카소 2021.05.31 180 0
2529 질문 샤나인코더 설치파일이 실행이 안되요 3 cherry 2021.05.29 373 0
2528 질문 *.avi,*.mkv,를 *.mpq 영상 변환할려면 어찌 해야 하나여 1 .GARPERMAN 2021.05.29 232 0
2527 일반 레터박스 제거 1 sky21ahn 2021.05.27 292 0
2526 질문 vr영상을 일반영상으로 변환시킬 수 있나요? 1 안녕하세요오 2021.05.27 286 0
» 질문 용량 줄이기를 위한 인코딩을 했을 때 오류 발생 2 sshen 2021.05.27 336 0
2524 질문 구간자르기시 시작시간 키프레임만 맞추면 종료시간 키프레임은 안 맞춰도 된다?! 1 갈락 2021.05.27 209 0
2523 질문 인코딩시 컴퓨터 강제 종료 문제 문의 드립니다. 5 AHN 2021.05.26 182 0
2522 질문 webp 파일이 처리가 안됩니다. 2 케닌 2021.05.21 596 0
2521 질문 이번 5.2.1.2 버전 설치시 멈춤 2 mixe 2021.05.20 431 0
2520 질문 [건의] webp 화질을 조절하는 옵션이 생겼으면 좋겠습니다. 3 라이스 2021.05.15 634 0
2519 일반 [건의] 샤나 실행시 시피유 점유율이 100%에 육박합니다. 5 빨간늑대 2021.05.14 1052 0
2518 일반 건의(제안?) 반영해주셨군요. 1 샤나디코더 2021.05.14 558 0
2517 질문 여러 동영상 소리조절 1 Oops 2021.05.14 292 0
2516 질문 DVD 원본 파일에서 60프레임 확인 방법 2 skyarc 2021.05.10 456 0
2515 질문 화면크기를 줄이고 화질은 최대한 안나쁘게 할수 있는 방법 있을까요? 1 짱보르 2021.05.10 947 0
2514 질문 업데이트 이후 인코딩 오류가 나네요 ㅠ 2 김진 2021.05.10 603 0
2513 질문 포터블 버전 사용시 자막병합이 안되요오... 2 석두 2021.05.02 692 0
2512 질문 그래픽카드 교체 하려고 하는데요.. (상향 -> 하향) 5 file 시버 2021.05.01 899 0
Board Pagination Prev 1 2 3 4 5 6 7 8 9 10 ... 128 Next
/ 128