Skip to menu

본문시작



질문하기 전에 검색하세요(Search before asking a question)


질문
2021.04.07 17:43

오류 발생 질문드립니다.

Views 272 Votes 0 Comment 2
?

Shortcut

PrevPrev Article

NextNext Article

Larger Font Smaller Font Up Down Go comment Print
?

Shortcut

PrevPrev Article

NextNext Article

Larger Font Smaller Font Up Down Go comment Print

아래와 같이 오류가 발생하네요.

DVD에서 추출한 영상인데, 많은 DVD 영상을 추출해서 인코딩 했는데 처음 발생하는 오류라 질문드려봅니다.

 

* 인코딩 시작: VTS_01_1.VOB

Stream mapping:
  Stream #0:1 -> #0:0 (mpeg2video (native) -> h264 (libx264))
  Stream #0:2 -> #0:1 (ac3 (native) -> aac (libfdk_aac))
[libx264 @ 00000221ec8a0240] using SAR=8/9
[libx264 @ 00000221ec8a0240] using cpu capabilities: MMX2 SSE2Fast SSSE3 SSE4.2 AVX FMA3 BMI2 AVX2
[libx264 @ 00000221ec8a0240] profile Constrained Baseline, level 4.0, 4:2:0, 8-bit
[libx264 @ 00000221ec8a0240] 264 - core 161 r3048 b86ae3c - H.264/MPEG-4 AVC codec - Copyleft 2003-2021 - http://www.videolan.org/x264.html - options: cabac=0 ref=16 deblock=1:0:0 analyse=0x1:0x131 me=umh subme=10 psy=1 psy_rd=1.00:0.00 mixed_ref=1 me_range=24 chroma_me=1 trellis=2 8x8dct=0 cqm=0 deadzone=21,11 fast_pskip=1 chroma_qp_offset=-2 threads=15 lookahead_threads=1 sliced_threads=0 nr=0 decimate=1 interlaced=0 bluray_compat=0 constrained_intra=0 bframes=0 weightp=0 keyint=250 keyint_min=25 scenecut=40 intra_refresh=0 rc_lookahead=60 rc=crf mbtree=1 crf=17.0 qcomp=0.60 qpmin=0 qpmax=69 qpstep=4 ip_ratio=1.40 aq=1:1.00
[libfdk_aac @ 00000221ec8349c0] Unable to initialize the encoder: Invalid config
Error initializing output stream 0:1 -- Error while opening encoder for output stream #0:1 - maybe incorrect parameters such as bit_rate, rate, width or height
Conversion failed!

 * 인코딩 오류가 발생했습니다.

 >> 속도 0x 진행시간 00:00:00

==================================================

 

인코딩 설정

 -f mp4
 -c:v libx264 -profile:v baseline -level auto -preset veryslow -tune:v none -crf 17.0
 -c:a libfdk_aac -b:a 192k
 -sn -map_metadata -1 -map_chapters -1 -fdkprofile hev2

 

 

원본 정보

General
Complete name                            : C:\Users\binar\Desktop\VTS_01_1.VOB
Format                                   : MPEG-PS
File size                                : 1 024 MiB
Duration                                 : 20 min 58 s
Overall bit rate mode                    : Variable
Overall bit rate                         : 6 826 kb/s

Video
ID                                       : 224 (0xE0)
Format                                   : MPEG Video
Format version                           : Version 2
Format profile                           : Main@Main
Format settings                          : CustomMatrix / BVOP
Format settings, BVOP                    : Yes
Format settings, Matrix                  : Custom
Format settings, GOP                     : M=3, N=15
Format settings, picture structure       : Frame
Duration                                 : 20 min 58 s
Bit rate mode                            : Variable
Bit rate                                 : 6 242 kb/s
Maximum bit rate                         : 7 000 kb/s
Width                                    : 720 pixels
Height                                   : 480 pixels
Display aspect ratio                     : 4:3
Frame rate                               : 29.970 (30000/1001) FPS
Standard                                 : NTSC
Color space                              : YUV
Chroma subsampling                       : 4:2:0
Bit depth                                : 8 bits
Scan type                                : Interlaced
Scan order                               : Bottom Field First
Compression mode                         : Lossy
Bits/(Pixel*Frame)                       : 0.603
Time code of first frame                 : 00:00:00:00
Time code source                         : Group of pictures header
GOP, Open/Closed                         : Closed
Stream size                              : 936 MiB (91%)
Color primaries                          : BT.601 NTSC
Transfer characteristics                 : BT.601
Matrix coefficients                      : BT.601

Audio
ID                                       : 189 (0xBD)-128 (0x80)
Format                                   : AC-3
Format/Info                              : Audio Coding 3
Commercial name                          : Dolby Digital
Muxing mode                              : DVD-Video
Duration                                 : 20 min 58 s
Bit rate mode                            : Constant
Bit rate                                 : 448 kb/s
Channel(s)                               : 4 channels
Channel layout                           : L R Ls Rs
Sampling rate                            : 48.0 kHz
Frame rate                               : 31.250 FPS (1536 SPF)
Compression mode                         : Lossy
Stream size                              : 67.2 MiB (7%)
Service kind                             : Complete Main

Menu

자세한 정보

General
Count                                    : 331
Count of stream of this kind             : 1
Kind of stream                           : General
Kind of stream                           : General
Stream identifier                        : 0
Count of video streams                   : 1
Count of audio streams                   : 1
Count of menu streams                    : 1
Video_Format_List                        : MPEG Video
Video_Format_WithHint_List               : MPEG Video
Codecs Video                             : MPEG Video
Audio_Format_List                        : AC-3
Audio_Format_WithHint_List               : AC-3
Audio codecs                             : AC-3
Menu_Format_List                         : DVD-Video
Menu_Format_WithHint_List                : DVD-Video
Menu codecs                              : DVD-Video
Complete name                            : C:\Users\binar\Desktop\VTS_01_1.VOB
Folder name                              : C:\Users\binar\Desktop
File name extension                      : VTS_01_1.VOB
File name                                : VTS_01_1
File extension                           : VOB
Format                                   : MPEG-PS
Format                                   : MPEG-PS
Format/Extensions usually used           : mpeg mpg m2p vob vro pss evo
Commercial name                          : MPEG-PS
Internet media type                      : video/MP2P
File size                                : 1073565696
File size                                : 1 024 MiB
File size                                : 1 024 MiB
File size                                : 1 024 MiB
File size                                : 1 024 MiB
File size                                : 1 023.8 MiB
Duration                                 : 1258257
Duration                                 : 20 min 58 s
Duration                                 : 20 min 58 s 257 ms
Duration                                 : 20 min 58 s
Duration                                 : 00:20:58.257
Duration                                 : 00:20:58;06
Duration                                 : 00:20:58.257 (00:20:58;06)
Overall bit rate mode                    : VBR
Overall bit rate mode                    : Variable
Overall bit rate                         : 6825732
Overall bit rate                         : 6 826 kb/s
Frame rate                               : 29.970
Frame rate                               : 29.970 FPS
Frame count                              : 37710
Stream size                              : 21374741
Stream size                              : 20.4 MiB (2%)
Stream size                              : 20 MiB
Stream size                              : 20 MiB
Stream size                              : 20.4 MiB
Stream size                              : 20.38 MiB
Stream size                              : 20.4 MiB (2%)
Proportion of this stream                : 0.01991
File creation date                       : UTC 2021-04-07 08:32:58.113
File creation date (local)               : 2021-04-07 17:32:58.113
File last modification date              : UTC 2004-12-17 00:16:51.000
File last modification date (local)      : 2004-12-17 09:16:51.000

Video
Count                                    : 378
Count of stream of this kind             : 1
Kind of stream                           : Video
Kind of stream                           : Video
Stream identifier                        : 0
FirstPacketOrder                         : 0
ID                                       : 224
ID                                       : 224 (0xE0)
Format                                   : MPEG Video
Format                                   : MPEG Video
Commercial name                          : MPEG-2 Video
Format version                           : Version 2
Format profile                           : Main@Main
Format settings                          : CustomMatrix / BVOP
Format settings, BVOP                    : Yes
Format settings, BVOP                    : Yes
Format settings, Matrix                  : Custom
Format settings, Matrix                  : Custom
Format_Settings_Matrix_Data              : 10111112121213131313141414141415151515151516161616161616171717171717171718181818181818191A191A1A191B1B1B1A1B1C1C1C1C1E1E1E1F1F21
Format settings, GOP                     : M=3, N=15
Format settings, picture structure       : Frame
Internet media type                      : video/MPV
Duration                                 : 1258257
Duration                                 : 20 min 58 s
Duration                                 : 20 min 58 s 257 ms
Duration                                 : 20 min 58 s
Duration                                 : 00:20:58.257
Duration                                 : 00:20:57:00
Duration                                 : 00:20:58.257 (00:20:57:00)
Bit rate mode                            : VBR
Bit rate mode                            : Variable
Bit rate                                 : 6241900
Bit rate                                 : 6 242 kb/s
Maximum bit rate                         : 7000000
Maximum bit rate                         : 7 000 kb/s
Width                                    : 720
Width                                    : 720 pixels
Height                                   : 480
Height                                   : 480 pixels
Sampled_Width                            : 720
Sampled_Height                           : 480
Pixel aspect ratio                       : 0.889
Display aspect ratio                     : 1.333
Display aspect ratio                     : 4:3
Frame rate                               : 29.970
Frame rate                               : 29.970 (30000/1001) FPS
FrameRate_Num                            : 30000
FrameRate_Den                            : 1001
Frame count                              : 37710
Standard                                 : NTSC
Color space                              : YUV
Chroma subsampling                       : 4:2:0
Chroma subsampling                       : 4:2:0
Bit depth                                : 8
Bit depth                                : 8 bits
Scan type                                : Interlaced
Scan type                                : Interlaced
Scan order                               : BFF
Scan order                               : Bottom Field First
Compression mode                         : Lossy
Compression mode                         : Lossy
Bits/(Pixel*Frame)                       : 0.603
Delay                                    : 300.300000
Delay                                    : 300 ms
Delay                                    : 300 ms
Delay                                    : 300 ms
Delay                                    : 00:00:00.300
Delay_DropFrame                          : No
Delay, origin                            : Container
Delay, origin                            : Container
Delay_Original                           : 0
Delay_Original                           : 00:00:00.000
Delay_Original_Settings                  : drop_frame_flag=0 / closed_gop=1 / broken_link=0
Delay_Original_DropFrame                 : No
Delay_Original_Source                    : Stream
Time code of first frame                 : 00:00:00:00
Time code source                         : Group of pictures header
GOP, Open/Closed                         : Closed
GOP, Open/Closed                         : Closed
Stream size                              : 981740267
Stream size                              : 936 MiB (91%)
Stream size                              : 936 MiB
Stream size                              : 936 MiB
Stream size                              : 936 MiB
Stream size                              : 936.3 MiB
Stream size                              : 936 MiB (91%)
Proportion of this stream                : 0.91447
Buffer size                              : 229376
colour_description_present               : Yes
colour_description_present_Source        : Stream
Color primaries                          : BT.601 NTSC
colour_primaries_Source                  : Stream
Transfer characteristics                 : BT.601
transfer_characteristics_Source          : Stream
Matrix coefficients                      : BT.601
matrix_coefficients_Source               : Stream
intra_dc_precision                       : 8

Audio
Count                                    : 308
Count of stream of this kind             : 1
Kind of stream                           : Audio
Kind of stream                           : Audio
Stream identifier                        : 0
StreamOrder                              : 0
FirstPacketOrder                         : 1
ID                                       : 189-128
ID                                       : 189 (0xBD)-128 (0x80)
Format                                   : AC-3
Format                                   : AC-3
Format/Info                              : Audio Coding 3
Format/Url                               : https://en.wikipedia.org/wiki/AC3
Commercial name                          : Dolby Digital
Commercial name                          : Dolby Digital
Format settings, Endianness              : Big
Muxing mode                              : DVD-Video
Duration                                 : 1258048
Duration                                 : 20 min 58 s
Duration                                 : 20 min 58 s 48 ms
Duration                                 : 20 min 58 s
Duration                                 : 00:20:58.048
Duration                                 : 00:21:08:06
Duration                                 : 00:20:58.048 (00:21:08:06)
Bit rate mode                            : CBR
Bit rate mode                            : Constant
Bit rate                                 : 448000
Bit rate                                 : 448 kb/s
Channel(s)                               : 4
Channel(s)                               : 4 channels
Channel positions                        : Front: L R,   Side: L R
Channel positions                        : 2/2/0
Channel layout                           : L R Ls Rs
Samples per frame                        : 1536
Sampling rate                            : 48000
Sampling rate                            : 48.0 kHz
Samples count                            : 60386304
Frame rate                               : 31.250
Frame rate                               : 31.250 FPS (1536 SPF)
Frame count                              : 39314
Compression mode                         : Lossy
Compression mode                         : Lossy
Delay                                    : 300.300000
Delay                                    : 300 ms
Delay                                    : 300 ms
Delay                                    : 300 ms
Delay                                    : 00:00:00.300
Delay, origin                            : Container
Delay, origin                            : Container
Delay relative to video                  : 0
Delay relative to video                  : 00:00:00.000
Stream size                              : 70450688
Stream size                              : 67.2 MiB (7%)
Stream size                              : 67 MiB
Stream size                              : 67 MiB
Stream size                              : 67.2 MiB
Stream size                              : 67.19 MiB
Stream size                              : 67.2 MiB (7%)
Proportion of this stream                : 0.06562
Service kind                             : CM
Service kind                             : Complete Main
bsid                                     : 8
dialnorm                                 : -27
dialnorm                                 : -27 dB
compr                                    : -0.28
compr                                    : -0.28 dB
acmod                                    : 6
lfeon                                    : 0
dialnorm_Average                         : -27
dialnorm_Average                         : -27 dB
dialnorm_Minimum                         : -27
dialnorm_Minimum                         : -27 dB
dialnorm_Maximum                         : -27
dialnorm_Maximum                         : -27 dB
dialnorm_Count                           : 433
compr_Average                            : -3.95
compr_Average                            : -3.95 dB
compr_Minimum                            : -9.27
compr_Minimum                            : -9.27 dB
compr_Maximum                            : 2.36
compr_Maximum                            : 2.36 dB
compr_Count                              : 424
dynrng_Average                           : -3.23
dynrng_Average                           : -3.23 dB
dynrng_Minimum                           : -7.66
dynrng_Minimum                           : -7.66 dB
dynrng_Maximum                           : 2.36
dynrng_Maximum                           : 2.36 dB
dynrng_Count                             : 432

Menu
Count                                    : 94
Count of stream of this kind             : 1
Kind of stream                           : Menu
Kind of stream                           : Menu
Stream identifier                        : 0
Format                                   : DVD-Video
Format                                   : DVD-Video
Commercial name                          : DVD-Video

MediaInfoLib - v19.09

Facebook Twitter Pinterest Kakao
  • ?
    낙화 2021.04.07 18:09

    오디오 설정을 바꾸니까 되긴하네요. 

  • ?

    오류와 관련된 부분은 이곳입니다.

     

    [libfdk_aac @ 00000221ec8349c0] Unable to initialize the encoder: Invalid config

     

    -fdkprofile hev2 (HE-AACv2)에서는 스테레오까지만 채널이 지원됩니다.

     

    Shana_5.2.0.5_F6_HE-AACv2_channels_warning_20210407.jpg

     

    [빠른 설정]에서 이런 경고가 뜰 텐데요... 🙄

     

    프로파일을 바꾸거나 채널 선택을 다시 하세요.

     


List of Articles
No. Category Subject Author Date Views Votes
Notice 자유게시판에서는 자유롭게 글을 작성할 수 있지만 다음과 같은 내용은 삭제돼요 Rina 2020.03.18 1669 2
Notice 일반 [필독] 질문 전에 반드시 읽으세요!!! 2 file JKyle 2019.09.16 7492 5
Notice 일반 [알림] 질문 먹튀하지 마시기 바랍니다 => 본문 변경 금지 16 JKyle 2018.10.12 8373 11
» 질문 오류 발생 질문드립니다. 2 낙화 2021.04.07 272 0
2484 질문 인터레이스 영상 인코딩시 그대로 인터레스로 출력되도록 바꼈나요? 3 weather 2021.04.07 220 0
2483 질문 아... 또 질문드려서 죄송합니다 avs 에서 FFms2 이거 땜에 에러가 생겨욧,. 1 file kimera 2021.04.05 237 0
2482 질문 선생님들께 질문올리옵니다~ 2 인코딩맨 2021.04.05 249 0
2481 질문 삼성 TV DTS 미지원 인코딩 어떻게 해야 하나요? 1 file okarina 2021.04.03 297 0
2480 일반 운영자,개발자님 감사합니다. 1 몰디브 2021.04.02 380 0
2479 질문 자막 파일을 2개 동시에 인코딩할 수 있을까요? 2 우수믹 2021.04.01 376 0
2478 질문 gpu 속도 향상... 1 세레아 2021.04.01 515 0
2477 질문 AVS 를 불러들이지를 못합니다.. 6 kimera 2021.04.01 383 0
2476 질문 샤나인코더로 방송사 로고 지우는방법 어떻게하나여? 1 GIAn 2021.03.30 577 0
2475 질문 잘쓰던 프리셋이 자꾸 인코딩 시작하자마자 오류가 나는데요 2 타자 2021.03.28 548 0
2474 질문 mp4파일에 자막을 붙이고자 합니다 2 mana 2021.03.27 417 0
2473 질문 H264(QSV) 나 이외의 다른 종류도 오류가 뜨나요? 1 네로 2021.03.26 319 0
2472 질문 최신 버전에서 mp4 에서 avi 변환오류가 께속 뜹니다. 3 file 네로 2021.03.26 397 0
2471 질문 2패스 인코딩 대해서.. 질문입니다.. 2 kimera 2021.03.26 345 0
2470 질문 최신버전에서는 채널 설정이 왜 사라졌나요? 4 AE86TRUENO 2021.03.25 346 0
2469 질문 (초보) 인코딩 시 오류가 발생해 질문드립니다~ 도움 부탁드립니다 검색해도 도저히 모르겠습니다.... 4 자야내메갸 2021.03.24 437 0
2468 질문 자막파일 포함 동영상 인코딩시 일부구간 오류 발생 1 화산 2021.03.24 230 0
2467 질문 좌우 검은바 제거 문의 드립니다. 6 file 시버 2021.03.23 312 0
2466 질문 업뎃 후 파일 목록 추가 하면 컴터가 버벅 대면서.. 2 file 시버 2021.03.22 416 0
Board Pagination Prev 1 2 3 4 5 6 7 8 9 10 ... 126 Next
/ 126