Skip to menu

본문시작



질문하기 전에 검색하세요(Search before asking a question)


?

Shortcut

PrevPrev Article

NextNext Article

Larger Font Smaller Font Up Down Go comment Print
?

Shortcut

PrevPrev Article

NextNext Article

Larger Font Smaller Font Up Down Go comment Print
General
Complete name                  : D:\zhuanma\[SHANA]【艦これVocal】 It’s all right 「九十九鎮守府艦隊司令部」.mp4
Format                         : MPEG-4
Format profile                 : Base Media
Codec ID                       : isom
File size                      : 46.5 MiB
Duration                       : 5mn 1s
Overall bit rate               : 1 295 Kbps
Writing application            : ShanaEncoder

Video
ID                             : 1
Format                         : AVC
Format/Info                    : Advanced Video Codec
Format profile                 : Baseline@L3.1
Format settings, CABAC         : No
Format settings, ReFrames      : 1 frame
Codec ID                       : avc1
Codec ID/Info                  : Advanced Video Coding
Duration                       : 5mn 1s
Bit rate                       : 1 163 Kbps
Nominal bit rate               : 1 700 Kbps
Width                          : 1 280 pixels
Height                         : 720 pixels
Display aspect ratio           : 16:9
Frame rate mode                : Constant
Frame rate                     : 23.976 fps
Color space                    : YUV
Chroma subsampling             : 4:2:0
Bit depth                      : 8 bits
Scan type                      : Progressive
Bits/(Pixel*Frame)             : 0.053
Stream size                    : 41.7 MiB (90%)
Writing library                : x264 core 142
Encoding settings              : opencl=1 / cabac=0 / ref=1 / deblock=1:0:0 / analyse=0x1:0x111 / me=hex / subme=2 / psy=1 / psy_rd=1.00:0.00 / mixed_ref=0 / me_range=16 / chroma_me=1 / trellis=0 / 8x8dct=0 / cqm=0 / deadzone=21,11 / fast_pskip=1 / chroma_qp_offset=0 / threads=6 / lookahead_threads=2 / sliced_threads=0 / nr=0 / decimate=1 / interlaced=0 / bluray_compat=0 / constrained_intra=0 / bframes=0 / weightp=0 / keyint=250 / keyint_min=23 / scenecut=40 / intra_refresh=0 / rc_lookahead=10 / rc=abr / mbtree=1 / bitrate=1700 / ratetol=1.0 / qcomp=0.60 / qpmin=0 / qpmax=69 / qpstep=4 / ip_ratio=1.40 / aq=1:1.00

Audio
ID                             : 2
Format                         : AAC
Format/Info                    : Advanced Audio Codec
Format profile                 : LC
Codec ID                       : 40
Duration                       : 5mn 1s
Bit rate mode                  : Constant
Bit rate                       : 128 Kbps
Channel(s)                     : 2 channels
Channel positions              : Front: L R
Sampling rate                  : 44.1 KHz
Compression mode               : Lossy
Stream size                    : 4.60 MiB (10%)

Facebook Twitter Pinterest Kakao
  • ?
    HThoreau 2015.03.03 21:19
    ABR(Average) Mode is More efficient method than Pure CBR Mode.
  • ?
    小樱 2015.04.20 19:23
    是这样的么。

List of Articles
No. Subject Author Date Views Votes
66 당신은 중국어 간체 언어 팩에 대한 지원을 제공 할 수 있습니까? 3 小樱 2014.12.25 4531 0
65 我配置参数H264打开OPENCL ACCELERATION发现GPU并没有在工作 小樱 2015.01.13 4030 0
64 。。。刚才网页服务器又死掉了么。。。换个服务器吧。。。QAQ 小樱 2015.01.13 3605 0
63 没事帮忙解除了贵站域名的风险拦截 小樱 2015.01.13 3072 0
62 无法单独切割转换一个视频中的前三分钟? 1 小樱 2015.02.18 2430 0
61 能否设置10BIT编码? 1 小樱 2015.02.19 3073 0
60 通过MKV封装格式直接转换,发现生成后的文件没有带字幕 1 小樱 2015.02.26 3896 0
59 如何添加一个ASS字幕到视频内,并且不会被软件提取保存出来,MKV它是不可靠的 小樱 2015.02.26 2570 0
58 FFmpeg 下载过程建议自动使用节点,或者自动切换,否者他是很慢的。 1 小樱 2015.02.27 2535 0
57 拥有多显卡的情况,他是交错的。 小樱 2015.03.01 2272 0
56 opencl没办法全速进行工作 1 小樱 2015.03.01 2727 0
55 话说10bit不支持GPU转码,是硬件的不支持? 1 小樱 2015.03.02 2881 0
» 如何使用固定码率,而不是平均码率?我想固定1700kbps 2 小樱 2015.03.03 2942 0
53 这个视频转码的时候GUI会显示出错。反复跳动 小樱 2015.03.03 2383 0
52 如何进行把两个或者多个视频进行合并成一个视频 小樱 2015.03.06 2597 0
51 如何设置才能取得更好的画质。preset? 小樱 2015.03.07 3109 0
50 视乎不支持srt字幕,只支持ass? 小樱 2015.03.07 2217 0
49 视乎使用GPU压制,视频开头一段画面都是非常模糊的。 小樱 2015.03.07 2785 0
48 shana默认是ref1 hex subme2 abr..- -如何切换 me=umh和 rc=crf 1 小樱 2015.03.08 2965 0
47 265什么时候能支持GPU加速 2 小樱 2015.03.08 3301 0
Board Pagination Prev 1 2 3 4 Next
/ 4