Skip to menu

본문시작



질문하기 전에 검색하세요(Search before asking a question)


2014.07.30 19:12

wmv->avi 변환 오류

Views 4808 Votes 0 Comment 3
?

Shortcut

PrevPrev Article

NextNext Article

Larger Font Smaller Font Up Down Go comment Print Attachment Update Delete
?

Shortcut

PrevPrev Article

NextNext Article

Larger Font Smaller Font Up Down Go comment Print Attachment Update Delete


첨부한 파일에 해당 동영상의 상세 정보가 있습니다


대락 아래와 같은데





----------

Video

ID                                       : 2

Format                                   : WMV2

Codec ID                                 : WMV2

Codec ID/Info                            : Windows Media Video 8

Description of the codec                 : Windows Media Video V8

Duration                                 : 1h 58mn

Bit rate mode                            : Constant

Bit rate                                 : 2 000 Kbps

Width                                    : 720 pixels

Height                                   : 480 pixels

Display aspect ratio                     : 3:2

Frame rate                               : 29.970 fps

Standard                                 : NTSC

Bit depth                                : 8 bits

Bits/(Pixel*Frame)                       : 0.193

Stream size                              : 1.65 GiB

Language                                 : English (US)


Audio

ID                                       : 1

Format                                   : WMA

Format profile                           : Pro

Codec ID                                 : 162

Codec ID/Info                            : Windows Media Audio

Description of the codec                 : Windows Media Audio 10 Professional - 128 kbps, 44 kHz, 2 channel 16 bit 1-pass CBR

Duration                                 : 1h 58mn

Bit rate mode                            : Constant

Bit rate                                 : 128 Kbps

Channel(s)                               : 2 channels

Sampling rate                            : 44.1 KHz

Bit depth                                : 16 bits

Stream size                              : 108 MiB (7%)

Language                                 : English (US)


-------

이걸 아래로 변환 시도 했으나 오류가 뜹니다

왜일까요?

그리고 특정 해상도로 수동 입력시에도 변환이 안됩니다


avi

x264 프리셋 기본값

퀄리티:25


800*-1

리사이즈 기본값

비율 변경 사용안함


오디오 mp3

96 모드 없음

스테레오

샘플48000


---
그리고 혹시 
멀티코어 지원이랑
gpu지원할 계획 있으신가요?
이것까진 욕심이려나...

Atachment
Attachment '1'
Facebook Twitter Pinterest Kakao
  • ?
    lilly 2014.07.30 19:16
    //--------------------------

    작업 시작시간: 2014-07-30 오후 6:40:30

    인코딩 시작: alb-201.wmv

    [libx264 @ 0000000004416be0] height not divisible by 2 (800x533)
     
    Stream mapping:
      Stream #0:1 -> #0:0 (wmv2 (native) -> h264 (libx264))
      Stream #0:0 -> #0:1 (wmapro (native) -> mp3 (libmp3lame))
     
    Error while opening encoder for output stream #0:0 - maybe incorrect parameters such as bit_rate, rate, width or height

    인코딩 오류가 발생했습니다.

    속도 0.0x 진행시간 00:00:00
  • ?
    Rina 2014.07.30 20:27

    해당 파일을 shana 골뱅이 shana.pe.kr 로 보내주시고요

    자동 크기 했을때 높이와 너비가 홀수 값이면 변환이 안 됩니다.

    오류 보시면 800x533 즉 세로가 2로 나눠서 떨어질 수 없는 값이므로 에러가 나는것입니다. 세로를 534로 해보세요.

  • ?
    lilly 2014.07.31 00:34

    아아 그렇군요짝수로 맞추니 되네요


List of Articles
No. Category Subject Author Date Views Votes
Notice 샤나인코더 통합 검색 기능 개선(샤나인코더 우측 상단에 있는 검색창을 사용해 보세요.) Rina 2021.09.30 7516 2
Notice 자유게시판에서는 자유롭게 글을 작성할 수 있지만 다음과 같은 내용은 삭제돼요 Rina 2020.03.18 8187 3
Notice 일반 [필독] 질문 전에 반드시 읽으세요!!! 3 file JKyle 2019.09.16 19707 6
Notice 일반 [알림] 질문 먹튀하지 마시기 바랍니다 => 본문 변경 금지 20 JKyle 2018.10.12 17127 14
2652 구간설정 잘라내기에서 1 qqeb 2014.07.30 5061 0
» wmv->avi 변환 오류 3 file lilly 2014.07.30 4808 0
2650 통합자막! 1 샤나짱 2014.08.01 4494 0
2649 dvd에서 추출한 ts 파일 인코딩 질문입니다. 1 클로제 2014.08.01 5101 0
2648 2.2 업대이트후 오류? 6 file 라이너일병 2014.08.03 3953 0
2647 Avisynth 애니메이션 프레임증가 인코딩 4 w뚱 2014.08.04 4897 0
2646 설정에 대해서 몇가지 질문을 드려요 1 닌자티 2014.08.05 5015 0
2645 문의 드립니다. 2 kuon 2014.08.16 3802 0
2644 프레임 문제 3 깜지아빠 2014.08.17 4486 0
2643 ass smi 자막 인코딩시 영상 품질이 다른 이유는 뭔가요? 1 인사이더 2014.08.18 5156 0
2642 vidcoder처럼 디렉토리를 드래고 하면 그 안에 있는 동영상화일 리스트추가 되도록 안되나요 1 묵향 2014.08.18 4052 0
2641 볼륨 노멀라이즈 하려면 3 xeliz 2014.08.20 5226 0
2640 오디오 코덱 차이점 1 깜지아빠 2014.08.21 4281 0
2639 화질 손실 없이 자막만 인코딩 하려고 하는데요 5 문의 2014.08.21 7738 0
2638 크기에 맞춰 비트레이트 변동 주는거요... 2 샤나짱 2014.08.21 4224 0
2637 파일 몇개가 오류가 납니다. 3 RW 2014.08.21 3891 0
2636 화면 잘라내기기능 일괄적용 되게 안될까요? 1 은하수 2014.08.21 4502 0
2635 COMODO와 샤나 인코더 2.4가 출동하는 것 같습니다 2 케이온 2014.08.22 3898 0
2634 구간 설정/잘라내기에서 구간 설정 기능 건의합니다 2 file 케이온 2014.08.23 4546 0
2633 프레임 문제 깜지아빠 2014.08.26 4204 0
Board Pagination Prev 1 ... 8 9 10 11 12 13 14 15 16 17 ... 145 Next
/ 145