Views 868 Votes 0 Comment 1
?

Shortcut

PrevPrev Article

NextNext Article

Larger Font Smaller Font Up Down Go comment Print
?

Shortcut

PrevPrev Article

NextNext Article

Larger Font Smaller Font Up Down Go comment Print

프리셋좀 만들어 주실분 계실까요?

원본이랑 비슷한 수준이면 될꺼 같아요.

 

General
Format                         : MPEG-4
Format profile                 : Base Media
Codec ID                       : isom (isom/iso2/avc1/mp41)
File size                      : 3.85 GiB
Duration                       : 2 h 7 min
Overall bit rate               : 4 325 kb/s
Frame rate                     : 23.976 FPS

Video
ID                             : 1
Format                         : AVC
Format/Info                    : Advanced Video Codec
Format profile                 : High@L4
Format settings                : CABAC / 4 Ref Frames
Format settings, CABAC         : Yes
Format settings, Reference fra : 4 frames
Codec ID                       : avc1
Codec ID/Info                  : Advanced Video Coding
Duration                       : 2 h 7 min
Bit rate                       : 4 224 kb/s
Width                          : 1 920 pixels
Height                         : 1 080 pixels
Display aspect ratio           : 16:9
Frame rate mode                : Constant
Frame rate                     : 23.976 (24000/1001) FPS
Color space                    : YUV
Chroma subsampling             : 4:2:0
Bit depth                      : 8 bits
Scan type                      : Progressive
Bits/(Pixel*Frame)             : 0.085
Stream size                    : 3.76 GiB (98%)
Codec configuration box        : avcC

Audio
ID                             : 2
Format                         : AAC LC SBR
Format/Info                    : Advanced Audio Codec Low Complexity with Spectral Band Replication
Commercial name                : HE-AAC
Format settings                : Explicit
Codec ID                       : mp4a-40-2
Duration                       : 2 h 7 min
Bit rate mode                  : Constant
Bit rate                       : 96.0 kb/s
Channel(s)                     : 2 channels
Channel layout                 : L R
Sampling rate                  : 48.0 kHz
Frame rate                     : 23.438 FPS (2048 SPF)
Compression mode               : Lossy
Stream size                    : 87.5 MiB (2%)
Language                       : Korean
Default                        : Yes
Alternate group                : 1

Facebook Twitter Pinterest Kakao

List of Articles
No. Category Subject Author Date Views Votes
Notice 샤나 사이트 일시 접속 불가 안내 Rina 2024.04.11 812 0
Notice 소리를 4가지로 분리하는 샤나보컬리무버 프로그램을 소개합니다. Rina 2024.03.22 3527 4
Notice 샤나인코더 통합 검색 기능 개선(샤나인코더 우측 상단에 있는 검색창을 사용해 보세요.) Rina 2021.09.30 18533 2
Notice 자유게시판에서는 자유롭게 글을 작성할 수 있지만 다음과 같은 내용은 삭제돼요 Rina 2020.03.18 16280 5
Notice 일반 [필독] 질문 전에 반드시 읽으세요!!! 3 file JKyle 2019.09.16 32348 6
Notice 일반 [알림] 질문 먹튀하지 마시기 바랍니다 => 본문 변경 금지 23 JKyle 2018.10.12 27938 16
2963 질문 영상 파일에서 xml 프리셋 추출할 순 없나요?? 따뜻한망고 2023.08.15 484 0
2962 질문 HDR10+ 인코딩 방법 2 한나 2023.08.14 708 0
2961 질문 파일크기 지정 인코딩옵션 질문 1 ctrlcv 2023.08.08 632 0
2960 질문 자막이 너무 작게 나와요 3 wet 2023.08.07 680 0
2959 질문 SSF파일 변환 1 file 잊상 2023.08.07 3062 0
2958 일반 H264와 HEVC 차이 체감이 되네요. ㅎㅎ 샤나Go 2023.08.07 1980 0
2957 질문 원본의 비트레이트 등 화질을 그대로 유지하면서 속도(배속)만 올릴 수 있는 방법? 1 메아 2023.08.05 1478 0
2956 질문 evrc 인코딩시 소리가 들리지 않습니다. 다라얀 2023.08.04 474 0
2955 질문 48FPS 영상을 구했는데 1 고라니love 2023.08.03 531 0
2954 질문 mkv 관련 문의드려요! ssjrjy 2023.08.02 449 0
2953 정보 ASS자막에 적용된 효과들을 그대로 반영하여 동영상과 합치는 방법 4 꿈쟁이 2023.08.02 1144 0
2952 질문 실행 시 상단바만 남기고 보이지 않네요. 1 file 22sh 2023.07.20 562 0
2951 질문 rx6600xt 일 시키는 방법 file 다른닉네임 2023.07.19 789 0
2950 질문 라이젠 7900으로 업그레이드하고부터 글카가 일을 안합니다 6 file 만득이 2023.07.13 1471 0
2949 질문 h264로 인코딩된 web dl영상을 코덱을 변경할 필요가 있을까요? 1 SD인코더 2023.07.10 602 0
2948 일반 내장 그래픽 너무 좋네요 1 SD인코더 2023.07.10 1320 0
2947 질문 동영상 출력 비율이 자꾸 원본과 다르게 설정되는데요.. 3 file 과체중딸바보 2023.07.10 786 0
2946 질문 10비트 HDR 영상을 10비트 SDR로 인코딩 하는 방법 2 nanaki 2023.07.08 765 0
2945 일반 잘 아는게 아니라면 그냥 기본 설정들을 활용하는게 낫네요 ntg 2023.07.03 957 0
2944 질문 ASS자막에 적용된 효과들이 그대로 반영되어 동영상과 합치는 방법이 없을까요? 1 꿈쟁이 2023.07.03 615 0
Board Pagination Prev 1 ... 8 9 10 11 12 13 14 15 16 17 ... 161 Next
/ 161