질문
2023.06.28 04:30

샤나인코더 오류

Views 1012 Votes 0 Comment 5
?

Shortcut

PrevPrev Article

NextNext Article

Larger Font Smaller Font Up Down Go comment Print Attachment
?

Shortcut

PrevPrev Article

NextNext Article

Larger Font Smaller Font Up Down Go comment Print Attachment

샤나인코더 설치후 모든 파일들을 다 시도해 봤는데 계속 오류가 뜹니다 윈도우10이구요 

KakaoTalk_20230628_153907196.jpg

이 문제 어떻게 해결하는것이 좋을까요? mkv파일만 그런게 아니라 전체파일 다 변환이 안돼요ㅠㅠㅠ 빠른 답변 감사드리겠습니다

Format                                   : Matroska
Format version                           : Version 4
File size                                : 3.07 GiB
Duration                                 : 1 h 59 min
Overall bit rate                         : 3 666 kb/s
Encoded date                             : UTC 2023-06-23 11:15:26
Writing application                      : mkvmerge v75.0.0 ('Goliath') 32-bit
Writing library                          : libebml v1.4.4 + libmatroska v1.7.1

Video
ID                                       : 1
Format                                   : AVC
Format/Info                              : Advanced Video Codec
Format profile                           : Baseline@L4
Format settings                          : 1 Ref Frames
Format settings, CABAC                   : No
Format settings, Reference frames        : 1 frame
Codec ID                                 : V_MPEG4/ISO/AVC
Duration                                 : 1 h 59 min
Bit rate                                 : 3 000 kb/s
Width                                    : 1 920 pixels
Height                                   : 800 pixels
Display aspect ratio                     : 2.40:1
Frame rate mode                          : Constant
Frame rate                               : 23.976 FPS
Color space                              : YUV
Chroma subsampling                       : 4:2:0
Bit depth                                : 8 bits
Scan type                                : Progressive
Bits/(Pixel*Frame)                       : 0.081
Stream size                              : 2.53 GiB (82%)
Writing library                          : x264 core 164 r3085 0bb85e8
Encoding settings                        : cabac=0 / ref=1 / deblock=1:-1:-1 / analyse=0x1:0x111 / me=hex / subme=2 / psy=1 / psy_rd=1.00:0.15 / mixed_ref=0 / me_range=16 / chroma_me=1 / trellis=0 / 8x8dct=0 / cqm=0 / deadzone=21,11 / fast_pskip=1 / chroma_qp_offset=0 / threads=6 / lookahead_threads=2 / sliced_threads=0 / nr=0 / decimate=1 / interlaced=0 / bluray_compat=0 / constrained_intra=0 / bframes=0 / weightp=0 / keyint=250 / keyint_min=23 / scenecut=40 / intra_refresh=0 / rc_lookahead=10 / rc=abr / mbtree=1 / bitrate=3000 / ratetol=1.0 / qcomp=0.60 / qpmin=0 / qpmax=69 / qpstep=4 / ip_ratio=1.40 / aq=1:1.00
Default                                  : Yes
Forced                                   : No

Audio
ID                                       : 2
Format                                   : E-AC-3
Format/Info                              : Enhanced AC-3
Commercial name                          : Dolby Digital Plus
Codec ID                                 : A_EAC3
Duration                                 : 1 h 59 min
Bit rate mode                            : Constant
Bit rate                                 : 640 kb/s
Channel(s)                               : 6 channels
Channel layout                           : L R C LFE Ls Rs
Sampling rate                            : 48.0 kHz
Frame rate                               : 31.250 FPS (1536 SPF)
Bit depth                                : 32 bits
Compression mode                         : Lossy
Delay relative to video                  : -42 ms
Stream size                              : 549 MiB (17%)
Service kind                             : Complete Main
Default                                  : Yes
Forced                                   : No

자세한 정보

General
Count                                    : 331
Count of stream of this kind             : 1
Kind of stream                           : General
Kind of stream                           : General
Stream identifier                        : 0
Unique ID                                : 60892980444542710953953197634284697354
Unique ID                                : 60892980444542710953953197634284697354 (0x2DCF8FBACD28600670A011D6894C370A)
Count of video streams                   : 1
Count of audio streams                   : 1
Video_Format_List                        : AVC
Video_Format_WithHint_List               : AVC
Codecs Video                             : AVC
Audio_Format_List                        : E-AC-3
Audio_Format_WithHint_List               : E-AC-3
Audio codecs                             : E-AC-3
Complete name                            : C:\Users\jonad\OneDrive\바탕 화면\Kandahar.2023.1080p.WEB-DL.DDP5.1.x264-SKJ.mkv
Folder name                              : C:\Users\jonad\OneDrive\바탕 화면
File name extension                      : Kandahar.2023.1080p.WEB-DL.DDP5.1.x264-SKJ.mkv
File name                                : Kandahar.2023.1080p.WEB-DL.DDP5.1.x264-SKJ
File extension                           : mkv
Format                                   : Matroska
Format                                   : Matroska
Format/Url                               : https://matroska.org/downloads/windows.html
Format/Extensions usually used           : mkv mk3d mka mks
Commercial name                          : Matroska
Format version                           : Version 4
File size                                : 3297625705
File size                                : 3.07 GiB
File size                                : 3 GiB
File size                                : 3.1 GiB
File size                                : 3.07 GiB
File size                                : 3.071 GiB
Duration                                 : 7195439
Duration                                 : 1 h 59 min
Duration                                 : 1 h 59 min 55 s 439 ms
Duration                                 : 1 h 59 min
Duration                                 : 01:59:55.439
Duration                                 : 01:59:57;04
Duration                                 : 01:59:55.439 (01:59:57;04)
Overall bit rate                         : 3666351
Overall bit rate                         : 3 666 kb/s
Frame rate                               : 23.976
Frame rate                               : 23.976 FPS
Frame count                              : 172516
Stream size                              : 1619450
Stream size                              : 1.54 MiB (0%)
Stream size                              : 2 MiB
Stream size                              : 1.5 MiB
Stream size                              : 1.54 MiB
Stream size                              : 1.544 MiB
Stream size                              : 1.54 MiB (0%)
Proportion of this stream                : 0.00049
IsStreamable                             : Yes
Encoded date                             : UTC 2023-06-23 11:15:26
File creation date                       : UTC 2023-06-26 16:41:02.312
File creation date (local)               : 2023-06-27 01:41:02.312
File last modification date              : UTC 2023-06-26 16:42:44.993
File last modification date (local)      : 2023-06-27 01:42:44.993
Writing application                      : mkvmerge v75.0.0 ('Goliath') 32-bit
Writing application                      : mkvmerge v75.0.0 ('Goliath') 32-bit
Writing library                          : libebml v1.4.4 + libmatroska v1.7.1
Writing library                          : libebml v1.4.4 + libmatroska v1.7.1

Video
Count                                    : 379
Count of stream of this kind             : 1
Kind of stream                           : Video
Kind of stream                           : Video
Stream identifier                        : 0
StreamOrder                              : 0
ID                                       : 1
ID                                       : 1
Unique ID                                : 16919490257880908089
Format                                   : AVC
Format                                   : AVC
Format/Info                              : Advanced Video Codec
Format/Url                               : http://developers.videolan.org/x264.html
Commercial name                          : AVC
Format profile                           : Baseline@L4
Format settings                          : 1 Ref Frames
Format settings, CABAC                   : No
Format settings, CABAC                   : No
Format settings, Reference frames        : 1
Format settings, Reference frames        : 1 frame
Internet media type                      : video/H264
Codec ID                                 : V_MPEG4/ISO/AVC
Codec ID/Url                             : http://ffdshow-tryout.sourceforge.net/
Duration                                 : 7195397.000000
Duration                                 : 1 h 59 min
Duration                                 : 1 h 59 min 55 s 397 ms
Duration                                 : 1 h 59 min
Duration                                 : 01:59:55.397
Duration                                 : 01:59:57;04
Duration                                 : 01:59:55.397 (01:59:57;04)
Bit rate                                 : 3000000
Bit rate                                 : 3 000 kb/s
Width                                    : 1920
Width                                    : 1 920 pixels
Height                                   : 800
Height                                   : 800 pixels
Sampled_Width                            : 1920
Sampled_Height                           : 800
Pixel aspect ratio                       : 1.000
Display aspect ratio                     : 2.400
Display aspect ratio                     : 2.40:1
Frame rate mode                          : CFR
Frame rate mode                          : Constant
FrameRate_Mode_Original                  : VFR
Frame rate                               : 23.976
Frame rate                               : 23.976 FPS
Frame count                              : 172516
Color space                              : YUV
Chroma subsampling                       : 4:2:0
Chroma subsampling                       : 4:2:0
Bit depth                                : 8
Bit depth                                : 8 bits
Scan type                                : Progressive
Scan type                                : Progressive
Bits/(Pixel*Frame)                       : 0.081
Delay                                    : 42
Delay                                    : 42 ms
Delay                                    : 42 ms
Delay                                    : 42 ms
Delay                                    : 00:00:00.042
Delay, origin                            : Container
Delay, origin                            : Container
Stream size                              : 2720400495
Stream size                              : 2.53 GiB (82%)
Stream size                              : 3 GiB
Stream size                              : 2.5 GiB
Stream size                              : 2.53 GiB
Stream size                              : 2.534 GiB
Stream size                              : 2.53 GiB (82%)
Proportion of this stream                : 0.82496
Writing library                          : x264 - core 164 r3085 0bb85e8
Writing library                          : x264 core 164 r3085 0bb85e8
Encoded_Library_Name                     : x264
Encoded_Library_Version                  : core 164 r3085 0bb85e8
Encoding settings                        : cabac=0 / ref=1 / deblock=1:-1:-1 / analyse=0x1:0x111 / me=hex / subme=2 / psy=1 / psy_rd=1.00:0.15 / mixed_ref=0 / me_range=16 / chroma_me=1 / trellis=0 / 8x8dct=0 / cqm=0 / deadzone=21,11 / fast_pskip=1 / chroma_qp_offset=0 / threads=6 / lookahead_threads=2 / sliced_threads=0 / nr=0 / decimate=1 / interlaced=0 / bluray_compat=0 / constrained_intra=0 / bframes=0 / weightp=0 / keyint=250 / keyint_min=23 / scenecut=40 / intra_refresh=0 / rc_lookahead=10 / rc=abr / mbtree=1 / bitrate=3000 / ratetol=1.0 / qcomp=0.60 / qpmin=0 / qpmax=69 / qpstep=4 / ip_ratio=1.40 / aq=1:1.00
Default                                  : Yes
Default                                  : Yes
Forced                                   : No
Forced                                   : No

Audio
Count                                    : 301
Count of stream of this kind             : 1
Kind of stream                           : Audio
Kind of stream                           : Audio
Stream identifier                        : 0
StreamOrder                              : 1
ID                                       : 2
ID                                       : 2
Unique ID                                : 7153513281762826861
Format                                   : E-AC-3
Format                                   : E-AC-3
Format/Info                              : Enhanced AC-3
Format/Url                               : https://en.wikipedia.org/wiki/Dolby_Digital_Plus
Commercial name                          : Dolby Digital Plus
Commercial name                          : Dolby Digital Plus
Format settings, Endianness              : Big
Internet media type                      : audio/eac3
Codec ID                                 : A_EAC3
Duration                                 : 7195072.000000
Duration                                 : 1 h 59 min
Duration                                 : 1 h 59 min 55 s 72 ms
Duration                                 : 1 h 59 min
Duration                                 : 01:59:55.072
Duration                                 : 02:00:53:03
Duration                                 : 01:59:55.072 (02:00:53:03)
Bit rate mode                            : CBR
Bit rate mode                            : Constant
Bit rate                                 : 640000
Bit rate                                 : 640 kb/s
Channel(s)                               : 6
Channel(s)                               : 6 channels
Channel positions                        : Front: L C R, Side: L R, LFE
Channel positions                        : 3/2/0.1
Channel layout                           : L R C LFE Ls Rs
Samples per frame                        : 1536
Sampling rate                            : 48000
Sampling rate                            : 48.0 kHz
Samples count                            : 345363456
Frame rate                               : 31.250
Frame rate                               : 31.250 FPS (1536 SPF)
Frame count                              : 224846
Bit depth                                : 32
Bit depth                                : 32 bits
Compression mode                         : Lossy
Compression mode                         : Lossy
Delay                                    : 0
Delay                                    : 00:00:00.000
Delay, origin                            : Container
Delay, origin                            : Container
Delay relative to video                  : -42
Delay relative to video                  : -42 ms
Delay relative to video                  : -42 ms
Delay relative to video                  : -42 ms
Delay relative to video                  : -00:00:00.042
Stream size                              : 575605760
Stream size                              : 549 MiB (17%)
Stream size                              : 549 MiB
Stream size                              : 549 MiB
Stream size                              : 549 MiB
Stream size                              : 548.9 MiB
Stream size                              : 549 MiB (17%)
Proportion of this stream                : 0.17455
Service kind                             : CM
Service kind                             : Complete Main
Default                                  : Yes
Default                                  : Yes
Forced                                   : No
Forced                                   : No
bsid                                     : 16
Dialog Normalization                     : -31
Dialog Normalization                     : -31 dB
compr                                    : -0.28
compr                                    : -0.28 dB
acmod                                    : 7
lfeon                                    : 1
dialnorm_Average                         : -31
dialnorm_Average                         : -31 dB
dialnorm_Minimum                         : -31
dialnorm_Minimum                         : -31 dB
dialnorm_Maximum                         : -31
dialnorm_Maximum                         : -31 dB
dialnorm_Count                           : 581
compr_Average                            : -3.09
compr_Average                            : -3.09 dB
compr_Minimum                            : -5.49
compr_Minimum                            : -5.49 dB
compr_Maximum                            : -0.56
compr_Maximum                            : -0.56 dB
compr_Count                              : 92

MediaInfoLib - v21.09

Atachment
Attachment '1'
Facebook Twitter Pinterest Kakao
  • ?
    lilililililililil 2023.06.28 15:18

    내용이 부족해서 답변하기 어렵습니다 본문 내용 수정해서 아래 내용을 추가하시기 바랍니다.

    이용하고있는 운영체제 : 예)윈도우7 또는 윈도우10

    관련 오류 내용 또는 캡처본

  • ?
    드웨인잭슨 2023.06.28 15:46
    다시 수정했습니다 정확한 해결방법 다시 부탁드려요
  • profile
    능소화 2023.06.28 23:36

    프리셋을 어떤것을 사용 하셨는지 확인 후 적당한 프리셋 을 참조 하셔서.. 인코딩 해보세요 ^^

  • ?
    드웨인잭슨 2023.06.29 00:05

    어떤 프리셋 말씀하시는건지 모르겠습니다 정확한 설명 부탁드려요

  • ?
    Rina 2023.06.29 10:48

    오류가 발생한 상태에서 마우스 오른쪽 버튼을 누르고 기록 보기를 누르시면 인코딩 기록 창이 열리는데 안에 있는 내용들을 여기다가 알려주시면 확인 후 답변해 드릴게요.


List of Articles
No. Category Subject Author Date Views Votes
Notice 샤나 사이트 일시 접속 불가 안내 Rina 2024.04.11 809 0
Notice 소리를 4가지로 분리하는 샤나보컬리무버 프로그램을 소개합니다. Rina 2024.03.22 3525 4
Notice 샤나인코더 통합 검색 기능 개선(샤나인코더 우측 상단에 있는 검색창을 사용해 보세요.) Rina 2021.09.30 18533 2
Notice 자유게시판에서는 자유롭게 글을 작성할 수 있지만 다음과 같은 내용은 삭제돼요 Rina 2020.03.18 16279 5
Notice 일반 [필독] 질문 전에 반드시 읽으세요!!! 3 file JKyle 2019.09.16 32348 6
Notice 일반 [알림] 질문 먹튀하지 마시기 바랍니다 => 본문 변경 금지 23 JKyle 2018.10.12 27938 16
2963 질문 영상 파일에서 xml 프리셋 추출할 순 없나요?? 따뜻한망고 2023.08.15 484 0
2962 질문 HDR10+ 인코딩 방법 2 한나 2023.08.14 708 0
2961 질문 파일크기 지정 인코딩옵션 질문 1 ctrlcv 2023.08.08 632 0
2960 질문 자막이 너무 작게 나와요 3 wet 2023.08.07 680 0
2959 질문 SSF파일 변환 1 file 잊상 2023.08.07 3060 0
2958 일반 H264와 HEVC 차이 체감이 되네요. ㅎㅎ 샤나Go 2023.08.07 1980 0
2957 질문 원본의 비트레이트 등 화질을 그대로 유지하면서 속도(배속)만 올릴 수 있는 방법? 1 메아 2023.08.05 1478 0
2956 질문 evrc 인코딩시 소리가 들리지 않습니다. 다라얀 2023.08.04 474 0
2955 질문 48FPS 영상을 구했는데 1 고라니love 2023.08.03 531 0
2954 질문 mkv 관련 문의드려요! ssjrjy 2023.08.02 449 0
2953 정보 ASS자막에 적용된 효과들을 그대로 반영하여 동영상과 합치는 방법 4 꿈쟁이 2023.08.02 1144 0
2952 질문 실행 시 상단바만 남기고 보이지 않네요. 1 file 22sh 2023.07.20 562 0
2951 질문 rx6600xt 일 시키는 방법 file 다른닉네임 2023.07.19 789 0
2950 질문 라이젠 7900으로 업그레이드하고부터 글카가 일을 안합니다 6 file 만득이 2023.07.13 1471 0
2949 질문 h264로 인코딩된 web dl영상을 코덱을 변경할 필요가 있을까요? 1 SD인코더 2023.07.10 602 0
2948 일반 내장 그래픽 너무 좋네요 1 SD인코더 2023.07.10 1320 0
2947 질문 동영상 출력 비율이 자꾸 원본과 다르게 설정되는데요.. 3 file 과체중딸바보 2023.07.10 786 0
2946 질문 10비트 HDR 영상을 10비트 SDR로 인코딩 하는 방법 2 nanaki 2023.07.08 765 0
2945 일반 잘 아는게 아니라면 그냥 기본 설정들을 활용하는게 낫네요 ntg 2023.07.03 957 0
2944 질문 ASS자막에 적용된 효과들이 그대로 반영되어 동영상과 합치는 방법이 없을까요? 1 꿈쟁이 2023.07.03 615 0
Board Pagination Prev 1 ... 8 9 10 11 12 13 14 15 16 17 ... 161 Next
/ 161