?

Shortcut

PrevPrev Article

NextNext Article

Larger Font Smaller Font Up Down Go comment Print Attachment
?

Shortcut

PrevPrev Article

NextNext Article

Larger Font Smaller Font Up Down Go comment Print Attachment

안녕하세요, 샤나 인코더로 MP4 파일들을 비트레이트를 줄이는 인코딩작업 및 구간잘라내기 작업을 했는데

그 파일들이 베가스 프로에 불러오면 오디오 트랙밖에 안 뜨고, (비디오 트랙이 아예 생성 자체가 안되네요)

팟플레이어에서도 MP3 파일로 인식을 하네요. (영상 자체는 잘 나옵니다만)

 

인코딩 이전의 원본 영상은 엔비디아 Geforce Experience의 녹화 기능을 사용했고

원본파일엔 문제가 없는 것 같습니다.

 

원인이 무엇일까요? 검색을 해봐도 못 찾겠습니다.

아래 자료는 제가 했던 인코딩 설정 및 베가스, 팟플레이어에서 MP3로 인식하는 모습입니다.

 

 

파일정보입니다.

 

 

General
Complete name                            : G:\녹화본\2023.03.14 - 00.43.55.04.mp4
Format                                   : MPEG-4
Format profile                           : Base Media
Codec ID                                 : isom (isom/iso2/avc1/mp41)
File size                                : 978 MiB
Duration                                 : 22 min 5 s
Overall bit rate                         : 6 188 kb/s
Writing application                      : ShanaEncoder

Video
ID                                       : 1
Format                                   : AVC
Format/Info                              : Advanced Video Codec
Format profile                           : Baseline@L4.2
Format settings                          : 1 Ref Frames
Format settings, CABAC                   : No
Format settings, Reference frames        : 1 frame
Codec ID                                 : avc1
Codec ID/Info                            : Advanced Video Coding
Duration                                 : 22 min 5 s
Bit rate                                 : 6 000 kb/s
Width                                    : 1 920 pixels
Height                                   : 1 080 pixels
Display aspect ratio                     : 16:9
Frame rate mode                          : Constant
Frame rate                               : 60.000 FPS
Color space                              : YUV
Chroma subsampling                       : 4:2:0
Bit depth                                : 8 bits
Scan type                                : Progressive
Bits/(Pixel*Frame)                       : 0.048
Stream size                              : 946 MiB (97%)
Writing library                          : x264 core 164 r3085 0bb85e8
Encoding settings                        : cabac=0 / ref=1 / deblock=1:0:0 / analyse=0x1:0x111 / me=hex / subme=2 / psy=1 / psy_rd=1.00:0.00 / mixed_ref=0 / me_range=16 / chroma_me=1 / trellis=0 / 8x8dct=0 / cqm=0 / deadzone=21,11 / fast_pskip=1 / chroma_qp_offset=0 / threads=18 / lookahead_threads=6 / sliced_threads=0 / nr=0 / decimate=1 / interlaced=0 / bluray_compat=0 / constrained_intra=0 / bframes=0 / weightp=0 / keyint=250 / keyint_min=25 / scenecut=40 / intra_refresh=0 / rc_lookahead=10 / rc=abr / mbtree=1 / bitrate=6000 / ratetol=1.0 / qcomp=0.60 / qpmin=0 / qpmax=69 / qpstep=4 / ip_ratio=1.40 / aq=1:1.00
Codec configuration box                  : avcC

Audio
ID                                       : 2
Format                                   : MPEG Audio
Format version                           : Version 1
Format profile                           : Layer 3
Format settings                          : Joint stereo / MS Stereo
Codec ID                                 : mp4a-6B
Duration                                 : 22 min 5 s
Source duration                          : 22 min 5 s
Bit rate mode                            : Constant
Bit rate                                 : 192 kb/s
Channel(s)                               : 2 channels
Sampling rate                            : 44.1 kHz
Compression mode                         : Lossy
Stream size                              : 30.3 MiB (3%)
Source stream size                       : 30.3 MiB (3%)
Default                                  : Yes
Alternate group                          : 1

 

 

 

 

 

매개변수입니다.

 

aㅐ개변수.png

 -f mp4
 -c:v libx264 -b:v 8000k -profile:v baseline -level auto -preset veryfast -tune:v none
 -c:a libmp3lame -ac 2 -b:a 192k
 -sn -map_metadata -1 -map_chapters -1

 

 

 

 

 

z2.png

 

 

ffffff.png

영상은 잘 재생되는 모습입니다만, MP3 파일로 인식합니다.

 

 

f11111.png

베가스에선 오디오 트랙만 생성되는 모습입니다.

 

 

프로그램 도움 많이 받고 있습니다.

답변 해주시면 정말 감사합니다.

Atachment
Attachment '4'
Facebook Twitter Pinterest Kakao
  • ?
    cookieleeuns 2023.03.18 20:55

    팟플레이어에서 MP3으로 인식하는 것이 아닙니다. 영상은 H264 코덱 (확장자는 표시되지 않음), 오디오코덱을 MP3으로 설정하셔서 그렇습니다. 베가스를 사용하시는 경우 오디오 코덱을 AAC로 하셔야 비디오까지 정상적으로 인식합니다.
    팁. 비트레이트를 variable이 아닌 const로 설정하시고, 비트레이트를 조금 더 높이시면 더 좋은 화질의 영상을 얻으실 수 있을겁니다.

  • ?
    레네데리망 2023.03.26 20:37
    헑..이제까지 계속 mp3 오디오 코덱이 되어있었네요..감사합니다..ㅠㅠㅠㅠㅠ
  • ?
    cookieleeuns 2023.03.18 20:58

    + NVIDIA 계열 그래픽카드 사용시 H264(NVENC) 코덱을 사용, NVENC 가속이 되어 영상을 더 빠르게 인코딩하실 수 있습니다. (개인 선택)
    또, 원본 캡처된 영상이 60프레임으로 녹화된 것으로 보이는데, 만약 원본이 30프레임으로 제작된 영상일 경우 30프레임으로 인코딩하셔야 용량을 줄이실 수 있습니다. (뻥튀기된 영상일 수 있습니다.)


List of Articles
No. Category Subject Author Date Views Votes
Notice 소리를 4가지로 분리하는 샤나보컬리무버 프로그램을 소개합니다. Rina 2024.03.22 4879 4
Notice 샤나인코더 통합 검색 기능 개선(샤나인코더 우측 상단에 있는 검색창을 사용해 보세요.) Rina 2021.09.30 19692 2
Notice 자유게시판에서는 자유롭게 글을 작성할 수 있지만 다음과 같은 내용은 삭제돼요 Rina 2020.03.18 17379 5
Notice 일반 [필독] 질문 전에 반드시 읽으세요!!! 3 file JKyle 2019.09.16 34014 7
Notice 일반 [알림] 질문 먹튀하지 마시기 바랍니다 => 본문 변경 금지 23 JKyle 2018.10.12 29674 16
2903 질문 기본 설정으로 인코딩 할 때, 파일 형식을 바꿀 수는 없나요? 3 IamSAM 2023.04.21 584 0
2902 일반 HVEC로 인코딩하여도 H264와 용량차이가 없네요. 4 유이오 2023.04.20 1713 0
2901 질문 AAC LC 음원을 AC3 2채널로 인코딩할때 질문입니다. 4 PLK 2023.04.20 686 0
2900 질문 인코딩이 1분에서 5분밖에 안되네요? 1 file vpdle 2023.04.19 773 0
2899 질문 샤나인코더 uninst 다운받는 방법이 있을까요? 1 키읔히흫 2023.04.19 626 0
2898 질문 샤나인코더 재설치가 안되요 해결방법 알려주세요 부탁드립니다. 1 file 키읔히흫 2023.04.19 432 0
2897 질문 파일이 안올라가요 .. 4 file 채여이 2023.04.15 762 0
2896 질문 인코딩 하였던 파일을 다시 인코딩 할 경우 2 키읔히흫 2023.04.14 817 0
2895 질문 인코딩 하면 자막이 이상합니다 1 ㅈㄴㄷ 2023.04.09 711 0
2894 질문 [질문] m4a나 mp3 등 음원파일에 이미지 합치는 방법 [*.m4a(or *.mp3)+*.jpg(or *.png)=*.mp4] 2 샤나하냥 2023.04.09 1049 0
2893 질문 8k 영상을 4k로 변환 2 피넛버터 2023.04.06 1337 0
2892 질문 영상자체에 내장된 자막을 인코딩하면 자막이 안나오는데... 2 벨라미 2023.04.05 877 0
2891 질문 안녕하세요 영상 음성 합치기 분리할때 4 file 남이사랑 2023.04.01 947 0
2890 질문 특정 오디오 지연값을 기본으로 설정할 방법이 있을까요? 5 아이브 2023.03.31 490 0
2889 질문 비트레이트를 딱 2000kbps 로 맞추는 방법이 있을까요? 5 file 솔티드카라멜 2023.03.31 1051 0
2888 질문 RTX 40번대는 NVENC 품질이 좀 괜찮은가요? 6 RTX 4070 2023.03.30 1717 0
2887 질문 똑같은 설정을 썼는데 어떤 파일에서 인코딩이 이상하게 됩니다. 2 file 리디형 2023.03.27 702 0
2886 질문 파일명 설정하는 방법 있을까요? 1 seoku 2023.03.25 502 0
2885 질문 인코딩한 파일을 원본파일하고 같은 폴더에 보관할 수 없나요? 3 아지랑이 2023.03.25 590 0
2884 질문 AMD 6700XT HDR 인코딩 문의 합니다. 1 구름둥둥 2023.03.25 646 0
Board Pagination Prev 1 ... 12 13 14 15 16 17 18 19 20 21 ... 162 Next
/ 162