Skip to menu

본문시작



질문하기 전에 검색하세요(Search before asking a question)


?

Shortcut

PrevPrev Article

NextNext Article

Larger Font Smaller Font Up Down Go comment Print
?

Shortcut

PrevPrev Article

NextNext Article

Larger Font Smaller Font Up Down Go comment Print

안녕하세요.

 

해외에 살고 있는 교민입니다.

 

다름이 아니라 얼마전 집에 도둑이 드는 불상사가 발생하여서

경찰에 신고를 했었습니다.

 

그런데 문제는 저희 측에서 구해다 준 cctv 동영상(AVI) 파일이

자기네들 컴퓨터에서 재생이 안되니 자기들네 컴퓨터에서 더블 클릭했을 떄

자동으로 플레이 될 수 있게 만들어서 가져오란 것이었습니다.

 

하지만 경찰측 컴퓨터의 정보도 모른채 무엇으로 변환해야 하는지 아주 난감한 상황입니다.

아무래도 얘네들은 일반 윈도우 미디어 플레이어를 사용하는 것 같은데

그냥 MP4로 변환하면 일반 컴퓨터에서 플레이가 가능할까요...?
 

집 사람은 현지인이지만 만삭이라 경찰서에 방문이 어려워 저 혼자 맨발로 뛰어다니고 있습니다.

한국에서는 상상도 못 할 경찰의 태도이지만 외국인이니 그러려니합니다..

여러분의 도움이 간절히 필요합니다..

 

혹시 몰라서 동영상 파일의 정보를 같이 첨부하오니 모쪼록 부탁 드리겠습니다.

 

 

ㅡㅡㅡㅡㅡㅡㅡㅡㅡㅡㅡㅡㅡㅡㅡㅡㅡㅡㅡㅡㅡㅡㅡㅡㅡㅡㅡㅡㅡㅡㅡㅡㅡㅡㅡㅡㅡㅡㅡㅡㅡㅡㅡ

 

General
Complete name                            : C:\Users\user\Desktop\copy ver\Camera1_20210912075027.avi
Format                                   : AVI
Format/Info                              : Audio Video Interleave
File size                                : 680 MiB
Duration                                 : 1 h 52 min
Overall bit rate                         : 843 kb/s

Video
ID                                       : 0
Format                                   : AVC
Format/Info                              : Advanced Video Codec
Format profile                           : High@L3.2
Format settings                          : CABAC / 1 Ref Frames
Format settings, CABAC                   : Yes
Format settings, Reference frames        : 1 frame
Codec ID                                 : H264
Duration                                 : 1 h 52 min
Bit rate                                 : 704 kb/s
Width                                    : 960 pixels
Height                                   : 1 072 pixels
Display aspect ratio                     : 0.896
Frame rate                               : 29.970 (30000/1001) FPS
Color space                              : YUV
Chroma subsampling                       : 4:2:0
Bit depth                                : 8 bits
Scan type                                : Progressive
Bits/(Pixel*Frame)                       : 0.023
Stream size                              : 568 MiB (84%)

Audio
ID                                       : 1
Format                                   : PCM
Format settings                          : Little / Signed
Codec ID                                 : 1
Duration                                 : 1 h 52 min
Bit rate mode                            : Constant
Bit rate                                 : 128 kb/s
Channel(s)                               : 1 channel
Sampling rate                            : 8 000 Hz
Bit depth                                : 16 bits
Stream size                              : 103 MiB (15%)
Alignment                                : Aligned on interleaves
Interleave, duration                     : 40  ms (1.20 video frame)

자세한 정보

General
Count                                    : 331
Count of stream of this kind             : 1
Kind of stream                           : General
Kind of stream                           : General
Stream identifier                        : 0
Count of video streams                   : 1
Count of audio streams                   : 1
Video_Format_List                        : AVC
Video_Format_WithHint_List               : AVC
Codecs Video                             : AVC
Audio_Format_List                        : PCM
Audio_Format_WithHint_List               : PCM
Audio codecs                             : PCM
Complete name                            : C:\Users\user\Desktop\copy ver\Camera1_20210912075027.avi
Folder name                              : C:\Users\user\Desktop\copy ver
File name extension                      : Camera1_20210912075027.avi
File name                                : Camera1_20210912075027
File extension                           : avi
Format                                   : AVI
Format                                   : AVI
Format/Info                              : Audio Video Interleave
Format/Extensions usually used           : avi
Commercial name                          : AVI
Internet media type                      : video/vnd.avi
Interleaved                              : No
File size                                : 713061276
File size                                : 680 MiB
File size                                : 680 MiB
File size                                : 680 MiB
File size                                : 680 MiB
File size                                : 680.0 MiB
Duration                                 : 6770771
Duration                                 : 1 h 52 min
Duration                                 : 1 h 52 min 50 s 771 ms
Duration                                 : 1 h 52 min
Duration                                 : 01:52:50.771
Duration                                 : 01:52:50;22
Duration                                 : 01:52:50.771 (01:52:50;22)
Overall bit rate                         : 842517
Overall bit rate                         : 843 kb/s
Frame rate                               : 29.970
Frame rate                               : 29.970 FPS
Frame count                              : 202920
Stream size                              : 8930204
Stream size                              : 8.52 MiB (1%)
Stream size                              : 9 MiB
Stream size                              : 8.5 MiB
Stream size                              : 8.52 MiB
Stream size                              : 8.517 MiB
Stream size                              : 8.52 MiB (1%)
Proportion of this stream                : 0.01252
File creation date                       : UTC 2021-09-21 03:53:07.781
File creation date (local)               : 2021-09-21 12:53:07.781
File last modification date              : UTC 2021-09-14 16:35:44.000
File last modification date (local)      : 2021-09-15 01:35:44.000

Video
Count                                    : 377
Count of stream of this kind             : 1
Kind of stream                           : Video
Kind of stream                           : Video
Stream identifier                        : 0
StreamOrder                              : 0
ID                                       : 0
ID                                       : 0
Format                                   : AVC
Format                                   : AVC
Format/Info                              : Advanced Video Codec
Format/Url                               : http://developers.videolan.org/x264.html
Commercial name                          : AVC
Format profile                           : High@L3.2
Format settings                          : CABAC / 1 Ref Frames
Format settings, CABAC                   : Yes
Format settings, CABAC                   : Yes
Format settings, Reference frames        : 1
Format settings, Reference frames        : 1 frame
Internet media type                      : video/H264
Codec ID                                 : H264
Duration                                 : 6770771
Duration                                 : 1 h 52 min
Duration                                 : 1 h 52 min 50 s 771 ms
Duration                                 : 1 h 52 min
Duration                                 : 01:52:50.771
Duration                                 : 01:52:50;22
Duration                                 : 01:52:50.771 (01:52:50;22)
Bit rate                                 : 704092
Bit rate                                 : 704 kb/s
Width                                    : 960
Width                                    : 960 pixels
Height                                   : 1072
Height                                   : 1 072 pixels
Sampled_Width                            : 960
Sampled_Height                           : 1072
Pixel aspect ratio                       : 1.000
Display aspect ratio                     : 0.896
Display aspect ratio                     : 0.896
Frame rate                               : 29.970
Frame rate                               : 29.970 (30000/1001) FPS
FrameRate_Num                            : 30000
FrameRate_Den                            : 1001
Frame count                              : 202920
Color space                              : YUV
Chroma subsampling                       : 4:2:0
Chroma subsampling                       : 4:2:0
Bit depth                                : 8
Bit depth                                : 8 bits
Scan type                                : Progressive
Scan type                                : Progressive
Bits/(Pixel*Frame)                       : 0.023
Delay                                    : 0
Delay                                    : 00:00:00.000
Stream size                              : 595905776
Stream size                              : 568 MiB (84%)
Stream size                              : 568 MiB
Stream size                              : 568 MiB
Stream size                              : 568 MiB
Stream size                              : 568.3 MiB
Stream size                              : 568 MiB (84%)
Proportion of this stream                : 0.83570

Audio
Count                                    : 280
Count of stream of this kind             : 1
Kind of stream                           : Audio
Kind of stream                           : Audio
Stream identifier                        : 0
StreamOrder                              : 1
ID                                       : 1
ID                                       : 1
Format                                   : PCM
Format                                   : PCM
Commercial name                          : PCM
Format settings                          : Little / Signed
Format settings, Endianness              : Little
Format settings, Sign                    : Signed
Codec ID                                 : 1
Codec ID/Url                             : http://www.microsoft.com/windows/
Duration                                 : 6764081
Duration                                 : 1 h 52 min
Duration                                 : 1 h 52 min 44 s 81 ms
Duration                                 : 1 h 52 min
Duration                                 : 01:52:44.081
Duration                                 : 01:52:44.081
Bit rate mode                            : CBR
Bit rate mode                            : Constant
Bit rate                                 : 128000
Bit rate                                 : 128 kb/s
Channel(s)                               : 1
Channel(s)                               : 1 channel
Sampling rate                            : 8000
Sampling rate                            : 8 000 Hz
Samples count                            : 54112648
Bit depth                                : 16
Bit depth                                : 16 bits
Delay                                    : 0
Delay                                    : 00:00:00.000
Delay, origin                            : Stream
Delay, origin                            : Raw stream
Delay relative to video                  : 0
Delay relative to video                  : 00:00:00.000
Stream size                              : 108225296
Stream size                              : 103 MiB (15%)
Stream size                              : 103 MiB
Stream size                              : 103 MiB
Stream size                              : 103 MiB
Stream size                              : 103.2 MiB
Stream size                              : 103 MiB (15%)
Proportion of this stream                : 0.15178
Alignment                                : Aligned
Alignment                                : Aligned on interleaves
Interleave, duration                     : 1.20
Interleave, duration                     : 40
Interleave, duration                     : 40  ms (1.20 video frame)

MediaInfoLib - v19.09

 

ㅡㅡㅡㅡㅡㅡㅡㅡㅡㅡㅡㅡㅡㅡㅡㅡㅡㅡㅡㅡㅡㅡㅡㅡㅡㅡㅡㅡㅡㅡㅡㅡㅡㅡㅡㅡㅡㅡㅡㅡㅡㅡㅡ
 

 

Facebook Twitter Pinterest Kakao
  • ?
    bxhtfdf3 2021.09.21 17:04

    파일 형식: mp4

    비디오 코덱: 스트림 복사

    오디오 코덱: AAC / LC

    오디오 비트레이트: 128 Kbps

    채널: 원본

    샘플레이트 변경 체크, 44100 Hz

     

    이렇게 인코딩하시면 될 것 같습니다.

  • ?
    유니버셜킴 2021.09.22 23:43
    정말 너무 너무 감사합니다.
    덕분에 경찰서에 증거 물품으로 등록할 수 있었습니다.
    거기서도 잘 돌아가더라고요.
    도와주셔서 감사합니다.
    항상 건강한 삶 되시길 기원합니다.

List of Articles
No. Category Subject Author Date Views Votes
Notice 샤나인코더 통합 검색 기능 개선(샤나인코더 우측 상단에 있는 검색창을 사용해 보세요.) Rina 2021.09.30 10056 2
Notice 자유게시판에서는 자유롭게 글을 작성할 수 있지만 다음과 같은 내용은 삭제돼요 Rina 2020.03.18 8478 3
Notice 일반 [필독] 질문 전에 반드시 읽으세요!!! 3 file JKyle 2019.09.16 20538 6
Notice 일반 [알림] 질문 먹튀하지 마시기 바랍니다 => 본문 변경 금지 20 JKyle 2018.10.12 17507 14
2615 질문 설치오류 아카이브 2021.12.09 723 0
2614 질문 비디오와 오디오를 다르게 입힐수 있나요? 3 제이y 2021.12.07 549 0
2613 질문 첫 프레임에 대표이미지 1장 삽입하고 싶습니다 1 file k70809010 2021.12.06 821 0
2612 질문 퀄리티 모드에서 최저 비트레이트 제한을 걸수 있을까요 3 미르 2021.12.04 767 0
2611 질문 기능 제안] 목록에서 선택 항목만 체크 혹은 해제 할 수 있으면 좋겠습니다. 냥바 2021.12.01 518 0
2610 질문 skm 파일 인코딩 시 오디오 누락됨 file 번개곰 2021.12.01 639 0
2609 질문 H264(NVENC) 시작과 동시에 오류가 납니다. 2 굿더잡 2021.11.30 1152 0
2608 질문 동영상 내장자막 문제 2 곰팅스 2021.11.30 1140 0
2607 질문 인코딩시 소리를 변경 할 방법이 있나요?? 4 냥바 2021.11.30 606 0
2606 질문 오디오 코덱 1 승쓰 2021.11.29 541 0
2605 질문 인코딩 질문 좀요!! (제 환경에 맞는?) 1 즉시 2021.11.29 569 0
2604 질문 구형TV용 설정... 1 녹공 2021.11.28 743 0
2603 질문 내장자막이 있는 동영상을 인코딩하엿을시에 자막이 안나오는 현상 1 하이웨이스타 2021.11.19 1041 0
2602 질문 오류 기록 좀 봐 주세요 TOME 2021.11.19 1538 0
2601 질문 화질 향상 3 file 승쓰 2021.11.16 1291 0
2600 질문 TV에 재생이 되는 파일과 안되는 파일이 있는데 한번 봐주실 수 있으실까요? 2 file 초남양 2021.11.15 1220 0
2599 질문 중간에 외장하드 빠져서 오류 났는데 해결 방안좀... 1 승쓰 2021.11.12 745 0
2598 질문 동영상 합치기 오류 1 file kkk339 2021.11.10 1364 0
2597 질문 k3g 파일이 인코딩 오류 1 어지니 2021.11.08 766 0
2596 질문 윈도우11에서 인코딩 속도가 빠르다는데요? 1 핀다 2021.11.06 1890 0
Board Pagination Prev 1 ... 12 13 14 15 16 17 18 19 20 21 ... 147 Next
/ 147