Skip to menu

본문시작



질문하기 전에 검색하세요(Search before asking a question)


?

Shortcut

PrevPrev Article

NextNext Article

Larger Font Smaller Font Up Down Go comment Print Update Delete
?

Shortcut

PrevPrev Article

NextNext Article

Larger Font Smaller Font Up Down Go comment Print Update Delete
General
ID                                       : 1 (0x1)
Format                                   : MPEG-TS
File size                                : 1.51 GiB
Duration                                 : 20mn 53s
Overall bit rate mode                    : Variable
Overall bit rate                         : 10.3 Mbps
Maximum Overall bit rate                 : 35.5 Mbps

Video
ID                                       : 4113 (0x1011)
Menu ID                                  : 1 (0x1)
Format                                   : MPEG Video
Format version                           : Version 2
Format profile                           : Main@High
Format settings, BVOP                    : Yes
Format settings, Matrix                  : Custom
Format settings, GOP                     : M=3, N=15
Codec ID                                 : 2
Duration                                 : 20mn 54s
Bit rate mode                            : Variable
Bit rate                                 : 9 566 Kbps
Width                                    : 1 440 pixels
Height                                   : 1 080 pixels
Display aspect ratio                     : 16:9
Frame rate                               : 29.970 fps
Color space                              : YUV
Chroma subsampling                       : 4:2:0
Bit depth                                : 8 bits
Scan type                                : Interlaced
Scan order                               : Top Field First
Compression mode                         : Lossy
Bits/(Pixel*Frame)                       : 0.205
Stream size                              : 1.40 GiB (93%)
Color primaries                          : BT.709
Transfer characteristics                 : BT.709
Matrix coefficients                      : BT.709

Audio
ID                                       : 4352 (0x1100)
Menu ID                                  : 1 (0x1)
Format                                   : AAC
Format/Info                              : Advanced Audio Codec
Format version                           : Version 2
Format profile                           : LC
Muxing mode                              : ADTS
Codec ID                                 : 15
Duration                                 : 20mn 53s
Bit rate mode                            : Variable
Bit rate                                 : 251 Kbps
Channel(s)                               : 2 channels
Channel positions                        : Front: L R
Sampling rate                            : 48.0 KHz
Compression mode                         : Lossy
Delay relative to video                  : -11ms
Stream size                              : 37.5 MiB (2%)


이 영상에서 노래 부분만 따로 구간자르기 하고 싶은데
1080p 말고 1080i 영상 그대로 노래부분만 자르고 싶어요.
단순하게 디인터레이스 체크 해제하고 스트림복사 했더니 오류나더라고요.
이거 처음 동영상 그대로 노래부분만 따로 잘라낼 순 없나요?
Facebook Twitter Pinterest Kakao
  • ?
    HThoreau 2014.12.08 20:17

    샤나로도 가능하지만 오류난다고 하시니

    VideoReDo나 HDTVtoMPEG2로 하시면 됩니다..


    HDTVtoMPEG2는 무료로 간단하게 사용하기 좋은 프로그램이죠..

    (MPEG2 TP,TS파일을 편집할 경우)

  • ?
    1234 2014.12.09 14:30

    그렇군요. 다른 프로그램을 사용하면 되는군요. 만약 다른 파일들도 샤나인코더로 1080i 그대로 구간자르기만 하고 싶으면 어떻게 해야 하나요?

  • ?
    HThoreau 2014.12.09 14:43

    질문중에 약간 이해가 안가는 부분이 있긴하지만..

    아마 구간만 정해서 원본 그대로 스트림저장을 원하시는 것 같네요..
    (위에 질문도 그랬으니)


    샤나 프리셋에 (특별기능)이라는 부분이 있습니다..

    구간선택을 하신 후에 원본 파일에 맞는 프리셋을 선택하시고

    디이렉트카피로 저장하시면 웬만한 파일들은 편집 가능할거예요..

    (avi,mkv,mp4각각 변환없이 저장할 수 있는 메뉴가 들어 있습니다)

  • ?
    1234 2014.12.09 16:46

    그렇군요. 답변 감사합니다.

  • ?
    캐투럽 2014.12.19 13:57
    샤나에서 단순하게 1구간 잘라내기를 한다면 별 어려움 없이 하실 수 있습니다.
    샤나에서 읽어들인 영상파일에서 마우스 우클릭 구간자르기 들어가시면 됩니다.
    거기서 재생을 누르시고 정지하신 후, 구간 설정을 하시면 되고요.
    스트림 복사를 하시면 됩니다. 그럼 인터레이스 그대로 다 유지되고 아무런 변경없이 카피가 되죠.
  • ?
    캐투럽 2014.12.19 14:02
    위의 영상은 MPEG2이기 때문에 HThoreau님의 답변 말씀처럼 VideoReDo나 HDTVtoMPEG2로 하시면 됩니다.
    다만 ts도 h264 ts가 있기에... Smart Cutter를 추천합니다. HDTVtoMPEG2는 H264코덱의 ts를 읽지 못하고요.
    VideoReDo나 TSDoctor의 경우엔 H264 코덱의 ts는 자름 부분에 깨짐이 생깁니다.

    1구간 자르기는 그냥 샤나로 하시는 것도 괜찮고요.
    여러구간 편집의 경우엔 Smart Cutter --> VideoReDo로 퀵픽스 --> TSDoctor로 오류수정 해주셔야 완전한 파일이 나옵니다.
    안그러면 뭔가 찝찝한 상태의 파일이 나오죠. MPEG2코덱의 ts는 큰 문제가 발생하는 경우가 별로 없습니다.

List of Articles
No. Category Subject Author Date Views Votes
Notice 자유게시판에서는 자유롭게 글을 작성할 수 있지만 다음과 같은 내용은 삭제돼요 Rina 2020.03.18 423 1
Notice 일반 [필독] 질문 전에 반드시 읽으세요!!!!!!!!! 2 file JKyle 2019.09.16 3457 3
Notice 일반 [알림] 질문 먹튀하지 마시기 바랍니다 => 본문 변경 금지 15 JKyle 2018.10.12 5440 7
2021 통합자막 질문있어요 1 방긋 2013.11.11 5555 0
2020 질문이 있는데용 1 1 2013.11.23 5499 0
2019 예상크기 표기 좀 해주세요 2 규리 2014.01.08 5490 0
2018 속도 테스트 2 file Rina 2014.06.11 5489 0
2017 원하는 용량으로 인코딩하는 기능은 추가 계획 없나요? 1 크르릉 2013.12.28 5461 0
2016 x264 튜닝에 대해 알고 싶습니다 3 별빛추억 2014.09.21 5454 0
2015 HEVC 인코딩 파라메터 문의 2 checkon 2014.07.15 5440 0
2014 음성에 관해서 질문드려요 1 1 2013.11.26 5412 0
2013 예상 인코딩 크기 표시 좀 해주세요 1 rndrmadl 2013.11.24 5402 0
2012 정보 여러가지 코덱으로 저화질 인코딩 해 보았습니다 (AV1 포함) 8 마소리스 2018.09.26 5375 0
» 1080i ts 영상 1080i 영상 그대로 구간자르기 하는 방법 있나요? 6 1234 2014.12.08 5374 0
2010 프리셋 설정 관련해서 질문 드립니다 1 file sundaymorning 2014.06.28 5361 0
2009 H.264인코딩시 fps 세팅 문제 2 캐투럽 2014.11.25 5349 0
2008 뻥튀기된 동영상 파일 제자리로돌리기 ㅠㅠ 1 맹구탱위 2014.06.21 5331 0
2007 다른파일을 mp4로 바꾸는법 1 컴맹이 2014.06.03 5312 0
2006 영자님 부탁이 있어요 - ! 1 류오 2013.11.26 5264 0
2005 인코딩 색상 보정시.. 말이죠 2 쿠오오 2014.12.04 5225 0
2004 다음팟플레이어에서 화면 건너뛰기 할 때 2 file sundaymorning 2014.07.06 5209 0
2003 2패스 사용하면 오류가 발생하네요 3 타키야스 2014.05.14 5208 0
Board Pagination Prev 1 ... 7 8 9 10 11 12 13 14 15 16 ... 113 Next
/ 113