Skip to menu

본문시작

방문자

Total : 8,252,896
today : 2,665
yesterday : 12,124

Pageview

Total : 48,847,747
today : 7,094
yesterday : 72,902


Views 1262 Votes 0 Comment 2
?

Shortcut

PrevPrev Article

NextNext Article

Larger Font Smaller Font Up Down Go comment Print
?

Shortcut

PrevPrev Article

NextNext Article

Larger Font Smaller Font Up Down Go comment Print

mkv→mp4 변환어떻게 해야하나요??

 

General

Unique ID                      : 304421484174026130582497789430036426574 (0xE50571F9301CC138CBC37E9E0ADBEF4E)

Complete name                  : C:\Users\sangs\Desktop\2wei herz.mkv

Format                         : Matroska

Format version                 : Version 4

File size                      : 1.61 GiB

Duration                       : 23 min 38 s

Overall bit rate mode          : Variable

Overall bit rate               : 9 750 kb/s

Movie name                     : [ReinForce] Fate/Kaleid Liner Prisma Illya Zwei Herz! - 01 (BDRip 1920x1080 x264 FLAC)

Encoded date                   : UTC 2015-10-08 09:58:05

Writing application            : mkvmerge v8.3.0 ('Over the Horizon') 64bit

Writing library                : libebml v1.3.1 + libmatroska v1.4.2

 

Video

ID                             : 1

Format                         : AVC

Format/Info                    : Advanced Video Codec

Format profile                 : High@L4

Format settings                : CABAC / 4 Ref Frames

Format settings, CABAC         : Yes

Format settings, ReFrames      : 4 frames

Codec ID                       : V_MPEG4/ISO/AVC

Duration                       : 23 min 38 s

Bit rate                       : 9 006 kb/s

Width                          : 1 920 pixels

Height                         : 1 080 pixels

Display aspect ratio           : 16:9

Frame rate mode                : Constant

Frame rate                     : 23.976 (24000/1001) FPS

Color space                    : YUV

Chroma subsampling             : 4:2:0

Bit depth                      : 8 bits

Scan type                      : Progressive

Bits/(Pixel*Frame)             : 0.181

Stream size                    : 1.49 GiB (92%)

Writing library                : x264 core 148

Encoding settings              : opencl=1 / cabac=1 / ref=4 / deblock=1:-2:-2 / analyse=0x3:0x113 / me=umh / subme=9 / psy=1 / psy_rd=0.70:0.00 / mixed_ref=0 / me_range=32 / chroma_me=1 / trellis=2 / 8x8dct=1 / cqm=0 / deadzone=21,11 / fast_pskip=1 / chroma_qp_offset=-2 / threads=8 / lookahead_threads=1 / sliced_threads=0 / nr=0 / decimate=1 / interlaced=0 / bluray_compat=0 / constrained_intra=0 / bframes=9 / b_pyramid=2 / b_adapt=2 / b_bias=0 / direct=3 / weightb=1 / open_gop=0 / weightp=2 / keyint=250 / keyint_min=23 / scenecut=40 / intra_refresh=0 / rc_lookahead=40 / rc=crf / mbtree=1 / crf=16.0 / qcomp=0.70 / qpmin=10 / qpmax=20 / qpstep=4 / ip_ratio=1.40 / aq=1:1.00

Default                        : Yes

Forced                         : No

 

Audio

ID                             : 2

Format                         : FLAC

Format/Info                    : Free Lossless Audio Codec

Codec ID                       : A_FLAC

Duration                       : 23 min 38 s

Bit rate mode                  : Variable

Bit rate                       : 741 kb/s

Channel(s)                     : 2 channels

Channel layout                 : L R

Sampling rate                  : 48.0 kHz

Frame rate                     : 10.417 FPS (4608 SPF)

Bit depth                      : 16 bits

Compression mode               : Lossless

Stream size                    : 125 MiB (8%)

Writing library                : Lavf56.40.101

Language                       : Japanese

Default                        : Yes

Forced                         : No

 

TV로 볼려하는데 어떤식으로 하는게 좋을까요??

화질유지하거나 좋게하는법 좀 알려주세요!!

  • ?
    정태훈 2019.02.08 15:51

    1. 파일 변환은 프리셋에서 (파일변환) - MP4.xml을 사용하시면 됩니다.

     

    2. 일반적으로 화질을 향상시키는 방법이란, 영상의 문제를 파악하고, 디테일을 최대한 유지하면서 노이즈를 억누르고, 인터레이싱을 교정하고, 블록킹, 링잉 등의 아티팩트를 제거하는 작업입니다. TV와 PC의 색영역이 다르다면 그에 맞추어 색영역도 설정해주셔야겠지요. 자동으로 어떻게 하기는 힘드니, 영상을 보면서 문제점을 파악하시고 적절한 필터를 사용하는 방법을 배우셔야합니다.

     

    엄밀히 말하자면 원본 영상보다 화질이 좋아진다는 것은 불가능합니다.

     

    SRGAN과 같이 인공신경망을 이용한 추측을 통해 영상을 재구성해보려는 시도는 있지만, 대량의 이미지를 학습시키고 모델을 이용하여 이미지를 처리하는데에 요구되는 PC자원 때문에 아직 개인이 사용하기는 어렵습니다.(GTX 1080Ti 정도가 권장되며, VRAM이 모자라면 처리 가능한 이미지 해상도가 크게 제한됩니다.)

     

    만화 영화에는 제한적으로 waifu2x라는 프로젝트를 이용해볼만합니다. 학습이 된 모델을 제공해주기도 하고, GUI 프론트엔드(쉘, 껍데기)가 제공되는 앱도 일부 있습니다. 무엇보다 CPU로 처리를 해도 크게 부담 없을 정도의 모델을 사용합니다. 덕분에 아예 비디오 프레임 분해 - 처리 - 병합을 일괄로 해주는 Video2x라는 소프트웨어도 나와있습니다. 아무리 waifu2x가 가벼워도 영상 처리를 한다면 이미지가 초당 수십 장씩 나오니 가능하면 그래픽카드를 이용하시는걸 추천드립니다. 그리고 waifu2x의 아티팩트 제거 기능은 JPEG를 대상으로 제작했기 때문에 비디오 특유의 블록킹은 미리 제거하시는 것이 좋습니다.

    Waifu2x: https://github.com/nagadomi/waifu2x

    Video2x: https://github.com/K4YT3X/video2x

    영상 처리 예시: https://www.youtube.com/watch?v=ZKVyGXlHRHc

  • ?
    JohnMunga 2019.02.08 21:51

    MP4 포맷은 FLAC를 지원하지 않기 때문에 오디오는 AAC 코덱으로 변환해야 합니다.
    [빠른설정] 누르시고

    '파일 형식' - MP4

    '비디오 코덱' - 스트림 복사

    '오디오 코덱' - AAC, LC 선택

    '오디오 비트레이트' - 320
    '채널' - 스테레오
    '샘플 레이트 변경' - 체크 해제

     

    이렇게 맞춰주시고 오디오면 변환하면 됩니다.


List of Articles
No. Subject Author Date Views Votes
Notice [알림] 질문하시기 전에 지켜주셨으면 하는 것들 2 file sSTSs 2019.09.16 499 1
Notice [알림] 질문 먹튀하지 마시기 바랍니다 9 sSTSs 2018.10.12 3477 2
Notice 자유게시판에서는 자유롭게 글을 올리고 질문 및 답변을 할 수 있는 공간입니다. 1 샤나 2017.03.13 2491 0
1737 유튜브 영상의 화질을 개선할 방법좀 알려주시면 감사하겠습니다. 1 스플라인 2019.04.06 686 0
1736 인코딩 시 프레임 유지에 관련해서 질문드립니다. 2 file tang 2019.04.05 637 0
1735 이 영상은 어떤설정으로 인코딩해야 좋을까요? 2 file Forgotten 2019.04.03 1014 0
1734 싱크조절 가능한가요? 1 라니카이 2019.04.02 443 0
1733 영상 업스케일링 하는법 2 heimish77 2019.04.01 641 0
1732 고수님 부탁드려요. 휴대폰에서 음성이 안나와서요. 안설 2019.04.01 258 0
1731 두가지 질문 올립니다. toyota 2019.03.31 229 0
1730 영상 싱크가 안맞습니다. 당핑 2019.03.28 902 0
1729 대형빔프로젝터에서 사용하려고 사이즈변경을하려고합니다. 1 초보편집사 2019.03.27 414 0
1728 mov -> mp4 변환시 영상이 자동으로 회전되고 화질이 깨집니다 file 캐나다살이 2019.03.27 578 0
1727 mkv 파일 언어 선택후 인코딩 오류 file 삼데 2019.03.25 522 0
1726 영상2개와 자막2개를 합치는 방법 있을까요? 1 여니 2019.03.21 618 0
1725 해상도 낮은영상 - 자막해상도만 올릴수 있나요? 2 착한동구 2019.03.20 365 0
1724 인코딩 할 시에 영상안에 있는 음성 언어 선택이 안 됩니다. 2 file 샤나인코더러브 2019.03.20 370 0
1723 비디오 퀄리트 수치 질문 4 file 다빈치 2019.03.16 1561 0
1722 ts파일 인코딩 시 동일한 화면이 화면 구석에 함께 인코딩됩니다 2 file 훈냥 2019.03.15 442 0
1721 이미 인코딩되어있는 동영상화질 높이는법! 1 dkfktl 2019.03.15 1532 0
1720 MXF파일 변환문제입니다 도와주세요! 1920x1080 1 오드 2019.03.15 571 0
1719 원본영상에 자막만 입히는 설정 2 file 랑맘 2019.03.14 1009 0
1718 원래 키라라를 쓰고 있었습니다 1 블루문6767 2019.03.14 352 0
Board Pagination Prev 1 ... 7 8 9 10 11 12 13 14 15 16 ... 98 Next
/ 98