Skip to menu

본문시작

방문자

Total : 7,534,598
today : 8,185
yesterday : 10,470

Pageview

Total : 44,648,488
today : 46,065
yesterday : 64,473


?

Shortcut

PrevPrev Article

NextNext Article

Larger Font Smaller Font Up Down Go comment Print Attachment
?

Shortcut

PrevPrev Article

NextNext Article

Larger Font Smaller Font Up Down Go comment Print Attachment

샤나인코더 고급설정 이렇게 했는데 단점이라던가 있을까요?

고급설정에 대해 잘 아시는 분 알려주시면 좋겠습니다!!

 

 

 

 

고급설정 1.png고급설정 2.png고급설정 3.png

 

 

 

  • ?
    핥아버지 2019.04.24 04:11

    ref가 너무 많은거 같아요 3~5사이가 좋아요

    hex를 umh 이상으로 바꾸시고 no fast pskip 이거 체크

    근데 저런것들 보다는 비트레이트를 적당히 주시는게 제일 좋아요 

    퀄리티 20~24 구간 인코딩 하시거나 2pass 하시고

    전체 인코딩 하시는게 좋죠

    소장용이라면 인코더 Megui 추천해요

     

  • ?

    핥아버지님이 말씀하신대로 해봤는데도 위의 설정이 용량이 적고 화질도 좋게 보이는데 혹시 비교 가능하신가요??

    무슨 차이 때문에 이런건지 궁금합니다.. 

     

    안좋은거.jpg

    Stream size                    : 259 MiB (89%)

    Encoding settings              : cabac=1 / ref=5 / deblock=1:0:0 / analyse=0x3:0x113 / me=hex / subme=7 / psy=1 / psy_rd=1.00:0.00 / mixed_ref=1 / me_range=16 / chroma_me=1 / trellis=0 / 8x8dct=1 / cqm=0 / deadzone=21,11 / fast_pskip=0 / chroma_qp_offset=-2 / threads=12 / lookahead_threads=2 / sliced_threads=0 / nr=0 / decimate=1 / interlaced=0 / bluray_compat=0 / constrained_intra=0 / bframes=3 / b_pyramid=2 / b_adapt=2 / b_bias=0 / direct=1 / weightb=1 / open_gop=0 / weightp=2 / keyint=250 / keyint_min=25 / scenecut=40 / intra_refresh=0 / rc_lookahead=40 / rc=crf / mbtree=1 / crf=20.0 / qcomp=0.60 / qpmin=0 / qpmax=69 / qpstep=4 / ip_ratio=1.40 / aq=1:1.00

     

     

    좋은거.jpg

    Stream size                    : 236 MiB (88%)

    Encoding settings              : cabac=1 / ref=10 / deblock=1:1:1 / analyse=0x3:0x113 / me=hex / subme=7 / psy=1 / psy_rd=1.00:0.00 / mixed_ref=1 / me_range=16 / chroma_me=1 / trellis=2 / 8x8dct=1 / cqm=0 / deadzone=21,11 / fast_pskip=1 / chroma_qp_offset=-2 / threads=12 / lookahead_threads=2 / sliced_threads=0 / nr=0 / decimate=1 / interlaced=0 / bluray_compat=0 / constrained_intra=0 / bframes=5 / b_pyramid=2 / b_adapt=1 / b_bias=0 / direct=1 / weightb=1 / open_gop=0 / weightp=2 / keyint=250 / keyint_min=25 / scenecut=40 / intra_refresh=0 / rc_lookahead=40 / rc=crf / mbtree=1 / crf=20.0 / qcomp=0.60 / qpmin=0 / qpmax=69 / qpstep=4 / ip_ratio=1.40 / aq=1:0.60

  • ?
    핥아버지 2019.04.25 20:53
    ref 5이상 넘어가면 시간이 많이 걸릴거고 5부터는 레벨도 4.2 이상 줘야 될거에요
    보통 블루레이 원본이 20~50기가정도 될텐데 ref10보다는 hevc코덱으로 인코딩 하거나
    me=umh나 me=tesa 가 같은용량일때 화질향상이 더 나을거에요
  • ?
    날라가 2019.04.30 05:16
    결국 그냥 고급설정 안하고 crf 20으로 했습니다!!
    이상하게 고급설정을 하면 화질이 더 안좋아지는 느낌이 드네요 ㅠ

    아무튼 답변 감사합니다!
  • ?
    피카츄워 2019.05.19 00:27

    딴차이보다 deblock=1:1:1 요거가 차이 같은데요, 애니매이션 인코딩은 많이안해봐서 모르겠지만 1:x:x 요기서 x가 올라갈수록 부드럽게 보인다고 알고있습니다. 1-3-3 같은 영화보면 날카롭다는 표현을 쓰고요. 애니 인코딩에 111 처럼 많이사용하는데 그 부드럽다는게 뭉갠다라고 표현들을 하더군요. deblock 으로 생긴 화질차이는 화질이 좋다 안좋다가 아닌 선호취향이라고 말하고싶습니다. 


List of Articles
No. Subject Author Date Views Votes
Notice 中国用户们,请阅读一下这个帖子(중국 유저분들에게 보내는 메시지) 2 구름미르 2019.05.14 1636 1
Notice [알림] 질문 먹튀하지 마시기 바랍니다 9 sSTSs 2018.10.12 2948 2
Notice 자유게시판에서는 자유롭게 글을 올리고 질문 및 답변을 할 수 있는 공간입니다. 1 샤나 2017.03.13 2384 0
1868 Hi10P영상을 어떻게 해야 손실을 최소로 해서 8비트로 바꿀수있나요? 1 앤떱 2013.09.01 22696 0
1867 샤나 인코더에서 지원하지 못하는 코덱이 있습니다. 2 file 비듬맨 2013.09.06 21510 0
1866 자막 색상 적용 문제 1 ... 2014.04.15 17496 0
1865 동영상합치기 2 희망이 2013.09.22 17232 0
1864 기능 추가 되었으면 하는 것 적습니다. 1 슈크림 2013.08.08 15441 0
1863 확장자 avi 및 mp4 질문드립니다. 3 모모 2013.08.12 14849 0
1862 저번에도 질문했었지만 재차 질문좀 ! 1 오유 2013.08.11 14581 0
1861 매게변수 질문좀 드려도 될까요? 2 LEE 2013.08.09 14383 0
1860 ▶◀ K3G클럽에서 조문왔습니다 1 히넬 2013.09.13 14376 0
1859 커맨드라인도 되게 해주시면 감사하겠습니다. 2 짱구6 2013.08.16 14331 0
1858 감사합니다 1 ㅂㅈㄷ 2013.08.04 14278 0
1857 이제 avisynth 스크립트는 더이상 지원 계획이 없으신가요??? 1 비듬맨 2013.08.12 14255 0
1856 게시판 열어주셨네요 ^^ 1 이미리아 2013.08.07 14184 0
1855 능소화님 프리셋 후기 6 초보인코더j 2014.01.30 14016 0
1854 3d 영상 및 자막 2 xviii 2013.09.02 13200 0
1853 32비트 xp에 avisynth 2.5를 쓰는데 avs 스크립트가 추가 안됩니다. 1 비듬맨 2013.09.06 13103 0
1852 디인터레이스 하면 줄이 이상해져요 10 file ㅂㅈㄷ 2013.12.30 13077 0
1851 인코딩 영상 합치면 오류가 납니다. 4 코드 2014.04.03 12815 0
1850 두 인코딩 셋팅 중 어느게 더 고화질 세팅인가요? 2 초보인코더j 2014.01.31 12780 0
1849 다음팟 인코더 쓰다 샤나인코더 씁니다. 좋아요. 3 Azooma 2014.01.29 12744 0
Board Pagination Prev 1 2 3 4 5 6 7 8 9 10 ... 94 Next
/ 94