Skip to menu

본문시작

방문자

Total : 7,257,281
today : 4,326
yesterday : 11,017

Pageview

Total : 42,892,420
today : 24,583
yesterday : 62,165


?

Shortcut

PrevPrev Article

NextNext Article

Larger Font Smaller Font Up Down Go comment Print
?

Shortcut

PrevPrev Article

NextNext Article

Larger Font Smaller Font Up Down Go comment Print

안녕하세요. 아래와 같이 인코딩 하였는데, 

삼성 갤럭시 휴대폰에서 영상은 나오고, 음성이 나오지 않아서요. 

감사합니다. 

 

General

Complete name                            : C:\Users\USER\Downloads\[코치 소개] 서민근 소개.mp4

Format                                   : MPEG-4

Format profile                           : Base Media / Version 2

Codec ID                                 : mp42 (mp41/mp42/isom)

File size                                : 55.4 MiB

Duration                                 : 23 s 56 ms

Overall bit rate mode                    : Variable

Overall bit rate                         : 20.1 Mb/s

Movie name                               : [코치 소개] 서민근

Movie_More                               : This video is about [코치 소개] 서민근

Performer                                : YoonheePark

Encoded date                             : UTC 2019-01-17 04:22:43

Tagged date                              : UTC 2019-01-17 04:23:31

thmb                                     : ??

 

Video

ID                                       : 2

Format                                   : AVC

Format/Info                              : Advanced Video Codec

Format profile                           : High@L5.1

Format settings, CABAC                   : Yes

Format settings, ReFrames                : 2 frames

Format settings, GOP                     : M=2, N=30

Codec ID                                 : avc1

Codec ID/Info                            : Advanced Video Coding

Duration                                 : 23 s 56 ms

Bit rate mode                            : Variable

Bit rate                                 : 19.8 Mb/s

Maximum bit rate                         : 768 kb/s

Width                                    : 3 840 pixels

Height                                   : 2 160 pixels

Display aspect ratio                     : 16:9

Frame rate mode                          : Constant

Frame rate                               : 29.970 (30000/1001) FPS

Color space                              : YUV

Chroma subsampling                       : 4:2:0

Bit depth                                : 8 bits

Scan type                                : Progressive

Bits/(Pixel*Frame)                       : 0.080

Stream size                              : 54.3 MiB (98%)

Title                                    : Core Media Video

Encoded date                             : UTC 2019-01-17 04:22:43

Tagged date                              : UTC 2019-01-17 04:23:31

Color range                              : Limited

Color primaries                          : BT.709

Transfer characteristics                 : BT.709

Matrix coefficients                      : BT.709

 

Audio

ID                                       : 1

Format                                   : AAC

Format/Info                              : Advanced Audio Codec

Format profile                           : LC

Codec ID                                 : 40

Duration                                 : 23 s 56 ms

Source duration                          : 23 s 104 ms

Bit rate mode                            : Constant

Bit rate                                 : 256 kb/s

Channel(s)                               : 2 channels

Channel positions                        : Front: L R

Sampling rate                            : 48.0 kHz

Frame rate                               : 46.875 FPS (1024 spf)

Compression mode                         : Lossy

Stream size                              : 716 KiB (1%)

Source stream size                       : 716 KiB (1%)

Title                                    : Core Media Audio

Language                                 : Korean

Encoded date                             : UTC 2019-01-17 04:22:43

Tagged date                              : UTC 2019-01-17 04:23:31

 

 

 

자세한 정보

 

General

Count                                    : 323

Count of stream of this kind             : 1

Kind of stream                           : General

Kind of stream                           : General

Stream identifier                        : 0

Count of video streams                   : 1

Count of audio streams                   : 1

Video_Format_List                        : AVC

Video_Format_WithHint_List               : AVC

Codecs Video                             : AVC

Audio_Format_List                        : AAC

Audio_Format_WithHint_List               : AAC

Audio codecs                             : AAC LC

Audio_Language_List                      : Korean

Complete name                            : C:\Users\USER\Downloads\[코치 소개] 서민근 소개.mp4

Folder name                              : C:\Users\USER\Downloads

File name                                : [코치 소개] 서민근 소개

File extension                           : mp4

Format                                   : MPEG-4

Format                                   : MPEG-4

Format/Extensions usually used           : mp4 m4v m4a m4b m4p 3gpp 3gp 3gpp2 3g2 k3g jpm jpx mqv ismv isma f4v

Commercial name                          : MPEG-4

Format profile                           : Base Media / Version 2

Internet media type                      : video/mp4

Codec ID                                 : mp42

Codec ID                                 : mp42 (mp41/mp42/isom)

Codec ID/Url                             : http://www.apple.com/quicktime/download/standalone.html

CodecID_Compatible                       : mp41/mp42/isom

Codec                                    : MPEG-4

Codec                                    : MPEG-4

Codec/Extensions usually used            : mp4 m4v m4a m4b m4p 3gpp 3gp 3gpp2 3g2 k3g jpm jpx mqv ismv isma f4v

File size                                : 58067589

File size                                : 55.4 MiB

File size                                : 55 MiB

File size                                : 55 MiB

File size                                : 55.4 MiB

File size                                : 55.38 MiB

Duration                                 : 23056

Duration                                 : 23 s 56 ms

Duration                                 : 23 s 56 ms

Duration                                 : 23 s 56 ms

Duration                                 : 00:00:23.056

Duration                                 : 00:00:23;01

Duration                                 : 00:00:23.056 (00:00:23;01)

Overall bit rate mode                    : VBR

Overall bit rate mode                    : Variable

Overall bit rate                         : 20148366

Overall bit rate                         : 20.1 Mb/s

Frame rate                               : 29.970

Frame rate                               : 29.970 FPS

Frame count                              : 691

Stream size                              : 362570

Stream size                              : 354 KiB (1%)

Stream size                              : 354 KiB

Stream size                              : 354 KiB

Stream size                              : 354 KiB

Stream size                              : 354.1 KiB

Stream size                              : 354 KiB (1%)

Proportion of this stream                : 0.00624

HeaderSize                               : 362151

DataSize                                 : 57705438

FooterSize                               : 0

IsStreamable                             : Yes

Title                                    : [코치 소개] 서민근

Title, more info                         : This video is about [코치 소개] 서민근

Movie name                               : [코치 소개] 서민근

Movie_More                               : This video is about [코치 소개] 서민근

Performer                                : YoonheePark

Encoded date                             : UTC 2019-01-17 04:22:43

Tagged date                              : UTC 2019-01-17 04:23:31

File creation date                       : UTC 2019-04-01 03:29:21.968

File creation date (local)               : 2019-04-01 12:29:21.968

File last modification date              : UTC 2019-04-01 03:29:26.715

File last modification date (local)      : 2019-04-01 12:29:26.715

thmb                                     : ??

 

Video

Count                                    : 334

Count of stream of this kind             : 1

Kind of stream                           : Video

Kind of stream                           : Video

Stream identifier                        : 0

StreamOrder                              : 1

ID                                       : 2

ID                                       : 2

Format                                   : AVC

Format/Info                              : Advanced Video Codec

Format/Url                               : http://developers.videolan.org/x264.html

Commercial name                          : AVC

Format profile                           : High@L5.1

Format settings                          : CABAC / 2 Ref Frames

Format settings, CABAC                   : Yes

Format settings, CABAC                   : Yes

Format settings, ReFrames                : 2

Format settings, ReFrames                : 2 frames

Format settings, GOP                     : M=2, N=30

Internet media type                      : video/H264

Codec ID                                 : avc1

Codec ID/Info                            : Advanced Video Coding

Codec                                    : AVC

Codec                                    : AVC

Codec/Family                             : AVC

Codec/Info                               : Advanced Video Codec

Codec/Url                                : http://developers.videolan.org/x264.html

Codec/CC                                 : avc1

Codec profile                            : High@L5.1

Codec settings                           : CABAC / 2 Ref Frames

Codec settings, CABAC                    : Yes

Codec_Settings_RefFrames                 : 2

Duration                                 : 23056

Duration                                 : 23 s 56 ms

Duration                                 : 23 s 56 ms

Duration                                 : 23 s 56 ms

Duration                                 : 00:00:23.056

Duration                                 : 00:00:23;01

Duration                                 : 00:00:23.056 (00:00:23;01)

Bit rate mode                            : VBR

Bit rate mode                            : Variable

Bit rate                                 : 19767880

Bit rate                                 : 19.8 Mb/s

Maximum bit rate                         : 768000

Maximum bit rate                         : 768 kb/s

Width                                    : 3840

Width                                    : 3 840 pixels

Height                                   : 2160

Height                                   : 2 160 pixels

Sampled_Width                            : 3840

Sampled_Height                           : 2160

Pixel aspect ratio                       : 1.000

Display aspect ratio                     : 1.778

Display aspect ratio                     : 16:9

Rotation                                 : 0.000

Frame rate mode                          : CFR

Frame rate mode                          : Constant

Frame rate                               : 29.970

Frame rate                               : 29.970 (30000/1001) FPS

FrameRate_Num                            : 30000

FrameRate_Den                            : 1001

Frame count                              : 691

Resolution                               : 8

Resolution                               : 8 bits

Colorimetry                              : 4:2:0

Color space                              : YUV

Chroma subsampling                       : 4:2:0

Chroma subsampling                       : 4:2:0

Bit depth                                : 8

Bit depth                                : 8 bits

Scan type                                : Progressive

Scan type                                : Progressive

Interlacement                            : PPF

Interlacement                            : Progressive

Bits/(Pixel*Frame)                       : 0.080

Stream size                              : 56971993

Stream size                              : 54.3 MiB (98%)

Stream size                              : 54 MiB

Stream size                              : 54 MiB

Stream size                              : 54.3 MiB

Stream size                              : 54.33 MiB

Stream size                              : 54.3 MiB (98%)

Proportion of this stream                : 0.98113

Title                                    : Core Media Video

Encoded date                             : UTC 2019-01-17 04:22:43

Tagged date                              : UTC 2019-01-17 04:23:31

Buffer size                              : 768000

Color range                              : Limited

colour_description_present               : Yes

Color primaries                          : BT.709

Transfer characteristics                 : BT.709

Matrix coefficients                      : BT.709

 

Audio

Count                                    : 272

Count of stream of this kind             : 1

Kind of stream                           : Audio

Kind of stream                           : Audio

Stream identifier                        : 0

StreamOrder                              : 0

ID                                       : 1

ID                                       : 1

Format                                   : AAC

Format/Info                              : Advanced Audio Codec

Commercial name                          : AAC

Format profile                           : LC

Codec ID                                 : 40

Codec                                    : AAC LC

Codec                                    : AAC LC

Codec/Family                             : AAC

Codec/CC                                 : 40

Duration                                 : 23056

Duration                                 : 23 s 56 ms

Duration                                 : 23 s 56 ms

Duration                                 : 23 s 56 ms

Duration                                 : 00:00:23.056

Duration                                 : 00:00:23:00

Duration                                 : 00:00:23.056 (00:00:23:00)

Source duration                          : 23104

Source duration                          : 23 s 104 ms

Source duration                          : 23 s 104 ms

Source duration                          : 23 s 104 ms

Source duration                          : 00:00:23.104

Bit rate mode                            : CBR

Bit rate mode                            : Constant

Bit rate                                 : 256000

Bit rate                                 : 256 kb/s

Channel(s)                               : 2

Channel(s)                               : 2 channels

Channel positions                        : Front: L R

Channel positions                        : 2/0/0

ChannelLayout                            : L R

Samples per frame                        : 1024

Sampling rate                            : 48000

Sampling rate                            : 48.0 kHz

Samples count                            : 1106688

Frame rate                               : 46.875

Frame rate                               : 46.875 FPS (1024 spf)

Frame count                              : 1081

Source frame count                       : 1083

Compression mode                         : Lossy

Compression mode                         : Lossy

Stream size                              : 733026

Stream size                              : 716 KiB (1%)

Stream size                              : 716 KiB

Stream size                              : 716 KiB

Stream size                              : 716 KiB

Stream size                              : 715.8 KiB

Stream size                              : 716 KiB (1%)

Proportion of this stream                : 0.01262

Source stream size                       : 733429

Source stream size                       : 716 KiB (1%)

Source stream size                       : 716 KiB

Source stream size                       : 716 KiB

Source stream size                       : 716 KiB

Source stream size                       : 716.2 KiB

Source stream size                       : 716 KiB (1%)

Source_StreamSize_Proportion             : 0.01263

Title                                    : Core Media Audio

Language                                 : ko

Language                                 : Korean

Language                                 : Korean

Language                                 : ko

Language                                 : kor

Language                                 : ko

Encoded date                             : UTC 2019-01-17 04:22:43

Tagged date                              : UTC 2019-01-17 04:23:31

 

List of Articles
No. Subject Author Date Views Votes
Notice 中国用户们,请阅读一下这个帖子(중국 유저분들에게 보내는 메시지) update 구름미르 2019.05.14 1259 1
Notice [알림] 질문 먹튀하지 마시기 바랍니다 9 sSTSs 2018.10.12 2693 2
Notice 자유게시판에서는 자유롭게 글을 올리고 질문 및 답변을 할 수 있는 공간입니다. 1 update 샤나 2017.03.13 2348 0
1813 Hi10P영상을 어떻게 해야 손실을 최소로 해서 8비트로 바꿀수있나요? 1 앤떱 2013.09.01 22692 0
1812 샤나 인코더에서 지원하지 못하는 코덱이 있습니다. 2 file 비듬맨 2013.09.06 21507 0
1811 자막 색상 적용 문제 1 ... 2014.04.15 17492 0
1810 동영상합치기 2 희망이 2013.09.22 17213 0
1809 기능 추가 되었으면 하는 것 적습니다. 1 슈크림 2013.08.08 15439 0
1808 확장자 avi 및 mp4 질문드립니다. 3 모모 2013.08.12 14835 0
1807 저번에도 질문했었지만 재차 질문좀 ! 1 오유 2013.08.11 14581 0
1806 매게변수 질문좀 드려도 될까요? 2 LEE 2013.08.09 14379 0
1805 ▶◀ K3G클럽에서 조문왔습니다 1 히넬 2013.09.13 14375 0
1804 커맨드라인도 되게 해주시면 감사하겠습니다. 2 짱구6 2013.08.16 14329 0
1803 감사합니다 1 ㅂㅈㄷ 2013.08.04 14278 0
1802 이제 avisynth 스크립트는 더이상 지원 계획이 없으신가요??? 1 비듬맨 2013.08.12 14255 0
1801 게시판 열어주셨네요 ^^ 1 이미리아 2013.08.07 14184 0
1800 능소화님 프리셋 후기 6 초보인코더j 2014.01.30 14005 0
1799 3d 영상 및 자막 2 xviii 2013.09.02 13198 0
1798 32비트 xp에 avisynth 2.5를 쓰는데 avs 스크립트가 추가 안됩니다. 1 비듬맨 2013.09.06 13103 0
1797 디인터레이스 하면 줄이 이상해져요 10 file ㅂㅈㄷ 2013.12.30 13061 0
1796 두 인코딩 셋팅 중 어느게 더 고화질 세팅인가요? 2 초보인코더j 2014.01.31 12776 0
1795 다음팟 인코더 쓰다 샤나인코더 씁니다. 좋아요. 3 Azooma 2014.01.29 12738 0
1794 인코딩 영상 합치면 오류가 납니다. 4 코드 2014.04.03 12729 0
Board Pagination Prev 1 2 3 4 5 6 7 8 9 10 ... 91 Next
/ 91