메뉴 건너뛰기

본문시작

방문자

전체 : 5,072,851
오늘 : 7,043
어제 : 8,960

페이지뷰

전체 : 33,058,392
오늘 : 28,392
어제 : 38,225


?

단축키

Prev이전 문서

Next다음 문서

크게 작게 위로 아래로 댓글로 가기 인쇄 첨부
?

단축키

Prev이전 문서

Next다음 문서

크게 작게 위로 아래로 댓글로 가기 인쇄 첨부

https://shana.pe.kr/shanaencoder_preset/29260

 

위 링크에 있는 프리셋을 다운 받아 적용해봤습니다.

 

첫 파일은 매우 깔끔하게 잘 나왔는데요.

 

그 다음부터는 잘 되지 않고 화질도 저하된채로 나옵니다 ㅠㅠ

 

20181204_221840.png

 

 

기본모드, 개별모드 다해봤는데도 잘 안되고,

 

출력된 파일 정보 그대로 나름 적용해봤는데 화질이 첫번째파일만큼 깔끔하게 나오지 않습니다 ㅠㅠ

 

 

혹시 도움이 되실까 싶어 첫번째 출력 파일 정보와  두번째 출력 파일 정보를 올립니다.ㅠㅠ

 

 

1. 첫번째 출력 파일 정보

 

General
Complete name                            : C:\Users\my\Desktop\[SHANA]475_0005_01 (2).avi
Format                                   : AVI
Format/Info                              : Audio Video Interleave
File size                                : 79.8 MiB
Duration                                 : 1mn 6s
Overall bit rate                         : 10.1 Mbps
Writing application                      : ShanaEncoder

Video
ID                                       : 0
Format                                   : AVC
Format/Info                              : Advanced Video Codec
Format profile                           : Baseline@L3.2
Format settings, CABAC                   : No
Format settings, ReFrames                : 1 frame
Codec ID                                 : H264
Duration                                 : 1mn 6s
Bit rate                                 : 10 000 Kbps
Width                                    : 1 280 pixels
Height                                   : 720 pixels
Display aspect ratio                     : 16:9
Frame rate mode                          : Variable
Frame rate                               : 60.000 fps
Color space                              : YUV
Chroma subsampling                       : 4:2:0
Bit depth                                : 8 bits
Scan type                                : Progressive
Bits/(Pixel*Frame)                       : 0.181
Stream size                              : 78.7 MiB (99%)
Writing library                          : x264 core 155 r2901 7d0ff22
Encoding settings                        : cabac=0 / ref=1 / deblock=1:0:0 / analyse=0x1:0x111 / me=hex / subme=2 / psy=1 / psy_rd=1.00:0.00 / mixed_ref=0 / me_range=16 / chroma_me=1 / trellis=0 / 8x8dct=0 / cqm=0 / deadzone=21,11 / fast_pskip=1 / chroma_qp_offset=0 / threads=12 / lookahead_threads=4 / sliced_threads=0 / nr=0 / decimate=1 / interlaced=0 / bluray_compat=0 / constrained_intra=0 / bframes=0 / weightp=0 / keyint=250 / keyint_min=25 / scenecut=40 / intra_refresh=0 / rc_lookahead=10 / rc=abr / mbtree=1 / bitrate=10000 / ratetol=1.0 / qcomp=0.60 / qpmin=0 / qpmax=69 / qpstep=4 / ip_ratio=1.40 / aq=1:1.00

Audio
ID                                       : 1
Format                                   : MPEG Audio
Format version                           : Version 1
Format profile                           : Layer 3
Mode                                     : Joint stereo
Mode extension                           : MS Stereo
Codec ID                                 : 55
Codec ID/Hint                            : MP3
Duration                                 : 1mn 6s
Bit rate mode                            : Constant
Bit rate                                 : 128 Kbps
Channel(s)                               : 2 channels
Sampling rate                            : 44.1 KHz
Compression mode                         : Lossy
Stream size                              : 1.02 MiB (1%)
Alignment                                : Aligned on interleaves
Interleave, duration                     : 26 ms (1.57 video frames)
Interleave, preload duration             : 52 ms

 

 

 

 

 

 

 

 

 

 

 

 

2. 두번째 출력 파일 정보

 

General
Complete name                            : C:\Users\my\Desktop\[SHANA]475_0005_01 (4).avi
Format                                   : AVI
Format/Info                              : Audio Video Interleave
File size                                : 80.8 MiB
Duration                                 : 1mn 6s
Overall bit rate                         : 10.2 Mbps
Writing application                      : ShanaEncoder

Video
ID                                       : 0
Format                                   : AVC
Format/Info                              : Advanced Video Codec
Format profile                           : Baseline@L3.2
Format settings, CABAC                   : No
Format settings, ReFrames                : 1 frame
Codec ID                                 : H264
Duration                                 : 1mn 6s
Bit rate                                 : 10 000 Kbps
Width                                    : 1 920 pixels
Height                                   : 1 080 pixels
Display aspect ratio                     : 16:9
Frame rate mode                          : Variable
Frame rate                               : 60.000 fps
Color space                              : YUV
Chroma subsampling                       : 4:2:0
Bit depth                                : 8 bits
Scan type                                : Progressive
Bits/(Pixel*Frame)                       : 0.080
Stream size                              : 78.6 MiB (97%)
Writing library                          : x264 core 155 r2901 7d0ff22
Encoding settings                        : cabac=0 / ref=1 / deblock=0:-2:-2 / analyse=0x1:0x131 / me=umh / subme=11 / psy=1 / psy_rd=1.00:0.00 / mixed_ref=0 / me_range=32 / chroma_me=1 / trellis=2 / 8x8dct=0 / cqm=0 / deadzone=21,11 / fast_pskip=1 / chroma_qp_offset=-2 / threads=12 / lookahead_threads=1 / sliced_threads=0 / nr=0 / decimate=1 / interlaced=0 / bluray_compat=0 / constrained_intra=0 / bframes=0 / weightp=0 / keyint=255 / keyint_min=25 / scenecut=40 / intra_refresh=0 / rc_lookahead=50 / rc=abr / mbtree=1 / bitrate=10000 / ratetol=1.0 / qcomp=0.60 / qpmin=0 / qpmax=69 / qpstep=4 / ip_ratio=1.40 / aq=1:1.00

Audio
ID                                       : 1
Format                                   : AC-3
Format/Info                              : Audio Coding 3
Mode extension                           : CM (complete main)
Format settings, Endianness              : Big
Codec ID                                 : 2000
Duration                                 : 1mn 6s
Bit rate mode                            : Constant
Bit rate                                 : 256 Kbps
Channel(s)                               : 2 channels
Channel positions                        : Front: L R
Sampling rate                            : 48.0 KHz
Bit depth                                : 16 bits
Compression mode                         : Lossy
Stream size                              : 2.03 MiB (3%)
Alignment                                : Aligned on interleaves
Interleave, duration                     : 32 ms (1.92 video frames)
Interleave, preload duration             : 64 ms

 

 

 

 

 

뭐가 잘못된걸까요?ㅠㅠ

 

하루종일 시도해봐도 답이 나오지 않습니다 ㅠㅠ

 

살려주세요 ㅠㅠ


List of Articles
번호 제목 글쓴이 날짜 조회 수 추천 수
공지 [알림] 질문 먹튀하지 마시기 바랍니다 7 sSTSs 2018.10.12 845 1
공지 [자막] 색상코드표 입니다. 능소화 2017.04.13 1045 0
공지 ※ ※ 백신으로 인한 바이러스/멜웨어 오진에 관하여...※ ※ 4 능소화 2017.03.29 795 1
공지 인코딩 오류나는 파일은 좌측 오류 파일 보고 메뉴를 이용하세요. 샤나 2017.03.13 1421 0
1613 인코딩설정값지우는방법아시는분?> newfile 무도인파일짱짱맨 2018.12.12 3 0
1612 인코딩후 자막이 보이질 않습니다, 4 file 프로메테우스12412 2018.12.10 51 0
1611 영상 90도 회전과 화질 보존 3 file 간본효 2018.12.10 75 0
1610 샤나 인코더 [level 1.3] 수정 가능한가요? 1 식사동토박이 2018.12.10 30 0
1609 최신 업데이트후 '파일정보'가 안보입니다. 양지 2018.12.09 52 0
1608 샤나 인코딩시 자막 줄 간격문제 1 궁금한게많아 2018.12.09 48 0
1607 기본 인코딩후 트위터 영상 업로드시 소리가 안나네요. 2 file 공주 2018.12.08 53 0
1606 [버그?]병합시 첫번째 무음일경우 계속 무음으로 2 jiji 2018.12.08 48 0
1605 샤나 인코더 처음 써보는데요 저용량 프리셋은 어떻게 설정 해야하나요? 2 qazp1423 2018.12.08 127 0
1604 샤니인코더로 사진파일 워터마크 어떻게 삽입하나요? 2 sunung0110 2018.12.07 56 0
1603 인코더 초보자 질문하나 던집니다. 2 file 식사동토박이 2018.12.07 123 0
1602 인코딩후 자막이 보이지 않습니다 7 하모니 2018.12.07 85 0
1601 인코딩 1 신코타이 2018.12.05 77 0
» 프리셋 자료실에 있는 프리셋 적용이 처음에만 되었다가 지금은 되지 않습니다 ㅠㅠ file 라통통 2018.12.04 117 0
1599 LG 클래식 LED TV 프리셋 질문입니다 1 file leonsquall 2018.12.04 66 0
1598 ass자막 인코딩 관련 오류 질문드립니다. 1 file 모에크리퍼 2018.12.03 79 0
1597 인코딩이 안되는 영상이 있어 질문드립니다. file 계라니 2018.12.03 145 0
1596 HEVC(NVENC) 인코딩시 3840x2160 -> 3840x2176 으로 바뀜현상 3 JM 2018.12.02 127 0
1595 H.265 (NVENC) 인코딩시 적용 가능한 필터나 옵션이 있나요? 4 작안에샤나 2018.12.02 147 0
1594 2700x 1070ti 사용중인데 속도를 최고로 올리려면 어떻게 해야할까요? 1 감귤 2018.11.30 238 0
Board Pagination Prev 1 2 3 4 5 6 7 8 9 10 ... 81 Next
/ 81