메뉴 건너뛰기

본문시작

방문자

전체 : 32,024,785
오늘 : 7,972
어제 : 39,670
조회 수 80 추천 수 0 댓글 4
?

단축키

Prev이전 문서

Next다음 문서

크게 작게 위로 아래로 댓글로 가기 인쇄
?

단축키

Prev이전 문서

Next다음 문서

크게 작게 위로 아래로 댓글로 가기 인쇄

General

Complete name                            : L:\L. 다운로드\의문2\의문2.wmv

Format                                   : Windows Media

File size                                : 9.99 GiB

Duration                                 : 3 h 57 min

Overall bit rate mode                    : Constant

Overall bit rate                         : 6 009 kb/s

Maximum Overall bit rate                 : 6 048 kb/s

Encoded date                             : UTC 2014-06-11 06:15:23.421

Rating                                   : 5

 

Video

ID                                       : 2

Format                                   : VC-1

Format profile                           : Advanced@L3

Codec ID                                 : WVC1

Codec ID/Hint                            : Microsoft

Description of the codec                 : Windows Media Video 9 Advanced Profile

Duration                                 : 3 h 57 min

Bit rate mode                            : Constant

Bit rate                                 : 5 744 kb/s

Width                                    : 1 920 pixels

Height                                   : 1 080 pixels

Display aspect ratio                     : 16:9

Frame rate                               : 29.970 (29970/1000) FPS

Color space                              : YUV

Chroma subsampling                       : 4:2:0

Bit depth                                : 8 bits

Scan type                                : Progressive

Compression mode                         : Lossy

Bits/(Pixel*Frame)                       : 0.092

Stream size                              : 9.55 GiB (96%)

 

Audio

ID                                       : 1

Format                                   : WMA

Format profile                           : Pro

Codec ID                                 : 162

Codec ID/Info                            : Windows Media Audio

Description of the codec                 : Windows Media Audio 10 Professional - 256 kbps, 44 kHz, 2 channel 16 bit (A/V) 1-pass CBR

Duration                                 : 3 h 57 min

Bit rate mode                            : Constant

Bit rate                                 : 256 kb/s

Channel(s)                               : 2 channels

Sampling rate                            : 44.1 kHz

Bit depth                                : 16 bits

Stream size                              : 436 MiB (4%)

 

 

 

자세한 정보

 

General

Count                                    : 333

Count of stream of this kind             : 1

Kind of stream                           : General

Kind of stream                           : General

Stream identifier                        : 0

Count of video streams                   : 1

Count of audio streams                   : 1

Video_Format_List                        : VC-1

Video_Format_WithHint_List               : VC-1 (Microsoft)

Codecs Video                             : VC-1

Audio_Format_List                        : WMA

Audio_Format_WithHint_List               : WMA

Audio codecs                             : WMA3

Complete name                            : L:\L. 다운로드\의문2\의문2.wmv

Folder name                              : L:\L. 다운로드\의문2

File name                                : 의문2

File extension                           : wmv

Format                                   : Windows Media

Format                                   : Windows Media

Format/Extensions usually used           : asf wmv wma

Commercial name                          : Windows Media

Internet media type                      : video/x-ms-wmv

Codec                                    : Windows Media

Codec                                    : Windows Media

Codec/Extensions usually used            : asf wmv wma

File size                                : 10725633333

File size                                : 9.99 GiB

File size                                : 10 GiB

File size                                : 10.0 GiB

File size                                : 9.99 GiB

File size                                : 9.989 GiB

Duration                                 : 14278318

Duration                                 : 3 h 57 min

Duration                                 : 3 h 57 min 58 s 318 ms

Duration                                 : 3 h 57 min

Duration                                 : 03:57:58.318

Duration                                 : 03:57:58;09

Duration                                 : 03:57:58.318 (03:57:58;09)

Overall bit rate mode                    : CBR

Overall bit rate mode                    : Constant

Overall bit rate                         : 6009466

Overall bit rate                         : 6 009 kb/s

Maximum Overall bit rate                 : 6048272

Maximum Overall bit rate                 : 6 048 kb/s

Frame rate                               : 29.970

Frame rate                               : 29.970 FPS

Frame count                              : 427921

Stream size                              : 16842060

Stream size                              : 16.1 MiB (0%)

Stream size                              : 16 MiB

Stream size                              : 16 MiB

Stream size                              : 16.1 MiB

Stream size                              : 16.06 MiB

Stream size                              : 16.1 MiB (0%)

Proportion of this stream                : 0.00157

HeaderSize                               : 3523

DataSize                                 : 10725544050

Encoded date                             : UTC 2014-06-11 06:15:23.421

File creation date                       : UTC 2018-11-07 02:05:36.734

File creation date (local)               : 2018-11-07 11:05:36.734

File last modification date              : UTC 2018-11-07 02:12:27.305

File last modification date (local)      : 2018-11-07 11:12:27.305

 

Video

Count                                    : 334

Count of stream of this kind             : 1

Kind of stream                           : Video

Kind of stream                           : Video

Stream identifier                        : 0

StreamOrder                              : 1

ID                                       : 2

ID                                       : 2

Format                                   : VC-1

Commercial name                          : VC-1

Format profile                           : Advanced@L3

Internet media type                      : video/vc1

Codec ID                                 : WVC1

Codec ID/Hint                            : Microsoft

Description of the codec                 : Windows Media Video 9 Advanced Profile

Codec                                    : VC-1

Codec                                    : VC-1

Codec/Family                             : VC-1

Codec/Url                                : http://www.microsoft.com/windows/windowsmedia/format/codecdownload.aspx

Codec/CC                                 : WVC1

Codec profile                            : Advanced@L3

Codec description                        : Windows Media Video 9 Advanced Profile

Duration                                 : 14278312

Duration                                 : 3 h 57 min

Duration                                 : 3 h 57 min 58 s 312 ms

Duration                                 : 3 h 57 min

Duration                                 : 03:57:58.312

Duration                                 : 03:57:58;09

Duration                                 : 03:57:58.312 (03:57:58;09)

Bit rate mode                            : CBR

Bit rate mode                            : Constant

Bit rate                                 : 5744000

Bit rate                                 : 5 744 kb/s

Width                                    : 1920

Width                                    : 1 920 pixels

Height                                   : 1080

Height                                   : 1 080 pixels

Sampled_Width                            : 1920

Sampled_Height                           : 1080

Pixel aspect ratio                       : 1.000

Display aspect ratio                     : 1.778

Display aspect ratio                     : 16:9

Frame rate                               : 29.970

Frame rate                               : 29.970 (29970/1000) FPS

FrameRate_Num                            : 29970

FrameRate_Den                            : 1000

Frame count                              : 427921

Resolution                               : 8

Resolution                               : 8 bits

Colorimetry                              : 4:2:0

Color space                              : YUV

Chroma subsampling                       : 4:2:0

Chroma subsampling                       : 4:2:0

Bit depth                                : 8

Bit depth                                : 8 bits

Scan type                                : Progressive

Scan type                                : Progressive

Interlacement                            : PPF

Interlacement                            : Progressive

Compression mode                         : Lossy

Compression mode                         : Lossy

Bits/(Pixel*Frame)                       : 0.092

Stream size                              : 10251828016

Stream size                              : 9.55 GiB (96%)

Stream size                              : 10 GiB

Stream size                              : 9.5 GiB

Stream size                              : 9.55 GiB

Stream size                              : 9.548 GiB

Stream size                              : 9.55 GiB (96%)

Proportion of this stream                : 0.95583

 

---------------------------------------------------------------------------------

 

WVC1 코덱을 인코딩 하고 싶은데 되지 안네요.

mkv , h264, 비트레이트 5744kb로 해봐도 되지 않네요.

스트림 복사 이외에는 인코딩 되는게 없길래 궁금해서 여쭤봅니다.

WVC1 코덱을 인코딩 안되나요?

  • ?
    Nickname 2018.11.08 19:16
    샤나인코더는 WVC1 인코딩을 지원하지 않습니다. (디코딩만 지원)
  • ?
    sSTSs 2018.11.09 14:06

    WVC1인 원본을 H264로 인코딩하는 거라면 가능할 텐데요?

    인코딩이 실패한다면 목록에서 파일을 오른쪽 클릭 -> 기록 보기 내용을 여기 복붙해 주시죠.

  • ?
    아파손 2018.11.10 10:08
    인코딩이 되긴 하지만 인코딩이 된 영상을 틀면 녹색화면 밖에 나오지 않습니다.

    --------------------------------------------------------------------------------

    >> 작업 시작시간: 2018-11-10 오전 10:06:43

    * 인코딩 시작: 의문2.wmv

    Stream mapping:
    Stream #0:1 -> #0:0 (vc1 (native) -> h264 (libx264))
    Stream #0:0 -> #0:1 (wmapro (native) -> aac (libfdk_aac))
    [libx264 @ 000002cedbdcdac0] using cpu capabilities: MMX2 SSE2Fast SSSE3 SSE4.2 AVX FMA3 BMI2 AVX2
    [libx264 @ 000002cedbdcdac0] profile Main, level 4.0
    [libx264 @ 000002cedbdcdac0] 264 - core 155 r2901 7d0ff22 - H.264/MPEG-4 AVC codec - Copyleft 2003-2018 - http://www.videolan.org/x264.html - options: cabac=1 ref=3 deblock=1:0:0 analyse=0x1:0x111 me=hex subme=7 psy=1 psy_rd=1.00:0.00 mixed_ref=1 me_range=16 chroma_me=1 trellis=1 8x8dct=0 cqm=0 deadzone=21,11 fast_pskip=1 chroma_qp_offset=-2 threads=18 lookahead_threads=3 sliced_threads=0 nr=0 decimate=1 interlaced=0 bluray_compat=0 constrained_intra=0 bframes=3 b_pyramid=2 b_adapt=1 b_bias=0 direct=1 weightb=1 open_gop=0 weightp=2 keyint=250 keyint_min=25 scenecut=40 intra_refresh=0 rc_lookahead=20 rc=abr mbtree=1 bitrate=5744 ratetol=1.0 qcomp=0.60 qpmin=0 qpmax=69 qpstep=4 ip_ratio=1.40 aq=1:3.00
    Side data:
    cpb: bitrate max/min/avg: 0/0/5744000 buffer size: 0 vbv_delay: -1
    video:29kB audio:214kB subtitle:0kB other streams:0kB global headers:0kB muxing overhead: 2.194541%
    [libx264 @ 000002cedbdcdac0] frame I:2 Avg QP: 0.00 size: 480
    [libx264 @ 000002cedbdcdac0] frame P:68 Avg QP: 0.00 size: 78
    [libx264 @ 000002cedbdcdac0] frame B:201 Avg QP: 0.00 size: 111
    [libx264 @ 000002cedbdcdac0] consecutive B-frames: 1.1% 0.0% 0.0% 98.9%
    [libx264 @ 000002cedbdcdac0] mb I I16..4: 100.0% 0.0% 0.0%
    [libx264 @ 000002cedbdcdac0] mb P I16..4: 0.0% 0.0% 0.0% P16..4: 0.0% 0.0% 0.0% 0.0% 0.0% skip:100.0%
    [libx264 @ 000002cedbdcdac0] mb B I16..4: 0.0% 0.0% 0.0% B16..8: 0.0% 0.0% 0.0% direct: 0.0% skip:100.0%
    [libx264 @ 000002cedbdcdac0] final ratefactor: -27.84
    [libx264 @ 000002cedbdcdac0] coded y,uvDC,uvAC intra: 0.0% 0.0% 0.0% inter: 0.0% 0.0% 0.0%
    [libx264 @ 000002cedbdcdac0] i16 v,h,dc,p: 98% 0% 2% 0%
    [libx264 @ 000002cedbdcdac0] i8c dc,h,v,p: 100% 0% 0% 0%
    [libx264 @ 000002cedbdcdac0] Weighted P-Frames: Y:0.0% UV:0.0%
    [libx264 @ 000002cedbdcdac0] kb/s:25.21

    * 인코딩이 중지되었습니다.

    >> 속도 0.61x 진행시간 00:00:15

    ==================================================
  • ?
    sSTSs 2018.11.10 13:34

    뭐 일단... HD(720p) 이상의 해상도를 가진 영상은 x264 프로파일을 High로 놓고 인코딩하시기 바랍니다. 그리고 레벨은 직접 지정하지 마시고 'auto'로 놓으세요. 레벨은 해상도, 프레임 레이트, 최대 비트레이트와 관련이 있어서 직접 지정은 특별한 경우가 아니라면 할 필요가 없습니다.

    보니까 비트레이트 모드로 원본과 동일하게 5744를 비트레이트로 주고 1패스 인코딩하신 거 같은데, 프로파일이 Main이고 레벨이 4.0인 것 말고는 딱히 잘못된 설정은 없어 보입니다. x264는 오류가 거의 없는 인코더인데 좀 희한하군요. 프로파일과 레벨을 잘못 설정한다고 다 오류가 나는 건 아니라서 가능성은 별로 없긴 하지만, 일단 '혹시...?' 하고 의심되는 건 프로파일과 레벨입니다.

    만약 High에 auto로 주고도 실패한다면 원본 파일에 문제가 있거나(이게 가장 가능성이 큽니다.) 샤나에 포함된 x264의 문제가 됩니다. 원본 파일이 재생은 잘 되는지 확인하시고(seeking, 즉 재생 중 건너뛰기 같은 거 문제가 없는지, 끝까지 잘 재생은 되는지 등...) 원본 파일이 문제가 없는데도 계속 인코딩이 안 된다면 '오류 파일 보고' 게시판에 올려서 샤나님께 확인 받으시기 바랍니다.

    그리고 이건 오류와 직접적 관련은 없지만... 여담으로, wmv 파일을 인코딩하실 땐 될 수 있으면 mkv로 인코딩하십시오. 뭐 비디오와 오디오를 H264, AAC로 재인코딩하신다면 mp4도 상관은 없지만 mp4는 비디오와 오디오 코덱에 좀 까다로워서 wmv 같이 비표준 코덱으로 인코딩된 동영상은 mkv로 변환하시는 게 편할 겁니다. 심지어 문제 없는 wmv 동영상의 경우 스트림 복사로 그냥 파일 형식만 wmv -> mkv로 바꿀 수 있습니다. 물론 안의 비디오, 오디오들 코덱은 바뀌지 않습니다. 코덱을 꼭 H.264, AAC로 바꿔야 한다면 재인코딩밖엔 방법이 없겠지만요.


List of Articles
번호 제목 글쓴이 날짜 조회 수 추천 수
공지 [알림] 질문 먹튀하지 마시기 바랍니다 5 sSTSs 2018.10.12 569 0
공지 [자막] 색상코드표 입니다. 능소화 2017.04.13 978 0
공지 ※ ※ 백신으로 인한 바이러스/멜웨어 오진에 관하여...※ ※ 4 능소화 2017.03.29 748 1
공지 인코딩 오류나는 파일은 좌측 오류 파일 보고 메뉴를 이용하세요. 샤나 2017.03.13 1320 0
1578 동영상 화면비율만 변경하고자 할때 newfile cfny 2018.11.16 6 0
1577 FFmpeg 4.1 正式发布,支持 AV1 编码 MP4,shanaencoder会更新吗? 2 file 小樱 2018.11.15 60 0
1576 인코딩에 계속 실패 합니다. 3 update 아렌티 2018.11.14 90 0
1575 4.9 동영상 인코딩시 화질~ 올드보이 2018.11.13 133 0
1574 [Q] 영상사이즈 변경 문의 (4800) 3 181113 2018.11.13 72 0
1573 deband 필터랑 gradfun 필터 차이가 뭔가요? 2 ndh 2018.11.13 53 0
1572 인코딩시 색상 층이 나뉘어지는 등고선 현상....없앨수 있을까요? 2 file 곰3 2018.11.12 98 0
1571 crf모드로 인코딩을 하면 원래 이렇게 비트레이트가 치솟나요? 4 updatefile 1ㅇㅇ1 2018.11.11 107 0
1570 h264랑 hevc (nvenc)중에 뭐가 화질 더 좋나요? 5 ndh 2018.11.10 278 0
1569 원본 해상도가 변환하고자하는 해상도 보다 낮을땐 일일히 바꿔주는수밖에없나요 2 다크우 2018.11.10 136 0
1568 hevc (qsv) (nvenc)하고 하드웨어가속디코딩에서 qsv하고 nvenc랑 뭔차이인가요? 2 다크우 2018.11.09 151 0
1567 인코딩 오류 기록입니다 1 file 묻겠다 2018.11.09 189 0
1566 프리셋속도 차이에 궁금합니다 고수님들 1 file 사슴띠 2018.11.09 126 0
» WVC1 코덱(원본)도 인코딩이 안되는지 궁금합니다. 4 아파손 2018.11.08 80 0
1564 h263 코덱(원본)은 인코딩이 안되나요? 4 아파손 2018.11.08 168 0
1563 (이런 질문해도 괜찮은지 모르겠지만) 넷xxx 자막 추출. 1 미니미니 2018.11.07 155 0
1562 QSV를 이용해서 인코딩 하면 오류가 뜹니다. 1 file Joydream 2018.11.07 102 0
1561 윈10 사용자인데요 인코딩 속도가... 페르티노 2018.11.05 268 0
1560 샤나 인코더로 인코딩하면 베가스에서 인식이 안되는 이유가 무엇인지요 1 서툴대 2018.11.05 150 0
1559 4:3영상을 16:9로 만들때 박스부분을 이렇게 만드는게 가능한가요? 3 닉네임뭐할까 2018.11.04 133 0
Board Pagination Prev 1 2 3 4 5 6 7 8 9 10 ... 79 Next
/ 79