메뉴 건너뛰기

본문시작

방문자

전체 : 32,024,735
오늘 : 7,922
어제 : 39,670
조회 수 168 추천 수 0 댓글 4
?

단축키

Prev이전 문서

Next다음 문서

크게 작게 위로 아래로 댓글로 가기 인쇄
?

단축키

Prev이전 문서

Next다음 문서

크게 작게 위로 아래로 댓글로 가기 인쇄

General

Complete name                            : L:\의문\의문.mp4

Format                                   : MPEG-4

Format profile                           : Base Media

Codec ID                                 : isom (isom/iso2/mp41)

File size                                : 4.22 GiB

Duration                                 : 1 h 37 min

Overall bit rate mode                    : Variable

Overall bit rate                         : 6 195 kb/s

Writing application                      : Lavf57.71.100

 

Video

ID                                       : 1

Format                                   : MPEG-4 Visual

Format profile                           : Simple@L1

Format settings, BVOP                    : No

Format settings, QPel                    : No

Format settings, GMC                     : No warppoints

Format settings, Matrix                  : Default (H.263)

Codec ID                                 : 20

Duration                                 : 1 h 37 min

Bit rate mode                            : Constant

Bit rate                                 : 5 993 kb/s

Width                                    : 1 920 pixels

Height                                   : 1 080 pixels

Display aspect ratio                     : 16:9

Frame rate mode                          : Variable

Frame rate                               : 29.970 (29970/1000) FPS

Minimum frame rate                       : 3.191 FPS

Maximum frame rate                       : 29.970 FPS

Color space                              : YUV

Chroma subsampling                       : 4:2:0

Bit depth                                : 8 bits

Scan type                                : Progressive

Compression mode                         : Lossy

Bits/(Pixel*Frame)                       : 0.096

Stream size                              : 4.08 GiB (97%)

Writing library                          : Lavc57.89.100

 

Audio

ID                                       : 2

Format                                   : AAC

Format/Info                              : Advanced Audio Codec

Format profile                           : LC

Codec ID                                 : 40

Duration                                 : 1 h 37 min

Bit rate mode                            : Variable

Bit rate                                 : 192 kb/s

Maximum bit rate                         : 197 kb/s

Channel(s)                               : 2 channels

Channel positions                        : Front: L R

Sampling rate                            : 48.0 kHz

Frame rate                               : 46.875 FPS (1024 spf)

Compression mode                         : Lossy

Stream size                              : 135 MiB (3%)

Default                                  : Yes

Alternate group                          : 1

 

 

 

자세한 정보

 

General

Count                                    : 322

Count of stream of this kind             : 1

Kind of stream                           : General

Kind of stream                           : General

Stream identifier                        : 0

Count of video streams                   : 1

Count of audio streams                   : 1

Video_Format_List                        : MPEG-4 Visual

Video_Format_WithHint_List               : MPEG-4 Visual

Codecs Video                             : MPEG-4 Visual

Audio_Format_List                        : AAC

Audio_Format_WithHint_List               : AAC

Audio codecs                             : AAC LC

Complete name                            : L:\의문\의문.mp4

Folder name                              : L:\의문

File name                                : 의문

File extension                           : mp4

Format                                   : MPEG-4

Format                                   : MPEG-4

Format/Extensions usually used           : mp4 m4v m4a m4b m4p 3gpp 3gp 3gpp2 3g2 k3g jpm jpx mqv ismv isma f4v

Commercial name                          : MPEG-4

Format profile                           : Base Media

Internet media type                      : video/mp4

Codec ID                                 : isom

Codec ID                                 : isom (isom/iso2/mp41)

Codec ID/Url                             : http://www.apple.com/quicktime/download/standalone.html

CodecID_Compatible                       : isom/iso2/mp41

Codec                                    : MPEG-4

Codec                                    : MPEG-4

Codec/Extensions usually used            : mp4 m4v m4a m4b m4p 3gpp 3gp 3gpp2 3g2 k3g jpm jpx mqv ismv isma f4v

File size                                : 4533728739

File size                                : 4.22 GiB

File size                                : 4 GiB

File size                                : 4.2 GiB

File size                                : 4.22 GiB

File size                                : 4.222 GiB

Duration                                 : 5854607

Duration                                 : 1 h 37 min

Duration                                 : 1 h 37 min 34 s 607 ms

Duration                                 : 1 h 37 min

Duration                                 : 01:37:34.607

Duration                                 : 01:37:34;10

Duration                                 : 01:37:34.607 (01:37:34;10)

Overall bit rate mode                    : VBR

Overall bit rate mode                    : Variable

Overall bit rate                         : 6195092

Overall bit rate                         : 6 195 kb/s

Frame rate                               : 29.970

Frame rate                               : 29.970 FPS

Frame count                              : 175454

Stream size                              : 6503080

Stream size                              : 6.20 MiB (0%)

Stream size                              : 6 MiB

Stream size                              : 6.2 MiB

Stream size                              : 6.20 MiB

Stream size                              : 6.202 MiB

Stream size                              : 6.20 MiB (0%)

Proportion of this stream                : 0.00143

HeaderSize                               : 28

DataSize                                 : 4527225675

FooterSize                               : 6503036

IsStreamable                             : No

File creation date                       : UTC 2018-10-26 11:46:14.731

File creation date (local)               : 2018-10-26 20:46:14.731

File last modification date              : UTC 2018-10-26 12:47:48.626

File last modification date (local)      : 2018-10-26 21:47:48.626

Writing application                      : Lavf57.71.100

Writing application                      : Lavf57.71.100

 

Video

Count                                    : 334

Count of stream of this kind             : 1

Kind of stream                           : Video

Kind of stream                           : Video

Stream identifier                        : 0

StreamOrder                              : 0

ID                                       : 1

ID                                       : 1

Format                                   : MPEG-4 Visual

Commercial name                          : MPEG-4 Visual

Format profile                           : Simple@L1

Format settings, BVOP                    : No

Format settings, BVOP                    : No

Format settings, QPel                    : No

Format settings, QPel                    : No

Format settings, GMC                     : 0

Format settings, GMC                     : No warppoints

Format settings, Matrix                  : Default (H.263)

Format settings, Matrix                  : Default (H.263)

Internet media type                      : video/MP4V-ES

Codec ID                                 : 20

Codec                                    : MPEG-4V

Codec                                    : MPEG-4 Visual

Codec/Family                             : MPEG-4V

Codec/CC                                 : 20

Codec profile                            : Simple@L1

Codec settings, Packet bitstream         : No

Codec settings, BVOP                     : No

Codec settings, QPel                     : No

Codec settings, GMC                      : 0

Codec settings, GMC                      : No warppoints

Codec settings, Matrix                   : Default (H.263)

Duration                                 : 5854603

Duration                                 : 1 h 37 min

Duration                                 : 1 h 37 min 34 s 603 ms

Duration                                 : 1 h 37 min

Duration                                 : 01:37:34.603

Duration                                 : 01:37:34;10

Duration                                 : 01:37:34.603 (01:37:34;10)

Bit rate mode                            : CBR

Bit rate mode                            : Constant

Bit rate                                 : 5993364

Bit rate                                 : 5 993 kb/s

Width                                    : 1920

Width                                    : 1 920 pixels

Height                                   : 1080

Height                                   : 1 080 pixels

Sampled_Width                            : 1920

Sampled_Height                           : 1080

Pixel aspect ratio                       : 1.000

Display aspect ratio                     : 1.778

Display aspect ratio                     : 16:9

Rotation                                 : 0.000

Frame rate mode                          : VFR

Frame rate mode                          : Variable

Frame rate                               : 29.970

Frame rate                               : 29.970 (29970/1000) FPS

FrameRate_Num                            : 29970

FrameRate_Den                            : 1000

Minimum frame rate                       : 3.191

Minimum frame rate                       : 3.191 FPS

Maximum frame rate                       : 29.970

Maximum frame rate                       : 29.970 FPS

Frame count                              : 175454

Resolution                               : 8

Resolution                               : 8 bits

Colorimetry                              : 4:2:0

Color space                              : YUV

Chroma subsampling                       : 4:2:0

Chroma subsampling                       : 4:2:0

Bit depth                                : 8

Bit depth                                : 8 bits

Scan type                                : Progressive

Scan type                                : Progressive

Interlacement                            : PPF

Interlacement                            : Progressive

Compression mode                         : Lossy

Compression mode                         : Lossy

Bits/(Pixel*Frame)                       : 0.096

Stream size                              : 4386095602

Stream size                              : 4.08 GiB (97%)

Stream size                              : 4 GiB

Stream size                              : 4.1 GiB

Stream size                              : 4.08 GiB

Stream size                              : 4.085 GiB

Stream size                              : 4.08 GiB (97%)

Proportion of this stream                : 0.96744

Writing library                          : Lavc57.89.100

Writing library                          : Lavc57.89.100

 

 

-----------------------------------------------------------------------

 

이게 코덱 정보인데 h263코덱은 인코딩이 안되나요? 궁금합니다.

  • ?
    sSTSs 2018.11.10 01:28

    되는 걸로 알고 있습니다.

    직접 해보시고 문제가 발생하면 말씀하세요.

  • ?
    아파손 2018.11.10 10:19
    인코딩 버튼을 누르면 '진행상황'에선 '잠시만 기다려주세요.' 문구가 뜨곤 변화 없이 계속 이러고 있습니다. 인코딩 기록도 올려 드리도록 하겠습니다.
    어떤 문제가 있는건지 궁금합니다.
    매개변수도 올려달라고 하시면 올리겠습니다.

    ------------------------------------------------------------------

    >> 작업 시작시간: 2018-11-10 오전 10:16:02

    * 인코딩 시작: 의문.mp4

    Stream mapping:
    Stream #0:0 -> #0:0 (mpeg4 (native) -> hevc (hevc_nvenc))
    Stream #0:1 -> #0:1 (aac (native) -> aac (libfdk_aac))
  • ?
    sSTSs 2018.11.10 13:44

    HEVC(NVENC)로 하드웨어 인코딩을 하시는군요. 오류 기록은 그냥 디먹싱(비디오와 오디오를 분리하는 것) 작업을 하다가 오류가 발생해 ffmpeg가 멈춰버린 것 같습니다.

     

    근데 희한하네요. 문제가 발생할 일이 거의 없는 인코더들이 본인에게만 자꾸 문제를 일으키는 걸 보니, 샤나 파일들에 뭔가 문제가 생겼거나 원본들이 다 꽝이거나 한 것 같습니다. 혹시 모르니 샤나를 지웠다가 다시 설치해서 시도해 보시기 바랍니다.

  • ?
    sSTSs 2018.11.10 14:06
    그리고, 갖고 계신 원본 동영상은 H263이 아니라 그냥 MPEG-4 영상입니다.

List of Articles
번호 제목 글쓴이 날짜 조회 수 추천 수
공지 [알림] 질문 먹튀하지 마시기 바랍니다 5 sSTSs 2018.10.12 569 0
공지 [자막] 색상코드표 입니다. 능소화 2017.04.13 978 0
공지 ※ ※ 백신으로 인한 바이러스/멜웨어 오진에 관하여...※ ※ 4 능소화 2017.03.29 748 1
공지 인코딩 오류나는 파일은 좌측 오류 파일 보고 메뉴를 이용하세요. 샤나 2017.03.13 1320 0
1578 동영상 화면비율만 변경하고자 할때 newfile cfny 2018.11.16 6 0
1577 FFmpeg 4.1 正式发布,支持 AV1 编码 MP4,shanaencoder会更新吗? 2 file 小樱 2018.11.15 60 0
1576 인코딩에 계속 실패 합니다. 3 update 아렌티 2018.11.14 90 0
1575 4.9 동영상 인코딩시 화질~ 올드보이 2018.11.13 133 0
1574 [Q] 영상사이즈 변경 문의 (4800) 3 181113 2018.11.13 72 0
1573 deband 필터랑 gradfun 필터 차이가 뭔가요? 2 ndh 2018.11.13 53 0
1572 인코딩시 색상 층이 나뉘어지는 등고선 현상....없앨수 있을까요? 2 file 곰3 2018.11.12 98 0
1571 crf모드로 인코딩을 하면 원래 이렇게 비트레이트가 치솟나요? 4 updatefile 1ㅇㅇ1 2018.11.11 107 0
1570 h264랑 hevc (nvenc)중에 뭐가 화질 더 좋나요? 5 ndh 2018.11.10 278 0
1569 원본 해상도가 변환하고자하는 해상도 보다 낮을땐 일일히 바꿔주는수밖에없나요 2 다크우 2018.11.10 136 0
1568 hevc (qsv) (nvenc)하고 하드웨어가속디코딩에서 qsv하고 nvenc랑 뭔차이인가요? 2 다크우 2018.11.09 151 0
1567 인코딩 오류 기록입니다 1 file 묻겠다 2018.11.09 189 0
1566 프리셋속도 차이에 궁금합니다 고수님들 1 file 사슴띠 2018.11.09 126 0
1565 WVC1 코덱(원본)도 인코딩이 안되는지 궁금합니다. 4 아파손 2018.11.08 80 0
» h263 코덱(원본)은 인코딩이 안되나요? 4 아파손 2018.11.08 168 0
1563 (이런 질문해도 괜찮은지 모르겠지만) 넷xxx 자막 추출. 1 미니미니 2018.11.07 155 0
1562 QSV를 이용해서 인코딩 하면 오류가 뜹니다. 1 file Joydream 2018.11.07 102 0
1561 윈10 사용자인데요 인코딩 속도가... 페르티노 2018.11.05 268 0
1560 샤나 인코더로 인코딩하면 베가스에서 인식이 안되는 이유가 무엇인지요 1 서툴대 2018.11.05 150 0
1559 4:3영상을 16:9로 만들때 박스부분을 이렇게 만드는게 가능한가요? 3 닉네임뭐할까 2018.11.04 133 0
Board Pagination Prev 1 2 3 4 5 6 7 8 9 10 ... 79 Next
/ 79