메뉴 건너뛰기

본문시작

방문자

전체 : 19,202,916
오늘 : 4,683
어제 : 35,803
조회 수 142 추천 수 0 댓글 0
?

단축키

Prev이전 문서

Next다음 문서

크게 작게 위로 아래로 댓글로 가기 인쇄
?

단축키

Prev이전 문서

Next다음 문서

크게 작게 위로 아래로 댓글로 가기 인쇄

애니 파일 100개

 

1080p mkv 을   720p mkv 으로 인코딩할것입니다

 

오디오은 스트림복사이구요

 

코덱은 x264 입니다

 

여기서 1GB ~~ 3GB짜리을  1GB기가 이하로 500mb이상 용량 맞추고 싶습니다

 

프리셋(올려주시면) 추천.. 스샷으로 셋팅 부탁드려요

 

퀄리티 모드로 부탁드리겠습니다 (고급설정해주시면)

 

밑은 파일정보입니다 두개입니다 (용량이 틀려요)

-------------------------------------------------------------------------------------------------------------

Movie name                               : [ReinForce] Shigatsu wa Kimi no Uso - 01 (BDRip 1920x1080 x264 FLAC)
Encoded date                             : UTC 2015-03-02 12:40:51
Writing application                      : mkvmerge v7.4.0 ('Circles') 64bit built on Jan  9 2015 21:55:39
Writing library                          : libebml v1.3.0 + libmatroska v1.4.1

Video
ID                                       : 1
Format                                   : AVC
Format/Info                              : Advanced Video Codec
Format profile                           : High@L4
Format settings, CABAC                   : Yes
Format settings, ReFrames                : 4 frames
Codec ID                                 : V_MPEG4/ISO/AVC
Duration                                 : 22 min 54 s
Bit rate                                 : 13.3 Mb/s
Width                                    : 1 920 pixels
Height                                   : 1 080 pixels
Display aspect ratio                     : 16:9
Frame rate mode                          : Constant
Frame rate                               : 23.976 (24000/1001) FPS
Color space                              : YUV
Chroma subsampling                       : 4:2:0
Bit depth                                : 8 bits
Scan type                                : Progressive
Bits/(Pixel*Frame)                       : 0.267
Stream size                              : 2.13 GiB (90%)
Writing library                          : x264 core 142
Encoding settings                        : opencl=1 / cabac=1 / ref=4 / deblock=1:-2:-2 / analyse=0x3:0x113 / me=umh / subme=9 / psy=1 / psy_rd=0.70:0.00 / mixed_ref=0 / me_range=32 / chroma_me=1 / trellis=2 / 8x8dct=1 / cqm=0 / deadzone=21,11 / fast_pskip=1 / chroma_qp_offset=-2 / threads=8 / lookahead_threads=1 / sliced_threads=0 / nr=0 / decimate=1 / interlaced=0 / bluray_compat=0 / constrained_intra=0 / bframes=9 / b_pyramid=2 / b_adapt=2 / b_bias=0 / direct=3 / weightb=1 / open_gop=0 / weightp=2 / keyint=250 / keyint_min=23 / scenecut=40 / intra_refresh=0 / rc_lookahead=40 / rc=crf / mbtree=1 / crf=16.0 / qcomp=0.70 / qpmin=10 / qpmax=20 / qpstep=4 / ip_ratio=1.40 / aq=1:1.00
Default                                  : Yes
Forced                                   : No

------------------------------------------------------------------------------------------------------------------------------------------------------------

General

Unique ID                                : 152107712608346437388914709036937568398 (0x726EE13DBFC3E5A32E2AFA172830E08E)

Complete name                            : D:\[ReinForce] 건어물 우마루짱\[ReinForce] Himouto! Umaru-chan - 10 (BDRip 1920x1080 x264 FLAC).mkv

Format                                   : Matroska

Format version                           : Version 4 / Version 2

File size                                : 1.34 GiB

Duration                                 : 24 min 2 s

Overall bit rate mode                    : Variable

Overall bit rate                         : 7 990 kb/s

Movie name                               : [ReinForce] Himouto! Umaru-chan - 10 (BDRip 1920x1080 x264 FLAC)

Encoded date                             : UTC 2016-01-31 16:46:19

Writing application                      : mkvmerge v8.3.0 ('Over the Horizon') 64bit

Writing library                          : libebml v1.3.3 + libmatroska v1.4.4

 

Video

ID                                       : 1

Format                                   : AVC

Format/Info                              : Advanced Video Codec

Format profile                           : High@L4

Format settings, CABAC                   : Yes

Format settings, ReFrames                : 4 frames

Codec ID                                 : V_MPEG4/ISO/AVC

Duration                                 : 24 min 2 s

Bit rate                                 : 7 360 kb/s

Width                                    : 1 920 pixels

Height                                   : 1 080 pixels

Display aspect ratio                     : 16:9

Frame rate mode                          : Constant

Frame rate                               : 23.976 (24000/1001) FPS

Color space                              : YUV

Chroma subsampling                       : 4:2:0

Bit depth                                : 8 bits

Scan type                                : Progressive

Bits/(Pixel*Frame)                       : 0.148

Stream size                              : 1.24 GiB (92%)

Writing library                          : x264 core 148

Encoding settings                        : opencl=1 / cabac=1 / ref=4 / deblock=1:-2:-2 / analyse=0x3:0x113 / me=umh / subme=9 / psy=1 / psy_rd=0.70:0.00 / mixed_ref=0 / me_range=32 / chroma_me=1 / trellis=2 / 8x8dct=1 / cqm=0 / deadzone=21,11 / fast_pskip=1 / chroma_qp_offset=-2 / threads=8 / lookahead_threads=1 / sliced_threads=0 / nr=0 / decimate=1 / interlaced=0 / bluray_compat=0 / constrained_intra=0 / bframes=9 / b_pyramid=2 / b_adapt=2 / b_bias=0 / direct=3 / weightb=1 / open_gop=0 / weightp=2 / keyint=250 / keyint_min=23 / scenecut=40 / intra_refresh=0 / rc_lookahead=40 / rc=crf / mbtree=1 / crf=16.0 / qcomp=0.70 / qpmin=10 / qpmax=20 / qpstep=4 / ip_ratio=1.40 / aq=1:1.00

Default                                  : Yes

Forced                                   : No

--------------------------------------------------------------------------------------------------------------------------------------------------------

 

  * - 퀄리티 모드로 인코딩한 파일은 파일정보을 보면 <Bit rate : ☆☆☆☆ kb/s>  비트레이트가 없은 이유가 무엇인가요? - *

 


List of Articles
번호 제목 글쓴이 날짜 조회 수 추천 수
공지 [자막] 색상코드표 입니다. 능소화 2017.04.13 253 0
공지 ※ ※ 백신으로 인한 바이러스/멜웨어 오진에 관하여...※ ※ 4 능소화 2017.03.29 358 1
공지 인코딩 오류나는 파일은 좌측 오류 파일 보고 메뉴를 이용하세요. 샤나 2017.03.13 538 0
787 DTS 6채널을 AAC 또는 AC3 5.1채널로 인코딩 할 경우 볼륨조정이 않되는 건가요? 콕콕 2017.01.13 274 0
786 안녕하세요 , 질문 드립니다. 1 ehtan 2017.01.12 248 0
785 인코딩 시 진행상황에 표시되는... 3 file katya 2017.01.12 236 0
784 그래픽카드를 바꾸면 NVENC 인코딩 속도향상이 있을까요? 6 달표 2017.01.11 1196 0
783 그저께까지만해도 smi 자막 잘 입혔는데.. 1 인코딩딩딩 2017.01.11 259 0
782 预览265编码视频不能硬解码并且占用CPU只有1/4个核心,potplayer是可以启用硬解码的 3 file 小樱 2017.01.11 334 0
781 이거 인코딩에 문제 있는건 아니죠..??;; 2 ndh 2017.01.10 316 0
780 4.0 설치 이후 인코딩 시도 시 오류가 납니다 dlrnert 2017.01.10 197 0
779 저용량, 고화질 동영상 인코딩 관련 질문입니다. 10 file HMU 2017.01.10 1143 0
778 해상도를 늘렸을때 비트레이트 값이 궁금합니다. 1 ndh 2017.01.09 257 0
777 2pass가 이해가 잘 안됩니다. 3 ndh 2017.01.08 545 0
776 NVENC 옵션추가 지원 과 해상도와 출력비율 2 file NLE 2017.01.08 508 0
775 4.0 버전 인코딩 에러가 납니다. 5 file godory 2017.01.08 278 0
774 avi xvid 인코딩 브닝 2017.01.07 111 0
» 마지막 질문 부탁드리겠습니다!! 주파수사 2017.01.06 142 0
772 고급설정 설명 부탁드립니다 (프로필)(튜닝)(레벨)(프리셋) 3 주파수사 2017.01.06 1723 0
771 원본 프레임 레이트를 변경하여 인코딩하면 오디오 싱크가 어긋나나요? (그 외의 질문) 2 리미터 2017.01.06 530 0
770 자막 색깔폰트 인코딩 오류. 2 레인 2017.01.06 175 0
769 HEVC 셋팅 질문이요! ndh 2017.01.06 267 0
768 avi 파일 저용량으로 인코딩할때 문의 좀 드려요 고수님들 ! 4 극강여신 2017.01.06 295 0
Board Pagination Prev 1 ... 18 19 20 21 22 23 24 25 26 27 ... 62 Next
/ 62