Skip to menu

본문시작



질문하기 전에 검색하세요(Search before asking a question)


Views 49 Votes 0 Comment 4
?

Shortcut

PrevPrev Article

NextNext Article

Larger Font Smaller Font Up Down Go comment Print Attachment
?

Shortcut

PrevPrev Article

NextNext Article

Larger Font Smaller Font Up Down Go comment Print Attachment

인코딩 이후 동영상 스킵시(재생바에서 마우스로 앞뒤로 몇초 이상 이동) 화면이 일시 정지한 느낌으로 1초~2초 정지가 되었다가 다시 정상적으로 나옵니다.'

어떤 지점은 0.1초 어떤 지점은 1초 등등 이동 지점에 따라 정지되는 시간은 다릅니다.

 

동영상 플레이어는 "팟플레이어" 그리고 "Mpc-be" 이고, 탐색시 "키프레임 단위로 이동"은 해제된 상태입니다. 

하지만 해제된 동일한 조건에서 원본에서는 딜레이가 안생지만, 인코딩 된 영상에만 딜레이가 발생합니다.

 

"키프레임 단위로 이동"을 체크하면 정지되는 시간이 0.1초~0.2초 정도 아주 짧게 정지됩니다.

 

원본이나 인코딩본 모두 스킵 없이 그냥 볼때에는 끊김이나 딜레이 없이 정상적으로 나옵니다.

 

회원님들의 도움이 꼭 필요합니다.

인코딩할 자료는 많은데... 

모두 좋은 하루 되세요.**

 

참고적으로 저와 같은 문제가 발생해서, 다른 회원님이 이미 질문을 올렸는데 미해결 같습니다.

https://shana.pe.kr/shanaencoder_board_ko/22632

 

인코딩한 컴퓨터.

NT500R5K-K31M

브로드웰 / 코어i5-5세대 / i5-5200U 2.2GHz(2.7GHz) / 듀얼코어 / DDR3L / 8GB / SSD / 12

Windows 버전 RS5 1809 (OS 빌드 17763.107)

 

매개변수.

 -f mp4

 -c:v libx264

 -c:a libfdk_aac

 -sn -b:a 128k -ac 2 -crf 19.0 -profile:v baseline -level auto -preset veryfast -tune:v none

 

########################## 원본 파일정보. ############################

General

Complete name                            : D:\D\원본.mp4

Format                                   : MPEG-4

Format profile                           : Base Media

Codec ID                                 : isom (isom/iso2/avc1/mp41)

File size                                : 552 MiB

Duration                                 : 9 min 17 s

Overall bit rate                         : 8 319 kb/s

Writing application                      : Lavf56.40.101

Comment                                  : 2020-08-09

 

Video

ID                                       : 1

Format                                   : AVC

Format/Info                              : Advanced Video Codec

Format profile                           : High@L4.2

Format settings                          : CABAC / 3 Ref Frames

Format settings, CABAC                   : Yes

Format settings, Reference frames        : 3 frames

Format settings, GOP                     : M=1, N=60

Codec ID                                 : avc1

Codec ID/Info                            : Advanced Video Coding

Duration                                 : 9 min 17 s

Bit rate                                 : 7 986 kb/s

Width                                    : 1 920 pixels

Height                                   : 1 080 pixels

Display aspect ratio                     : 16:9

Frame rate mode                          : Variable

Frame rate                               : 60.000 FPS

Minimum frame rate                       : 43.478 FPS

Maximum frame rate                       : 90.909 FPS

Color space                              : YUV

Chroma subsampling                       : 4:2:0

Bit depth                                : 8 bits

Scan type                                : Progressive

Bits/(Pixel*Frame)                       : 0.064

Stream size                              : 530 MiB (96%)

Codec configuration box                  : avcC

 

Audio

ID                                       : 2

Format                                   : AAC LC

Format/Info                              : Advanced Audio Codec Low Complexity

Codec ID                                 : mp4a-40-2

Duration                                 : 9 min 17 s

Bit rate mode                            : Constant

Bit rate                                 : 320 kb/s

Channel(s)                               : 2 channels

Channel layout                           : L R

Sampling rate                            : 44.1 kHz

Frame rate                               : 43.066 FPS (1024 SPF)

Compression mode                         : Lossy

Stream size                              : 21.3 MiB (4%)

Default                                  : Yes

Alternate group                          : 1

 

 

 

자세한 정보

 

General

Count                                    : 331

Count of stream of this kind             : 1

Kind of stream                           : General

Kind of stream                           : General

Stream identifier                        : 0

Count of video streams                   : 1

Count of audio streams                   : 1

Video_Format_List                        : AVC

Video_Format_WithHint_List               : AVC

Codecs Video                             : AVC

Audio_Format_List                        : AAC LC

Audio_Format_WithHint_List               : AAC LC

Audio codecs                             : AAC LC

Complete name                            : D:\D\원본.mp4

Folder name                              : D:\D

File name extension                      : 원본.mp4

File name                                : 원본

File extension                           : mp4

Format                                   : MPEG-4

Format                                   : MPEG-4

Format/Extensions usually used           : braw mov mp4 m4v m4a m4b m4p m4r 3ga 3gpa 3gpp 3gp 3gpp2 3g2 k3g jpm jpx mqv ismv isma ismt f4a f4b f4v

Commercial name                          : MPEG-4

Format profile                           : Base Media

Internet media type                      : video/mp4

Codec ID                                 : isom

Codec ID                                 : isom (isom/iso2/avc1/mp41)

Codec ID/Url                             : http://www.apple.com/quicktime/download/standalone.html

CodecID_Compatible                       : isom/iso2/avc1/mp41

File size                                : 579292393

File size                                : 552 MiB

File size                                : 552 MiB

File size                                : 552 MiB

File size                                : 552 MiB

File size                                : 552.5 MiB

Duration                                 : 557070

Duration                                 : 9 min 17 s

Duration                                 : 9 min 17 s 70 ms

Duration                                 : 9 min 17 s

Duration                                 : 00:09:17.070

Duration                                 : 00:09:17:04

Duration                                 : 00:09:17.070 (00:09:17:04)

Overall bit rate                         : 8319133

Overall bit rate                         : 8 319 kb/s

Frame rate                               : 60.000

Frame rate                               : 60.000 FPS

Frame count                              : 33424

Stream size                              : 896389

Stream size                              : 875 KiB (0%)

Stream size                              : 875 KiB

Stream size                              : 875 KiB

Stream size                              : 875 KiB

Stream size                              : 875.4 KiB

Stream size                              : 875 KiB (0%)

Proportion of this stream                : 0.00155

HeaderSize                               : 896381

DataSize                                 : 578396012

FooterSize                               : 0

IsStreamable                             : Yes

File creation date                       : UTC 2020-11-20 00:11:57.580

File creation date (local)               : 2020-11-20 09:11:57.580

File last modification date              : UTC 2020-10-29 21:08:12.542

File last modification date (local)      : 2020-10-30 06:08:12.542

Writing application                      : Lavf56.40.101

Writing application                      : Lavf56.40.101

Comment                                  : 2020-08-09

 

Video

Count                                    : 378

Count of stream of this kind             : 1

Kind of stream                           : Video

Kind of stream                           : Video

Stream identifier                        : 0

StreamOrder                              : 0

ID                                       : 1

ID                                       : 1

Format                                   : AVC

Format                                   : AVC

Format/Info                              : Advanced Video Codec

Format/Url                               : http://developers.videolan.org/x264.html

Commercial name                          : AVC

Format profile                           : High@L4.2

Format settings                          : CABAC / 3 Ref Frames

Format settings, CABAC                   : Yes

Format settings, CABAC                   : Yes

Format settings, Reference frames        : 3

Format settings, Reference frames        : 3 frames

Format settings, GOP                     : M=1, N=60

Internet media type                      : video/H264

Codec ID                                 : avc1

Codec ID/Info                            : Advanced Video Coding

Duration                                 : 557045

Duration                                 : 9 min 17 s

Duration                                 : 9 min 17 s 45 ms

Duration                                 : 9 min 17 s

Duration                                 : 00:09:17.045

Duration                                 : 00:09:17:04

Duration                                 : 00:09:17.045 (00:09:17:04)

Bit rate                                 : 7986312

Bit rate                                 : 7 986 kb/s

Width                                    : 1920

Width                                    : 1 920 pixels

Height                                   : 1080

Height                                   : 1 080 pixels

Stored_Height                            : 1088

Sampled_Width                            : 1920

Sampled_Height                           : 1080

Pixel aspect ratio                       : 1.000

Display aspect ratio                     : 1.778

Display aspect ratio                     : 16:9

Rotation                                 : 0.000

Frame rate mode                          : VFR

Frame rate mode                          : Variable

Frame rate                               : 60.000

Frame rate                               : 60.000 FPS

Minimum frame rate                       : 43.478

Minimum frame rate                       : 43.478 FPS

Maximum frame rate                       : 90.909

Maximum frame rate                       : 90.909 FPS

Frame count                              : 33424

Color space                              : YUV

Chroma subsampling                       : 4:2:0

Chroma subsampling                       : 4:2:0

Bit depth                                : 8

Bit depth                                : 8 bits

Scan type                                : Progressive

Scan type                                : Progressive

Bits/(Pixel*Frame)                       : 0.064

Stream size                              : 556113494

Stream size                              : 530 MiB (96%)

Stream size                              : 530 MiB

Stream size                              : 530 MiB

Stream size                              : 530 MiB

Stream size                              : 530.4 MiB

Stream size                              : 530 MiB (96%)

Proportion of this stream                : 0.95999

Codec configuration box                  : avcC

 

Audio

Count                                    : 280

Count of stream of this kind             : 1

Kind of stream                           : Audio

Kind of stream                           : Audio

Stream identifier                        : 0

StreamOrder                              : 1

ID                                       : 2

ID                                       : 2

Format                                   : AAC

Format                                   : AAC LC

Format/Info                              : Advanced Audio Codec Low Complexity

Commercial name                          : AAC

Format_AdditionalFeatures                : LC

Codec ID                                 : mp4a-40-2

Duration                                 : 557070

Duration                                 : 9 min 17 s

Duration                                 : 9 min 17 s 70 ms

Duration                                 : 9 min 17 s

Duration                                 : 00:09:17.070

Duration                                 : 00:09:17:40

Duration                                 : 00:09:17.070 (00:09:17:40)

Bit rate mode                            : CBR

Bit rate mode                            : Constant

Bit rate                                 : 319996

Bit rate                                 : 320 kb/s

Channel(s)                               : 2

Channel(s)                               : 2 channels

Channel positions                        : Front: L R

Channel positions                        : 2/0/0

Channel layout                           : L R

Samples per frame                        : 1024

Sampling rate                            : 44100

Sampling rate                            : 44.1 kHz

Samples count                            : 24566787

Frame rate                               : 43.066

Frame rate                               : 43.066 FPS (1024 SPF)

Frame count                              : 23991

Compression mode                         : Lossy

Compression mode                         : Lossy

Stream size                              : 22282510

Stream size                              : 21.3 MiB (4%)

Stream size                              : 21 MiB

Stream size                              : 21 MiB

Stream size                              : 21.3 MiB

Stream size                              : 21.25 MiB

Stream size                              : 21.3 MiB (4%)

Proportion of this stream                : 0.03847

Default                                  : Yes

Default                                  : Yes

Alternate group                          : 1

Alternate group                          : 1

 

MediaInfoLib - v19.09

 

############################# 인코딩한 파일 정보 ###########################

General

Complete name                            : D:\D\[SHANA]원본.mp4

Format                                   : MPEG-4

Format profile                           : Base Media

Codec ID                                 : isom (isom/iso2/avc1/mp41)

File size                                : 25.6 MiB

Duration                                 : 30 s 47 ms

Overall bit rate                         : 7 161 kb/s

Writing application                      : ShanaEncoder

Comment                                  : 2020-08-09

 

Video

ID                                       : 1

Format                                   : AVC

Format/Info                              : Advanced Video Codec

Format profile                           : Baseline@L4.2

Format settings                          : 1 Ref Frames

Format settings, CABAC                   : No

Format settings, Reference frames        : 1 frame

Codec ID                                 : avc1

Codec ID/Info                            : Advanced Video Coding

Duration                                 : 30 s 0 ms

Bit rate                                 : 7 034 kb/s

Width                                    : 1 920 pixels

Height                                   : 1 080 pixels

Display aspect ratio                     : 16:9

Frame rate mode                          : Constant

Frame rate                               : 60.000 FPS

Color space                              : YUV

Chroma subsampling                       : 4:2:0

Bit depth                                : 8 bits

Scan type                                : Progressive

Bits/(Pixel*Frame)                       : 0.057

Stream size                              : 25.2 MiB (98%)

Writing library                          : x264 core 157 r2969 d4099dd

Encoding settings                        : cabac=0 / ref=1 / deblock=1:0:0 / analyse=0x1:0x111 / me=hex / subme=2 / psy=1 / psy_rd=1.00:0.00 / mixed_ref=0 / me_range=16 / chroma_me=1 / trellis=0 / 8x8dct=0 / cqm=0 / deadzone=21,11 / fast_pskip=1 / chroma_qp_offset=0 / threads=6 / lookahead_threads=2 / sliced_threads=0 / nr=0 / decimate=1 / interlaced=0 / bluray_compat=0 / constrained_intra=0 / bframes=0 / weightp=0 / keyint=250 / keyint_min=25 / scenecut=40 / intra_refresh=0 / rc_lookahead=10 / rc=crf / mbtree=1 / crf=19.0 / qcomp=0.60 / qpmin=0 / qpmax=69 / qpstep=4 / ip_ratio=1.40 / aq=1:1.00

Codec configuration box                  : avcC

 

Audio

ID                                       : 2

Format                                   : AAC LC

Format/Info                              : Advanced Audio Codec Low Complexity

Codec ID                                 : mp4a-40-2

Duration                                 : 30 s 47 ms

Bit rate mode                            : Constant

Bit rate                                 : 128 kb/s

Channel(s)                               : 2 channels

Channel layout                           : L R

Sampling rate                            : 44.1 kHz

Frame rate                               : 43.066 FPS (1024 SPF)

Compression mode                         : Lossy

Stream size                              : 470 KiB (2%)

Default                                  : Yes

Alternate group                          : 1

 

 

 

자세한 정보

 

General

Count                                    : 331

Count of stream of this kind             : 1

Kind of stream                           : General

Kind of stream                           : General

Stream identifier                        : 0

Count of video streams                   : 1

Count of audio streams                   : 1

Video_Format_List                        : AVC

Video_Format_WithHint_List               : AVC

Codecs Video                             : AVC

Audio_Format_List                        : AAC LC

Audio_Format_WithHint_List               : AAC LC

Audio codecs                             : AAC LC

Complete name                            : D:\D\[SHANA]원본.mp4

Folder name                              : D:\D

File name extension                      : [SHANA]원본.mp4

File name                                : [SHANA]원본

File extension                           : mp4

Format                                   : MPEG-4

Format                                   : MPEG-4

Format/Extensions usually used           : braw mov mp4 m4v m4a m4b m4p m4r 3ga 3gpa 3gpp 3gp 3gpp2 3g2 k3g jpm jpx mqv ismv isma ismt f4a f4b f4v

Commercial name                          : MPEG-4

Format profile                           : Base Media

Internet media type                      : video/mp4

Codec ID                                 : isom

Codec ID                                 : isom (isom/iso2/avc1/mp41)

Codec ID/Url                             : http://www.apple.com/quicktime/download/standalone.html

CodecID_Compatible                       : isom/iso2/avc1/mp41

File size                                : 26895530

File size                                : 25.6 MiB

File size                                : 26 MiB

File size                                : 26 MiB

File size                                : 25.6 MiB

File size                                : 25.65 MiB

Duration                                 : 30047

Duration                                 : 30 s 47 ms

Duration                                 : 30 s 47 ms

Duration                                 : 30 s 47 ms

Duration                                 : 00:00:30.047

Duration                                 : 00:00:30:00

Duration                                 : 00:00:30.047 (00:00:30:00)

Overall bit rate                         : 7160923

Overall bit rate                         : 7 161 kb/s

Frame rate                               : 60.000

Frame rate                               : 60.000 FPS

Frame count                              : 1800

Stream size                              : 38531

Stream size                              : 37.6 KiB (0%)

Stream size                              : 38 KiB

Stream size                              : 38 KiB

Stream size                              : 37.6 KiB

Stream size                              : 37.63 KiB

Stream size                              : 37.6 KiB (0%)

Proportion of this stream                : 0.00143

HeaderSize                               : 40

DataSize                                 : 26857007

FooterSize                               : 38483

IsStreamable                             : No

File creation date                       : UTC 2020-11-20 00:12:45.687

File creation date (local)               : 2020-11-20 09:12:45.687

File last modification date              : UTC 2020-11-20 00:14:17.128

File last modification date (local)      : 2020-11-20 09:14:17.128

Writing application                      : ShanaEncoder

Writing application                      : ShanaEncoder

Comment                                  : 2020-08-09

 

Video

Count                                    : 378

Count of stream of this kind             : 1

Kind of stream                           : Video

Kind of stream                           : Video

Stream identifier                        : 0

StreamOrder                              : 0

ID                                       : 1

ID                                       : 1

Format                                   : AVC

Format                                   : AVC

Format/Info                              : Advanced Video Codec

Format/Url                               : http://developers.videolan.org/x264.html

Commercial name                          : AVC

Format profile                           : Baseline@L4.2

Format settings                          : 1 Ref Frames

Format settings, CABAC                   : No

Format settings, CABAC                   : No

Format settings, Reference frames        : 1

Format settings, Reference frames        : 1 frame

Internet media type                      : video/H264

Codec ID                                 : avc1

Codec ID/Info                            : Advanced Video Coding

Duration                                 : 30000

Duration                                 : 30 s 0 ms

Duration                                 : 30 s 0 ms

Duration                                 : 30 s 0 ms

Duration                                 : 00:00:30.000

Duration                                 : 00:00:30:00

Duration                                 : 00:00:30.000 (00:00:30:00)

Bit rate                                 : 7033528

Bit rate                                 : 7 034 kb/s

Width                                    : 1920

Width                                    : 1 920 pixels

Height                                   : 1080

Height                                   : 1 080 pixels

Stored_Height                            : 1088

Sampled_Width                            : 1920

Sampled_Height                           : 1080

Pixel aspect ratio                       : 1.000

Display aspect ratio                     : 1.778

Display aspect ratio                     : 16:9

Rotation                                 : 0.000

Frame rate mode                          : CFR

Frame rate mode                          : Constant

FrameRate_Mode_Original                  : VFR

Frame rate                               : 60.000

Frame rate                               : 60.000 FPS

Frame count                              : 1800

Color space                              : YUV

Chroma subsampling                       : 4:2:0

Chroma subsampling                       : 4:2:0

Bit depth                                : 8

Bit depth                                : 8 bits

Scan type                                : Progressive

Scan type                                : Progressive

Bits/(Pixel*Frame)                       : 0.057

Stream size                              : 26375731

Stream size                              : 25.2 MiB (98%)

Stream size                              : 25 MiB

Stream size                              : 25 MiB

Stream size                              : 25.2 MiB

Stream size                              : 25.15 MiB

Stream size                              : 25.2 MiB (98%)

Proportion of this stream                : 0.98067

Writing library                          : x264 - core 157 r2969 d4099dd

Writing library                          : x264 core 157 r2969 d4099dd

Encoded_Library_Name                     : x264

Encoded_Library_Version                  : core 157 r2969 d4099dd

Encoding settings                        : cabac=0 / ref=1 / deblock=1:0:0 / analyse=0x1:0x111 / me=hex / subme=2 / psy=1 / psy_rd=1.00:0.00 / mixed_ref=0 / me_range=16 / chroma_me=1 / trellis=0 / 8x8dct=0 / cqm=0 / deadzone=21,11 / fast_pskip=1 / chroma_qp_offset=0 / threads=6 / lookahead_threads=2 / sliced_threads=0 / nr=0 / decimate=1 / interlaced=0 / bluray_compat=0 / constrained_intra=0 / bframes=0 / weightp=0 / keyint=250 / keyint_min=25 / scenecut=40 / intra_refresh=0 / rc_lookahead=10 / rc=crf / mbtree=1 / crf=19.0 / qcomp=0.60 / qpmin=0 / qpmax=69 / qpstep=4 / ip_ratio=1.40 / aq=1:1.00

Codec configuration box                  : avcC

 

Audio

Count                                    : 280

Count of stream of this kind             : 1

Kind of stream                           : Audio

Kind of stream                           : Audio

Stream identifier                        : 0

StreamOrder                              : 1

ID                                       : 2

ID                                       : 2

Format                                   : AAC

Format                                   : AAC LC

Format/Info                              : Advanced Audio Codec Low Complexity

Commercial name                          : AAC

Format_AdditionalFeatures                : LC

Codec ID                                 : mp4a-40-2

Duration                                 : 30047

Duration                                 : 30 s 47 ms

Duration                                 : 30 s 47 ms

Duration                                 : 30 s 47 ms

Duration                                 : 00:00:30.047

Duration                                 : 00:00:30:04

Duration                                 : 00:00:30.047 (00:00:30:04)

Bit rate mode                            : CBR

Bit rate mode                            : Constant

Bit rate                                 : 128139

Bit rate                                 : 128 kb/s

Channel(s)                               : 2

Channel(s)                               : 2 channels

Channel positions                        : Front: L R

Channel positions                        : 2/0/0

Channel layout                           : L R

Samples per frame                        : 1024

Sampling rate                            : 44100

Sampling rate                            : 44.1 kHz

Samples count                            : 1325073

Frame rate                               : 43.066

Frame rate                               : 43.066 FPS (1024 SPF)

Frame count                              : 1294

Compression mode                         : Lossy

Compression mode                         : Lossy

Stream size                              : 481268

Stream size                              : 470 KiB (2%)

Stream size                              : 470 KiB

Stream size                              : 470 KiB

Stream size                              : 470 KiB

Stream size                              : 470.0 KiB

Stream size                              : 470 KiB (2%)

Proportion of this stream                : 0.01789

Default                                  : Yes

Default                                  : Yes

Alternate group                          : 1

Alternate group                          : 1

 

MediaInfoLib - v19.09

 

 

 

1.jpg

 

2.jpg

 

 

Atachment
Attachment '2'
Facebook Twitter Pinterest Kakao
  • ?
    Rina 2020.11.20 10:09

    팟플레이어, MPC-BE에서 동영상 탐색 시 지연 발생은 해당 플레이어에서 원하는 위치로 탐색하는데 걸리는 시간으로 보입니다.

     

    키 프레임 단위로 이동하게 되면 키 프레임은 완전한 이미지를 가지고 있으므로 지연 시간이 적지만 키 프레임이 아닌 프레임을 탐색하게 되면 완전한 이미지를 가지고 있지 않으므로 완전한 이미지를 만들어야 하며 완전한 이미지를 만들 때까지 시간이 걸리게 됩니다.

     

    이 시간은 해당 영상이 얼마나 높게 압축되어 있고 어떤 코덱인가에 따라 다르고, 키 프레임 간격에 따라서도 다르며 하드디스크와 여러 가지 하드웨어 상태에 따라 시간 차이가 발생하게 됩니다.

     

    키 프레임 간격이 길면 이론적으로 용량이 적어지며 탐색시간이 길게 되고, 키 프레임 간격이 짧으면 용량이 많아지며 탐색시간이 짧아지게 됩니다.

    샤나인코더 빠른 설정에서 키 프레임 변경 항목에서 설정 가능하며 단위는 초 단위입니다.

     

    샤나인코더 5.0 버전을 사용하는 것으로 봐서는 샤나인코더 5.1 버전부터 추가된 기능인 정확한 탐색 기능이 없으므로 샤나인코더 자체 문제는 아닌 것으로 보입니다.

     

    샤나인코더 5.1 버전부터 미리 보기, 파일 재생, 구간 설정에서 키 프레임 탐색이 아닌 정확한 탐색 기능이 추가되었고 기본적으로 키 프레임 탐색이 꺼져 있으므로 해당 버전으로 업그레이드 한 다음에 샤나인코더 5.0 버전으로 인코딩된 파일을 추가하여 목록에서 오른쪽 버튼을 누르고 파일 재생을 한 뒤 탐색을 해보세요.

    (샤나인코더 5.1 버전에서 환경 설정 -> 키 프레임 탐색 사용을 통해 키 프레임 탐색 여부를 선택할 수 있습니다.)

     

    샤나인코더 5.1 버전에서 키 프레임 탐색 사용에 체크가 되지 않은 상태(정확한 탐색 사용)로 파일 재생 시 지연 시간이 발생한다면 하드웨어 성능에 따른 지연으로 보입니다.

  • ?
    캔디 2020.11.20 11:15

    Rina 님 감사드립니다.^^ 해결 되었습니다. **
    원본이 키 프레임 간격이 1초였는데.. 1초로 변경해서 인코딩하니, 원본과 동일하게 됩니다..

    댓글로 두가지 더 질문 드리고 싶은 것은...

    1. 원본과 동일한 키프레임 간격을 정하는 옵션이 있는지 궁금합니다.

     (제가 임으로 1~20을 넣는 것이 아니고 그냥 원본의 키프레임에 따라 자동으로 정해지는 옵션을 의미합니다.)

    2. 파일 정보에서 어떤 부분이 키프레임 간격을 의미하는지도 궁금합니다.
    (파일 자르기를 하다보면 키프레임 간격을 알게 되는데, 그냥 파일정보란에는 아무리 찾아도 키프레임 관련 정보를 못 찾겠습니다.)

  • ?
    Rina 2020.11.20 11:39

    1. 키 프레임 변경에 체크를 하지 않을 시, 키 프레임 간격은 인코딩할 코덱에 따라 기본값이 달라지며 원본과 동일한 키 프레임 간격을 넣는 옵션은 없습니다.

    2. 키 프레임 간격은 영상에 따라 유동적이어서 파일 정보를 통해서는 정확하게 알 수는 없습니다.
    일부 코덱에서는 키 프레임 설정값을 알 수 있는데 H264(x264) 코덱의 경우 Encoding settings라는 항목이 파일 정보에 보이며 keyint, keyint_min 값이 키 프레임 값입니다.

    그러나, 이 값은 프레임 레이트에 따라 달리 설정하게 되며 샤나인코더에서 처리하는 기준으로 설명하자면
    프레임 레이트가 30, 키 프레임 변경이 1이면 keyint=30 / keyint_min=3
    프레임 레이트가 15, 키 프레임 변경이 10이면 keyint=150 / keyint_min=15
    이런 식으로 정해지지만 이것은 샤나인코더에서 처리하는 키 프레임 간격의 값입니다.

    프레임 레이트 변경과 키 프레임 변경에 선택이 안 되어있으면 keyint=250 / keyint_min=25로 기본 값으로 선택되고 이때 키 프레임 간격은 유동적입니다.
    이 의미는 정확한 간격 없이 인코더가 적절한 위치(장면 변화가 크게 발생하는 곳 등)에 키 프레임을 넣는다는 의미입니다.

  • ?
    캔디 2020.11.20 11:47
    답변 감사드립니다.
    정말 오늘 샤나인코더의 기본만 그동안 사용하다가 많은 부분을 알게 되었습니다.
    좋은 하루 되세요^^**

List of Articles
No. Category Subject Author Date Views Votes
Notice 자유게시판에서는 자유롭게 글을 작성할 수 있지만 다음과 같은 내용은 삭제돼요 Rina 2020.03.18 688 2
Notice 일반 [필독] 질문 전에 반드시 읽으세요!!! 2 file JKyle 2019.09.16 5222 3
Notice 일반 [알림] 질문 먹튀하지 마시기 바랍니다 => 본문 변경 금지 15 JKyle 2018.10.12 6027 9
2371 일반 종료시마다 설정 저장 new 제파 2020.11.29 3 0
2370 질문 원본영상 프레임이 2배로 입력이 됩니다 new MJerry 2020.11.28 4 0
2369 질문 replaygain RG값 자동적용 볼륨 변경 인코딩 기능 file 태양 2020.11.28 3 0
2368 질문 스트림복사 하는데 자막이 안입혀져요ㅠㅠ file 휘엉청밝은달 2020.11.28 10 0
2367 질문 도와주십쇼 1 seowon 2020.11.26 62 0
2366 질문 샤나인코더와 미디어 인코더의 프리셋 연동(혹은 동일한 설정)이 가능할까요? 원조양군 2020.11.25 35 0
2365 질문 영상의 사이즈 변경시 원본이 설정보다 작을 때 크기를 변경하지 않을 수 있을까요? 1 볼피드 2020.11.24 30 0
2364 질문 구간설정+재생속도(빠른설정<기타<재생속도) 동시 설정??? 2 빛이 2020.11.23 33 0
2363 질문 인코딩 초보입니다 도움좀 주세요 file 린이찬이 2020.11.21 106 0
2362 질문 구간설정 미리보기에서 I프래임을 크릭할 경우 자동으로 I 프레임으로 나옵니다. 1 file 캔디 2020.11.20 24 0
» 질문 동영상 스킵(탐색)시 영상 딜레이가 발생합니다.. 4 file 캔디 2020.11.20 49 0
2360 질문 4k영상 인코딩 설정 한번만 봐주세요~! (너무 오래 걸립니다 ㅠㅠ) 1 file 곰곰123 2020.11.17 153 0
2359 질문 간단한 질문입니다. 3 퍄브V 2020.11.16 61 0
2358 질문 wmv 동영상을 mkv로 인코딩할때 오디오관련해서 여쭤봅니다. 1 ㅖㅖ 2020.11.15 65 0
2357 질문 오디오 효과 질의 1 캐미 2020.11.14 30 0
2356 질문 자막 행 간격 똥싸다마오 2020.11.11 45 0
2355 질문 ts파일에서 mp4 인코딩 시 오류가 발생 합니다 sniper1093 2020.11.10 84 0
2354 질문 영상 합치기 하는데 부분 부분 갑자기 빨라집니다 1 file 영상합치기질문 2020.11.08 114 0
2353 질문 qsv 파일을 인코딩하면 중간에 화면이 깨지는데 어떻게 해야되나요? file 민님 2020.11.08 52 0
2352 질문 DVD 리핑 후 생성된 MKV 파일을 MP4로 인코딩할 경우 자막을 어떻게 입힐 수 있나요? file Murian 2020.11.08 56 0
Board Pagination Prev 1 2 3 4 5 6 7 8 9 10 ... 119 Next
/ 119