Skip to menu

본문시작



질문하기 전에 검색하세요(Search before asking a question)


Views 84 Votes 0 Comment 0
?

Shortcut

PrevPrev Article

NextNext Article

Larger Font Smaller Font Up Down Go comment Print
?

Shortcut

PrevPrev Article

NextNext Article

Larger Font Smaller Font Up Down Go comment Print

기존에도 동일하게 ts에서 mp4로 인코딩 하던 프리셋 그대로 했는데 에러가 뜹니다

 

General

ID                                       : 1 (0x1)

Complete name                            : D:\새 폴더\201109 [CNTV] 역사법정 이판史판 01회 - 영원한 아이오아이 ☆김소혜☆ 출연 1080P고화질TV 녹화본.ts

Format                                   : MPEG-TS

File size                                : 1.23 GiB

Duration                                 : 59 min 6 s

Overall bit rate mode                    : Variable

Overall bit rate                         : 2 987 kb/s

 

Video

ID                                       : 256 (0x100)

Menu ID                                  : 1 (0x1)

Format                                   : MPEG Video

Format version                           : Version 2

Format profile                           : Main@High

Format settings, BVOP                    : No

Format settings, Matrix                  : Default

Format settings, GOP                     : Variable

Codec ID                                 : 2

Duration                                 : 59 min 6 s

Bit rate mode                            : Variable

Bit rate                                 : 2 743 kb/s

Width                                    : 1 920 pixels

Height                                   : 1 080 pixels

Display aspect ratio                     : 16:9

Frame rate                               : 60.000 FPS

Color space                              : YUV

Chroma subsampling                       : 4:2:0

Bit depth                                : 8 bits

Scan type                                : Progressive

Compression mode                         : Lossy

Bits/(Pixel*Frame)                       : 0.022

Time code of first frame                 : 00:00:00:00

Time code source                         : Group of pictures header

Stream size                              : 1.13 GiB (92%)

 

Audio

ID                                       : 257 (0x101)

Menu ID                                  : 1 (0x1)

Format                                   : AC-3

Format/Info                              : Audio Coding 3

Commercial name                          : Dolby Digital

Codec ID                                 : 129

Duration                                 : 59 min 7 s

Bit rate mode                            : Constant

Bit rate                                 : 96.0 kb/s

Channel(s)                               : 2 channels

Channel layout                           : L R

Sampling rate                            : 44.1 kHz

Frame rate                               : 28.711 FPS (1536 SPF)

Compression mode                         : Lossy

Stream size                              : 40.6 MiB (3%)

Service kind                             : Complete Main

 

Menu

ID                                       : 4095 (0xFFF)

Menu ID                                  : 1 (0x1)

Duration                                 : 59 min 6 s

List                                     : 256 (0x100) (MPEG Video) / 257 (0x101) (AC-3)

Service name                             : Service01

Service provider                         : FFmpeg

Service type                             : digital television

 

 

 

자세한 정보

 

General

Count                                    : 333

Count of stream of this kind             : 1

Kind of stream                           : General

Kind of stream                           : General

Stream identifier                        : 0

ID                                       : 1

ID                                       : 1 (0x1)

Count of video streams                   : 1

Count of audio streams                   : 1

Count of menu streams                    : 1

Video_Format_List                        : MPEG Video

Video_Format_WithHint_List               : MPEG Video

Codecs Video                             : MPEG Video

Audio_Format_List                        : AC-3

Audio_Format_WithHint_List               : AC-3

Audio codecs                             : AC-3

Menu_Format_List                         : MPEG Video / AC-3

Menu_Format_WithHint_List                : MPEG Video / AC-3

Menu codecs                              : MPEG Video / AC-3

Complete name                            : D:\새 폴더\201109 [CNTV] 역사법정 이판史판 01회 - 영원한 아이오아이 ☆김소혜☆ 출연 1080P고화질TV 녹화본.ts

Folder name                              : D:\새 폴더

File name extension                      : 201109 [CNTV] 역사법정 이판史판 01회 - 영원한 아이오아이 ☆김소혜☆ 출연 1080P고화질TV 녹화본.ts

File name                                : 201109 [CNTV] 역사법정 이판史판 01회 - 영원한 아이오아이 ☆김소혜☆ 출연 1080P고화질TV 녹화본

File extension                           : ts

Format                                   : MPEG-TS

Format                                   : MPEG-TS

Format/Extensions usually used           : ts m2t m2s m4t m4s tmf ts tp trp ty

Commercial name                          : MPEG-TS

Internet media type                      : video/MP2T

File size                                : 1324539524

File size                                : 1.23 GiB

File size                                : 1 GiB

File size                                : 1.2 GiB

File size                                : 1.23 GiB

File size                                : 1.234 GiB

Duration                                 : 3546900.000000

Duration                                 : 59 min 6 s

Duration                                 : 59 min 6 s 900 ms

Duration                                 : 59 min 6 s

Duration                                 : 00:59:06.900

Duration                                 : 00:59:06:56

Duration                                 : 00:59:06.900 (00:59:06:56)

Overall bit rate mode                    : VBR

Overall bit rate mode                    : Variable

Overall bit rate                         : 2987459

Overall bit rate                         : 2 987 kb/s

Frame rate                               : 60.000

Frame rate                               : 60.000 FPS

Frame count                              : 212816

Stream size                              : 65874531

Stream size                              : 62.8 MiB (5%)

Stream size                              : 63 MiB

Stream size                              : 63 MiB

Stream size                              : 62.8 MiB

Stream size                              : 62.82 MiB

Stream size                              : 62.8 MiB (5%)

Proportion of this stream                : 0.04973

File creation date                       : UTC 2020-11-10 12:53:10.720

File creation date (local)               : 2020-11-10 21:53:10.720

File last modification date              : UTC 2020-11-10 13:04:44.307

File last modification date (local)      : 2020-11-10 22:04:44.307

OverallBitRate_Precision_Min             : 2987459

OverallBitRate_Precision_Max             : 2987460

 

Video

Count                                    : 378

Count of stream of this kind             : 1

Kind of stream                           : Video

Kind of stream                           : Video

Stream identifier                        : 0

StreamOrder                              : 0-0

ID                                       : 256

ID                                       : 256 (0x100)

Menu ID                                  : 1

Menu ID                                  : 1 (0x1)

Format                                   : MPEG Video

Format                                   : MPEG Video

Commercial name                          : MPEG-2 Video

Format version                           : Version 2

Format profile                           : Main@High

Format settings, BVOP                    : No

Format settings, BVOP                    : No

Format settings, Matrix                  : Default

Format settings, Matrix                  : Default

Format settings, GOP                     : Variable

Internet media type                      : video/MPV

Codec ID                                 : 2

Duration                                 : 3546933

Duration                                 : 59 min 6 s

Duration                                 : 59 min 6 s 933 ms

Duration                                 : 59 min 6 s

Duration                                 : 00:59:06.933

Duration                                 : 00:59:06:56

Duration                                 : 00:59:06.933 (00:59:06:56)

Bit rate mode                            : VBR

Bit rate mode                            : Variable

Bit rate                                 : 2742879

Bit rate                                 : 2 743 kb/s

Width                                    : 1920

Width                                    : 1 920 pixels

Height                                   : 1080

Height                                   : 1 080 pixels

Sampled_Width                            : 1920

Sampled_Height                           : 1080

Pixel aspect ratio                       : 1.000

Display aspect ratio                     : 1.778

Display aspect ratio                     : 16:9

Frame rate                               : 60.000

Frame rate                               : 60.000 FPS

Frame count                              : 212816

Color space                              : YUV

Chroma subsampling                       : 4:2:0

Chroma subsampling                       : 4:2:0

Bit depth                                : 8

Bit depth                                : 8 bits

Scan type                                : Progressive

Scan type                                : Progressive

Compression mode                         : Lossy

Compression mode                         : Lossy

Bits/(Pixel*Frame)                       : 0.022

Delay                                    : 0.000000

Delay                                    : 00:00:00.000

Delay_DropFrame                          : No

Delay, origin                            : Container

Delay, origin                            : Container

Delay_Original                           : 0

Delay_Original                           : 00:00:00.000

Delay_Original_Settings                  : drop_frame_flag=0 / closed_gop=0 / broken_link=0

Delay_Original_DropFrame                 : No

Delay_Original_Source                    : Stream

Time code of first frame                 : 00:00:00:00

Time code source                         : Group of pictures header

Stream size                              : 1216100909

Stream size                              : 1.13 GiB (92%)

Stream size                              : 1 GiB

Stream size                              : 1.1 GiB

Stream size                              : 1.13 GiB

Stream size                              : 1.133 GiB

Stream size                              : 1.13 GiB (92%)

Proportion of this stream                : 0.91813

Buffer size                              : 28672

intra_dc_precision                       : 8

 

Audio

Count                                    : 293

Count of stream of this kind             : 1

Kind of stream                           : Audio

Kind of stream                           : Audio

Stream identifier                        : 0

StreamOrder                              : 0-1

ID                                       : 257

ID                                       : 257 (0x101)

Menu ID                                  : 1

Menu ID                                  : 1 (0x1)

Format                                   : AC-3

Format                                   : AC-3

Format/Info                              : Audio Coding 3

Format/Url                               : https://en.wikipedia.org/wiki/AC3

Commercial name                          : Dolby Digital

Commercial name                          : Dolby Digital

Format settings, Endianness              : Big

Codec ID                                 : 129

Duration                                 : 3547007

Duration                                 : 59 min 7 s

Duration                                 : 59 min 7 s 7 ms

Duration                                 : 59 min 7 s

Duration                                 : 00:59:07.007

Duration                                 : 01:03:42:06

Duration                                 : 00:59:07.007 (01:03:42:06)

Bit rate mode                            : CBR

Bit rate mode                            : Constant

Bit rate                                 : 96000

Bit rate                                 : 96.0 kb/s

Channel(s)                               : 2

Channel(s)                               : 2 channels

Channel positions                        : Front: L R

Channel positions                        : 2/0/0

Channel layout                           : L R

Samples per frame                        : 1536

Sampling rate                            : 44100

Sampling rate                            : 44.1 kHz

Samples count                            : 156423009

Frame rate                               : 28.711

Frame rate                               : 28.711 FPS (1536 SPF)

Frame count                              : 110844

Compression mode                         : Lossy

Compression mode                         : Lossy

Delay                                    : 0.011111

Delay                                    : 00:00:00.000

Delay, origin                            : Container

Delay, origin                            : Container

Delay relative to video                  : 0

Delay relative to video                  : 00:00:00.000

Stream size                              : 42564084

Stream size                              : 40.6 MiB (3%)

Stream size                              : 41 MiB

Stream size                              : 41 MiB

Stream size                              : 40.6 MiB

Stream size                              : 40.59 MiB

Stream size                              : 40.6 MiB (3%)

Proportion of this stream                : 0.03214

Service kind                             : CM

Service kind                             : Complete Main

bsid                                     : 8

dialnorm                                 : -31

dialnorm                                 : -31 dB

dsurmod                                  : 0

acmod                                    : 2

lfeon                                    : 0

dialnorm_Average                         : -31

dialnorm_Average                         : -31 dB

dialnorm_Minimum                         : -31

dialnorm_Minimum                         : -31 dB

dialnorm_Maximum                         : -31

dialnorm_Maximum                         : -31 dB

dialnorm_Count                           : 1696

 

Menu

Count                                    : 96

Count of stream of this kind             : 1

Kind of stream                           : Menu

Kind of stream                           : Menu

Stream identifier                        : 0

StreamOrder                              : 0

ID                                       : 4095

ID                                       : 4095 (0xFFF)

Menu ID                                  : 1

Menu ID                                  : 1 (0x1)

Format                                   : MPEG Video / AC-3

Format                                   : MPEG Video / AC-3

Commercial name                          : MPEG Video / AC-3

Duration                                 : 3546900.000000

Duration                                 : 59 min 6 s

Duration                                 : 59 min 6 s 900 ms

Duration                                 : 59 min 6 s

Duration                                 : 00:59:06.900

Duration                                 : 00:59:06.900

Delay                                    : 0.000000

Delay                                    : 00:00:00.000

List_StreamKind                          : 1 / 2

List_StreamPos                           : 0 / 0

List                                     : 256 / 257

List                                     : 256 (0x100) (MPEG Video) / 257 (0x101) (AC-3)

Service name                             : Service01

Service provider                         : FFmpeg

Service type                             : digital television

pointer_field                            : 0

section_length                           : 23

 

MediaInfoLib - v19.09

 

 

 -vf "scale=1920:1080:flags=lanczos,setsar=1/1,shanasubtitle=0"

 -af "aresample=48000:resampler=soxr"

 -f mp4

 -c:v libx264 -profile:v none -level auto -preset veryfast -tune:v none -crf 16.0 -r 29.97

 -c:a libfdk_aac -ac 2 -b:a 384k

 -map_metadata -1 -map_chapters -1 -vsync cfr -shanaopencl

 

 

[info] ShanaEncoder v5.1.0.2

[info] FFmpeg v2020.07.10.179

[info] Intel(R) UHD Graphics 620

[info] Devguru Twomon WDDM Display Driver

 

==================================================

 

 >> 작업 시작시간: 2020-11-10 오후 10:20:01

 

 * 인코딩 시작: 201109 [CNTV] 역사법정 이판史판 01회 - 영원한 아이오아이 ☆김소혜☆ 출연 1080P고화질TV 녹화본.ts

 

    Side data:

      cpb: bitrate max/min/avg: 0/0/0 buffer size: 229376 vbv_delay: N/A

Stream mapping:

  Stream #0:0 -> #0:0 (mpeg2video (native) -> h264 (libx264))

  Stream #0:1 -> #0:1 (ac3 (native) -> aac (libfdk_aac))

Too many packets buffered for output stream 0:1.

Conversion failed!

 

 * 인코딩 오류가 발생했습니다.

 

 >> 속도 0x 진행시간 00:00:00

 

==================================================

 
Facebook Twitter Pinterest Kakao

List of Articles
No. Category Subject Author Date Views Votes
Notice 자유게시판에서는 자유롭게 글을 작성할 수 있지만 다음과 같은 내용은 삭제돼요 Rina 2020.03.18 688 2
Notice 일반 [필독] 질문 전에 반드시 읽으세요!!! 2 file JKyle 2019.09.16 5222 3
Notice 일반 [알림] 질문 먹튀하지 마시기 바랍니다 => 본문 변경 금지 15 JKyle 2018.10.12 6027 9
2371 일반 종료시마다 설정 저장 new 제파 2020.11.29 3 0
2370 질문 원본영상 프레임이 2배로 입력이 됩니다 new MJerry 2020.11.28 3 0
2369 질문 replaygain RG값 자동적용 볼륨 변경 인코딩 기능 file 태양 2020.11.28 3 0
2368 질문 스트림복사 하는데 자막이 안입혀져요ㅠㅠ file 휘엉청밝은달 2020.11.28 10 0
2367 질문 도와주십쇼 1 seowon 2020.11.26 62 0
2366 질문 샤나인코더와 미디어 인코더의 프리셋 연동(혹은 동일한 설정)이 가능할까요? 원조양군 2020.11.25 35 0
2365 질문 영상의 사이즈 변경시 원본이 설정보다 작을 때 크기를 변경하지 않을 수 있을까요? 1 볼피드 2020.11.24 30 0
2364 질문 구간설정+재생속도(빠른설정<기타<재생속도) 동시 설정??? 2 빛이 2020.11.23 33 0
2363 질문 인코딩 초보입니다 도움좀 주세요 file 린이찬이 2020.11.21 106 0
2362 질문 구간설정 미리보기에서 I프래임을 크릭할 경우 자동으로 I 프레임으로 나옵니다. 1 file 캔디 2020.11.20 24 0
2361 질문 동영상 스킵(탐색)시 영상 딜레이가 발생합니다.. 4 file 캔디 2020.11.20 49 0
2360 질문 4k영상 인코딩 설정 한번만 봐주세요~! (너무 오래 걸립니다 ㅠㅠ) 1 file 곰곰123 2020.11.17 153 0
2359 질문 간단한 질문입니다. 3 퍄브V 2020.11.16 61 0
2358 질문 wmv 동영상을 mkv로 인코딩할때 오디오관련해서 여쭤봅니다. 1 ㅖㅖ 2020.11.15 65 0
2357 질문 오디오 효과 질의 1 캐미 2020.11.14 30 0
2356 질문 자막 행 간격 똥싸다마오 2020.11.11 45 0
» 질문 ts파일에서 mp4 인코딩 시 오류가 발생 합니다 sniper1093 2020.11.10 84 0
2354 질문 영상 합치기 하는데 부분 부분 갑자기 빨라집니다 1 file 영상합치기질문 2020.11.08 114 0
2353 질문 qsv 파일을 인코딩하면 중간에 화면이 깨지는데 어떻게 해야되나요? file 민님 2020.11.08 52 0
2352 질문 DVD 리핑 후 생성된 MKV 파일을 MP4로 인코딩할 경우 자막을 어떻게 입힐 수 있나요? file Murian 2020.11.08 56 0
Board Pagination Prev 1 2 3 4 5 6 7 8 9 10 ... 119 Next
/ 119