Skip to menu

본문시작



질문하기 전에 검색하세요(Search before asking a question)


Views 94 Votes 0 Comment 0
?

Shortcut

PrevPrev Article

NextNext Article

Larger Font Smaller Font Up Down Go comment Print Attachment
?

Shortcut

PrevPrev Article

NextNext Article

Larger Font Smaller Font Up Down Go comment Print Attachment

A파일은 TV에서 재생이 안되고 B파일은 재생이 됩니다.

둘다 같은 인코딩 한건데 한번만 봐주세요.

A를 TV에서 재생하려면 무얼 바꾸어야 할까요? 참고로 A는 PC에서는 재생이 잘 됩니다.

 

1.png

 

영상 오디오 기타는 전체 체크해제입니다.

 

잘 몰라서 파일정보 그래도 복붙합니다.

 

A파일

 

 

General

Complete name                            : J:\새 폴더\A.mp4

Format                                   : MPEG-4

Format profile                           : Base Media

Codec ID                                 : isom (isom/iso2/avc1/mp41)

File size                                : 3.81 GiB

Duration                                 : 5 h 4 min

Overall bit rate                         : 1 792 kb/s

Writing application                      : ShanaEncoder

 

Video

ID                                       : 1

Format                                   : AVC

Format/Info                              : Advanced Video Codec

Format profile                           : Baseline@L1.3

Format settings                          : 1 Ref Frames

Format settings, CABAC                   : No

Format settings, Reference frames        : 1 frame

Codec ID                                 : avc1

Codec ID/Info                            : Advanced Video Coding

Duration                                 : 5 h 4 min

Bit rate                                 : 1 655 kb/s

Width                                    : 720 pixels

Height                                   : 1 280 pixels

Display aspect ratio                     : 0.563

Frame rate mode                          : Constant

Frame rate                               : 30.000 FPS

Color space                              : YUV

Chroma subsampling                       : 4:2:0

Bit depth                                : 8 bits

Scan type                                : Progressive

Bits/(Pixel*Frame)                       : 0.060

Stream size                              : 3.52 GiB (92%)

Writing library                          : x264 core 161 r3015 4c2aafd

Encoding settings                        : cabac=0 / ref=1 / deblock=1:0:0 / analyse=0x1:0x111 / me=hex / subme=2 / psy=1 / psy_rd=1.00:0.00 / mixed_ref=0 / me_range=16 / chroma_me=1 / trellis=0 / 8x8dct=0 / cqm=0 / deadzone=21,11 / fast_pskip=1 / chroma_qp_offset=0 / threads=6 / lookahead_threads=2 / sliced_threads=0 / nr=0 / decimate=1 / interlaced=0 / bluray_compat=0 / constrained_intra=0 / bframes=0 / weightp=0 / keyint=250 / keyint_min=25 / scenecut=40 / intra_refresh=0 / rc_lookahead=10 / rc=crf / mbtree=1 / crf=22.0 / qcomp=0.60 / qpmin=0 / qpmax=69 / qpstep=4 / ip_ratio=1.40 / aq=1:1.00

Codec configuration box                  : avcC

 

Audio

ID                                       : 2

Format                                   : AAC LC

Format/Info                              : Advanced Audio Codec Low Complexity

Codec ID                                 : mp4a-40-2

Duration                                 : 5 h 4 min

Bit rate mode                            : Constant

Bit rate                                 : 128 kb/s

Channel(s)                               : 2 channels

Channel layout                           : L R

Sampling rate                            : 44.1 kHz

Frame rate                               : 43.066 FPS (1024 SPF)

Compression mode                         : Lossy

Stream size                              : 279 MiB (7%)

Default                                  : Yes

Alternate group                          : 1

 

 

 

자세한 정보

 

General

Count                                    : 331

Count of stream of this kind             : 1

Kind of stream                           : General

Kind of stream                           : General

Stream identifier                        : 0

Count of video streams                   : 1

Count of audio streams                   : 1

Video_Format_List                        : AVC

Video_Format_WithHint_List               : AVC

Codecs Video                             : AVC

Audio_Format_List                        : AAC LC

Audio_Format_WithHint_List               : AAC LC

Audio codecs                             : AAC LC

Complete name                            : J:\새 폴더\A.mp4

Folder name                              : J:\새 폴더

File name extension                      : A.mp4

File name                                : A

File extension                           : mp4

Format                                   : MPEG-4

Format                                   : MPEG-4

Format/Extensions usually used           : braw mov mp4 m4v m4a m4b m4p m4r 3ga 3gpa 3gpp 3gp 3gpp2 3g2 k3g jpm jpx mqv ismv isma ismt f4a f4b f4v

Commercial name                          : MPEG-4

Format profile                           : Base Media

Internet media type                      : video/mp4

Codec ID                                 : isom

Codec ID                                 : isom (isom/iso2/avc1/mp41)

Codec ID/Url                             : http://www.apple.com/quicktime/download/standalone.html

CodecID_Compatible                       : isom/iso2/avc1/mp41

File size                                : 4090504424

File size                                : 3.81 GiB

File size                                : 4 GiB

File size                                : 3.8 GiB

File size                                : 3.81 GiB

File size                                : 3.810 GiB

Duration                                 : 18263519

Duration                                 : 5 h 4 min

Duration                                 : 5 h 4 min 23 s 519 ms

Duration                                 : 5 h 4 min

Duration                                 : 05:04:23.519

Duration                                 : 05:04:23:15

Duration                                 : 05:04:23.519 (05:04:23:15)

Overall bit rate                         : 1791771

Overall bit rate                         : 1 792 kb/s

Frame rate                               : 30.000

Frame rate                               : 30.000 FPS

Frame count                              : 547905

Stream size                              : 18949791

Stream size                              : 18.1 MiB (0%)

Stream size                              : 18 MiB

Stream size                              : 18 MiB

Stream size                              : 18.1 MiB

Stream size                              : 18.07 MiB

Stream size                              : 18.1 MiB (0%)

Proportion of this stream                : 0.00463

HeaderSize                               : 40

DataSize                                 : 4071554641

FooterSize                               : 18949743

IsStreamable                             : No

File creation date                       : UTC 2020-10-14 03:24:15.270

File creation date (local)               : 2020-10-14 12:24:15.270

File last modification date              : UTC 2020-10-14 05:55:00.466

File last modification date (local)      : 2020-10-14 14:55:00.466

Writing application                      : ShanaEncoder

Writing application                      : ShanaEncoder

 

Video

Count                                    : 378

Count of stream of this kind             : 1

Kind of stream                           : Video

Kind of stream                           : Video

Stream identifier                        : 0

StreamOrder                              : 0

ID                                       : 1

ID                                       : 1

Format                                   : AVC

Format                                   : AVC

Format/Info                              : Advanced Video Codec

Format/Url                               : http://developers.videolan.org/x264.html

Commercial name                          : AVC

Format profile                           : Baseline@L1.3

Format settings                          : 1 Ref Frames

Format settings, CABAC                   : No

Format settings, CABAC                   : No

Format settings, Reference frames        : 1

Format settings, Reference frames        : 1 frame

Internet media type                      : video/H264

Codec ID                                 : avc1

Codec ID/Info                            : Advanced Video Coding

Duration                                 : 18263500

Duration                                 : 5 h 4 min

Duration                                 : 5 h 4 min 23 s 500 ms

Duration                                 : 5 h 4 min

Duration                                 : 05:04:23.500

Duration                                 : 05:04:23:15

Duration                                 : 05:04:23.500 (05:04:23:15)

Bit rate                                 : 1655488

Bit rate                                 : 1 655 kb/s

Width                                    : 720

Width                                    : 720 pixels

Height                                   : 1280

Height                                   : 1 280 pixels

Sampled_Width                            : 720

Sampled_Height                           : 1280

Pixel aspect ratio                       : 1.000

Display aspect ratio                     : 0.563

Display aspect ratio                     : 0.563

Rotation                                 : 0.000

Frame rate mode                          : CFR

Frame rate mode                          : Constant

FrameRate_Mode_Original                  : VFR

Frame rate                               : 30.000

Frame rate                               : 30.000 FPS

Frame count                              : 547905

Color space                              : YUV

Chroma subsampling                       : 4:2:0

Chroma subsampling                       : 4:2:0

Bit depth                                : 8

Bit depth                                : 8 bits

Scan type                                : Progressive

Scan type                                : Progressive

Bits/(Pixel*Frame)                       : 0.060

Stream size                              : 3779374956

Stream size                              : 3.52 GiB (92%)

Stream size                              : 4 GiB

Stream size                              : 3.5 GiB

Stream size                              : 3.52 GiB

Stream size                              : 3.520 GiB

Stream size                              : 3.52 GiB (92%)

Proportion of this stream                : 0.92394

Writing library                          : x264 - core 161 r3015 4c2aafd

Writing library                          : x264 core 161 r3015 4c2aafd

Encoded_Library_Name                     : x264

Encoded_Library_Version                  : core 161 r3015 4c2aafd

Encoding settings                        : cabac=0 / ref=1 / deblock=1:0:0 / analyse=0x1:0x111 / me=hex / subme=2 / psy=1 / psy_rd=1.00:0.00 / mixed_ref=0 / me_range=16 / chroma_me=1 / trellis=0 / 8x8dct=0 / cqm=0 / deadzone=21,11 / fast_pskip=1 / chroma_qp_offset=0 / threads=6 / lookahead_threads=2 / sliced_threads=0 / nr=0 / decimate=1 / interlaced=0 / bluray_compat=0 / constrained_intra=0 / bframes=0 / weightp=0 / keyint=250 / keyint_min=25 / scenecut=40 / intra_refresh=0 / rc_lookahead=10 / rc=crf / mbtree=1 / crf=22.0 / qcomp=0.60 / qpmin=0 / qpmax=69 / qpstep=4 / ip_ratio=1.40 / aq=1:1.00

Codec configuration box                  : avcC

 

Audio

Count                                    : 280

Count of stream of this kind             : 1

Kind of stream                           : Audio

Kind of stream                           : Audio

Stream identifier                        : 0

StreamOrder                              : 1

ID                                       : 2

ID                                       : 2

Format                                   : AAC

Format                                   : AAC LC

Format/Info                              : Advanced Audio Codec Low Complexity

Commercial name                          : AAC

Format_AdditionalFeatures                : LC

Codec ID                                 : mp4a-40-2

Duration                                 : 18263519

Duration                                 : 5 h 4 min

Duration                                 : 5 h 4 min 23 s 519 ms

Duration                                 : 5 h 4 min

Duration                                 : 05:04:23.519

Duration                                 : 05:04:49:18

Duration                                 : 05:04:23.519 (05:04:49:18)

Bit rate mode                            : CBR

Bit rate mode                            : Constant

Bit rate                                 : 127983

Bit rate                                 : 128 kb/s

Channel(s)                               : 2

Channel(s)                               : 2 channels

Channel positions                        : Front: L R

Channel positions                        : 2/0/0

Channel layout                           : L R

Samples per frame                        : 1024

Sampling rate                            : 44100

Sampling rate                            : 44.1 kHz

Samples count                            : 805421188

Frame rate                               : 43.066

Frame rate                               : 43.066 FPS (1024 SPF)

Frame count                              : 786445

Compression mode                         : Lossy

Compression mode                         : Lossy

Stream size                              : 292179677

Stream size                              : 279 MiB (7%)

Stream size                              : 279 MiB

Stream size                              : 279 MiB

Stream size                              : 279 MiB

Stream size                              : 278.6 MiB

Stream size                              : 279 MiB (7%)

Proportion of this stream                : 0.07143

Default                                  : Yes

Default                                  : Yes

Alternate group                          : 1

Alternate group                          : 1

 

MediaInfoLib - v19.09

 

 

B파일

 

General

Complete name                            : J:\새 폴더\B.mp4

Format                                   : MPEG-4

Format profile                           : Base Media

Codec ID                                 : isom (isom/iso2/avc1/mp41)

File size                                : 1.36 GiB

Duration                                 : 1 h 24 min

Overall bit rate                         : 2 312 kb/s

Writing application                      : Lavf58.20.100

 

Video

ID                                       : 1

Format                                   : AVC

Format/Info                              : Advanced Video Codec

Format profile                           : Main@L4

Format settings                          : CABAC / 4 Ref Frames

Format settings, CABAC                   : Yes

Format settings, Reference frames        : 4 frames

Codec ID                                 : avc1

Codec ID/Info                            : Advanced Video Coding

Duration                                 : 1 h 24 min

Bit rate                                 : 2 177 kb/s

Width                                    : 1 280 pixels

Height                                   : 720 pixels

Display aspect ratio                     : 16:9

Frame rate mode                          : Constant

Frame rate                               : 25.000 FPS

Color space                              : YUV

Chroma subsampling                       : 4:2:0

Bit depth                                : 8 bits

Scan type                                : Progressive

Bits/(Pixel*Frame)                       : 0.094

Stream size                              : 1.28 GiB (94%)

Writing library                          : x264 core 157 r2969 d4099dd

Encoding settings                        : cabac=1 / ref=3 / deblock=1:0:0 / analyse=0x1:0x111 / me=hex / subme=7 / psy=1 / psy_rd=1.00:0.00 / mixed_ref=1 / me_range=16 / chroma_me=1 / trellis=1 / 8x8dct=0 / cqm=0 / deadzone=21,11 / fast_pskip=1 / chroma_qp_offset=-2 / threads=18 / lookahead_threads=3 / sliced_threads=0 / nr=0 / decimate=1 / interlaced=0 / bluray_compat=0 / constrained_intra=0 / bframes=3 / b_pyramid=2 / b_adapt=1 / b_bias=0 / direct=1 / weightb=1 / open_gop=0 / weightp=2 / keyint=250 / keyint_min=25 / scenecut=40 / intra_refresh=0 / rc_lookahead=40 / rc=crf / mbtree=1 / crf=18.0 / qcomp=0.60 / qpmin=0 / qpmax=69 / qpstep=4 / vbv_maxrate=2500 / vbv_bufsize=4500 / crf_max=0.0 / nal_hrd=none / filler=0 / ip_ratio=1.40 / aq=1:1.00

Codec configuration box                  : avcC

 

Audio

ID                                       : 2

Format                                   : AAC LC

Format/Info                              : Advanced Audio Codec Low Complexity

Codec ID                                 : mp4a-40-2

Duration                                 : 1 h 24 min

Duration_LastFrame                       : -11 ms

Bit rate mode                            : Constant

Bit rate                                 : 129 kb/s

Channel(s)                               : 2 channels

Channel layout                           : L R

Sampling rate                            : 44.1 kHz

Frame rate                               : 43.066 FPS (1024 SPF)

Compression mode                         : Lossy

Stream size                              : 77.8 MiB (6%)

Default                                  : Yes

Alternate group                          : 1

 

 

 

자세한 정보

 

General

Count                                    : 331

Count of stream of this kind             : 1

Kind of stream                           : General

Kind of stream                           : General

Stream identifier                        : 0

Count of video streams                   : 1

Count of audio streams                   : 1

Video_Format_List                        : AVC

Video_Format_WithHint_List               : AVC

Codecs Video                             : AVC

Audio_Format_List                        : AAC LC

Audio_Format_WithHint_List               : AAC LC

Audio codecs                             : AAC LC

Complete name                            : J:\새 폴더\B.mp4

Folder name                              : J:\새 폴더

File name extension                      : B.mp4

File name                                : B

File extension                           : mp4

Format                                   : MPEG-4

Format                                   : MPEG-4

Format/Extensions usually used           : braw mov mp4 m4v m4a m4b m4p m4r 3ga 3gpa 3gpp 3gp 3gpp2 3g2 k3g jpm jpx mqv ismv isma ismt f4a f4b f4v

Commercial name                          : MPEG-4

Format profile                           : Base Media

Internet media type                      : video/mp4

Codec ID                                 : isom

Codec ID                                 : isom (isom/iso2/avc1/mp41)

Codec ID/Url                             : http://www.apple.com/quicktime/download/standalone.html

CodecID_Compatible                       : isom/iso2/avc1/mp41

File size                                : 1463895612

File size                                : 1.36 GiB

File size                                : 1 GiB

File size                                : 1.4 GiB

File size                                : 1.36 GiB

File size                                : 1.363 GiB

Duration                                 : 5065120

Duration                                 : 1 h 24 min

Duration                                 : 1 h 24 min 25 s 120 ms

Duration                                 : 1 h 24 min

Duration                                 : 01:24:25.120

Duration                                 : 01:24:25:03

Duration                                 : 01:24:25.120 (01:24:25:03)

Overall bit rate                         : 2312120

Overall bit rate                         : 2 312 kb/s

Frame rate                               : 25.000

Frame rate                               : 25.000 FPS

Frame count                              : 126628

Stream size                              : 4181123

Stream size                              : 3.99 MiB (0%)

Stream size                              : 4 MiB

Stream size                              : 4.0 MiB

Stream size                              : 3.99 MiB

Stream size                              : 3.987 MiB

Stream size                              : 3.99 MiB (0%)

Proportion of this stream                : 0.00286

HeaderSize                               : 4181115

DataSize                                 : 1459714497

FooterSize                               : 0

IsStreamable                             : Yes

File creation date                       : UTC 2020-10-04 16:20:33.482

File creation date (local)               : 2020-10-05 01:20:33.482

File last modification date              : UTC 2020-10-04 16:24:10.251

File last modification date (local)      : 2020-10-05 01:24:10.251

Writing application                      : Lavf58.20.100

Writing application                      : Lavf58.20.100

 

Video

Count                                    : 378

Count of stream of this kind             : 1

Kind of stream                           : Video

Kind of stream                           : Video

Stream identifier                        : 0

StreamOrder                              : 0

ID                                       : 1

ID                                       : 1

Format                                   : AVC

Format                                   : AVC

Format/Info                              : Advanced Video Codec

Format/Url                               : http://developers.videolan.org/x264.html

Commercial name                          : AVC

Format profile                           : Main@L4

Format settings                          : CABAC / 4 Ref Frames

Format settings, CABAC                   : Yes

Format settings, CABAC                   : Yes

Format settings, Reference frames        : 4

Format settings, Reference frames        : 4 frames

Internet media type                      : video/H264

Codec ID                                 : avc1

Codec ID/Info                            : Advanced Video Coding

Duration                                 : 5065120

Duration                                 : 1 h 24 min

Duration                                 : 1 h 24 min 25 s 120 ms

Duration                                 : 1 h 24 min

Duration                                 : 01:24:25.120

Duration                                 : 01:24:25:03

Duration                                 : 01:24:25.120 (01:24:25:03)

Bit rate                                 : 2176698

Bit rate                                 : 2 177 kb/s

Width                                    : 1280

Width                                    : 1 280 pixels

Height                                   : 720

Height                                   : 720 pixels

Sampled_Width                            : 1280

Sampled_Height                           : 720

Pixel aspect ratio                       : 1.000

Display aspect ratio                     : 1.778

Display aspect ratio                     : 16:9

Rotation                                 : 0.000

Frame rate mode                          : CFR

Frame rate mode                          : Constant

FrameRate_Mode_Original                  : VFR

Frame rate                               : 25.000

Frame rate                               : 25.000 FPS

Frame count                              : 126628

Color space                              : YUV

Chroma subsampling                       : 4:2:0

Chroma subsampling                       : 4:2:0

Bit depth                                : 8

Bit depth                                : 8 bits

Scan type                                : Progressive

Scan type                                : Progressive

Bits/(Pixel*Frame)                       : 0.094

Stream size                              : 1378154774

Stream size                              : 1.28 GiB (94%)

Stream size                              : 1 GiB

Stream size                              : 1.3 GiB

Stream size                              : 1.28 GiB

Stream size                              : 1.284 GiB

Stream size                              : 1.28 GiB (94%)

Proportion of this stream                : 0.94143

Writing library                          : x264 - core 157 r2969 d4099dd

Writing library                          : x264 core 157 r2969 d4099dd

Encoded_Library_Name                     : x264

Encoded_Library_Version                  : core 157 r2969 d4099dd

Encoding settings                        : cabac=1 / ref=3 / deblock=1:0:0 / analyse=0x1:0x111 / me=hex / subme=7 / psy=1 / psy_rd=1.00:0.00 / mixed_ref=1 / me_range=16 / chroma_me=1 / trellis=1 / 8x8dct=0 / cqm=0 / deadzone=21,11 / fast_pskip=1 / chroma_qp_offset=-2 / threads=18 / lookahead_threads=3 / sliced_threads=0 / nr=0 / decimate=1 / interlaced=0 / bluray_compat=0 / constrained_intra=0 / bframes=3 / b_pyramid=2 / b_adapt=1 / b_bias=0 / direct=1 / weightb=1 / open_gop=0 / weightp=2 / keyint=250 / keyint_min=25 / scenecut=40 / intra_refresh=0 / rc_lookahead=40 / rc=crf / mbtree=1 / crf=18.0 / qcomp=0.60 / qpmin=0 / qpmax=69 / qpstep=4 / vbv_maxrate=2500 / vbv_bufsize=4500 / crf_max=0.0 / nal_hrd=none / filler=0 / ip_ratio=1.40 / aq=1:1.00

Codec configuration box                  : avcC

 

Audio

Count                                    : 280

Count of stream of this kind             : 1

Kind of stream                           : Audio

Kind of stream                           : Audio

Stream identifier                        : 0

StreamOrder                              : 1

ID                                       : 2

ID                                       : 2

Format                                   : AAC

Format                                   : AAC LC

Format/Info                              : Advanced Audio Codec Low Complexity

Commercial name                          : AAC

Format settings, SBR                     : No (Explicit)

Format settings, SBR                     : No (Explicit)

Format_AdditionalFeatures                : LC

Codec ID                                 : mp4a-40-2

Duration                                 : 5065005

Duration                                 : 1 h 24 min

Duration                                 : 1 h 24 min 25 s 5 ms

Duration                                 : 1 h 24 min

Duration                                 : 01:24:25.005

Duration                                 : 01:24:32:36

Duration                                 : 01:24:25.005 (01:24:32:36)

Duration_LastFrame                       : -11

Duration_LastFrame                       : -11 ms

Duration_LastFrame                       : -11 ms

Duration_LastFrame                       : -11 ms

Duration_LastFrame                       : -00:00:00.011

Bit rate mode                            : CBR

Bit rate mode                            : Constant

Bit rate                                 : 128820

Bit rate                                 : 129 kb/s

Channel(s)                               : 2

Channel(s)                               : 2 channels

Channel positions                        : Front: L R

Channel positions                        : 2/0/0

Channel layout                           : L R

Samples per frame                        : 1024

Sampling rate                            : 44100

Sampling rate                            : 44.1 kHz

Samples count                            : 223366721

Frame rate                               : 43.066

Frame rate                               : 43.066 FPS (1024 SPF)

Frame count                              : 218132

Compression mode                         : Lossy

Compression mode                         : Lossy

Stream size                              : 81559715

Stream size                              : 77.8 MiB (6%)

Stream size                              : 78 MiB

Stream size                              : 78 MiB

Stream size                              : 77.8 MiB

Stream size                              : 77.78 MiB

Stream size                              : 77.8 MiB (6%)

Proportion of this stream                : 0.05571

Default                                  : Yes

Default                                  : Yes

Alternate group                          : 1

Alternate group                          : 1

 

MediaInfoLib - v19.09

Atachment
Attachment '1'
Facebook Twitter Pinterest Kakao

List of Articles
No. Category Subject Author Date Views Votes
Notice 자유게시판에서는 자유롭게 글을 작성할 수 있지만 다음과 같은 내용은 삭제돼요 Rina 2020.03.18 647 2
Notice 일반 [필독] 질문 전에 반드시 읽으세요!!! 2 file JKyle 2019.09.16 4908 3
Notice 일반 [알림] 질문 먹튀하지 마시기 바랍니다 => 본문 변경 금지 15 JKyle 2018.10.12 5932 9
2348 질문 긴급합니다. 질문드려요. 용맘 2020.10.25 211 0
2347 질문 madvr로 인코딩하는 방법은 없나요? 1 오방떡 2020.10.24 48 0
2346 질문 window 10 사용중인 유저입니다 1 남원참치 2020.10.23 145 0
2345 질문 윈7 이구요 구버전부터 이번신버전까지 인코딩 완료가안됩니다 ㅡㅡ 2 급구여율령 2020.10.19 201 0
2344 질문 기타설정에서 파일크기에 따라 비트레이트 자동 설정하면 2패스는 의미없게되나요? 1 루알츠 2020.10.19 93 0
2343 일반 ※자동재생 주의※ 5.1 버전 업데이트 후 ass 자막 테스트 해봤습니다 2 file LDC 2020.10.17 194 1
2342 정보 AV1 하드웨어 디코딩에 관한 몇 가지 소식 JKyle 2020.10.17 129 0
2341 질문 인코딩후 유튜브에 업로드하면 컴퓨터로는 음질이 괜찮은데 핸드폰으로 보면 지지직 거리는 소리가 너무 크게 들려요 어떻게 하면 될까요? file pfhn 2020.10.15 86 0
2340 일반 add language 1 file sylas 2020.10.15 68 0
» 질문 잘 몰라서 그래도 가져 왔어요 file 길릭2 2020.10.15 94 0
2338 질문 구간설정창에서 현재화면의 '프레임 위치번호' 를 알수있는 방법 없는가요? 1 zl 2020.10.13 43 0
2337 질문 인코딩 오류 질문드립니다 4 lemon 2020.10.12 123 0
2336 질문 저번에 샤나인코더 버그 질문드렸었는데 비슷한 현상이 더 있는 것 같습니다. 2 file Melon 2020.10.11 148 0
2335 질문 신버전 인코딩 변환 속도를 빠르게 하는 방법 좀 알려주세요ㅠ 1 jhl0124jhl 2020.10.10 278 0
2334 일반 인코딩 변환 속도에 대하여...ㅠㅠ jhl0124jhl 2020.10.10 142 0
2333 질문 여러개의 동영상파일에 대해 동일한 구간의 자르기를 하려고 합니다. pjm 2020.10.09 87 0
2332 질문 파일의 인코딩을 변환한 후 원본영상을 삭제하고자 합니다 1 바나나나나나나나 2020.10.08 170 0
2331 샤나인코더 5.1.0.1 배포 예정 안내 4 Rina 2020.10.08 577 4
2330 질문 아이패드 스크린 녹화영상 인코딩시 화면 회전 문의 5 까만돌 2020.10.07 81 0
2329 질문 영상에 한글자막을 closed caption 적용하여 인코딩시 자막명이 und, unknow로 나옵니다. 1 file 최후느 2020.10.07 59 0
Board Pagination Prev 1 2 3 4 5 6 7 8 9 10 ... 118 Next
/ 118