Skip to menu

본문시작



질문하기 전에 검색하세요(Search before asking a question)


Views 240 Votes 0 Comment 8
?

Shortcut

PrevPrev Article

NextNext Article

Larger Font Smaller Font Up Down Go comment Print
?

Shortcut

PrevPrev Article

NextNext Article

Larger Font Smaller Font Up Down Go comment Print

평소 합칠 땐 샤나에서 권고하는대로 프레임레이트, 해상도, 샘플레이트를 동일하게 설정 후 합쳐왔는데요,

 

알아보니까 mp4 tool의 joiner는 인코딩 없이 합치는게 가능하다는 글을 봤습니다

 

프레임레이트, 해상도, 샘플레이트가 달라도 인코딩 없이 합치는 게 가능한가요?

Facebook Twitter Pinterest Kakao
  • ?
    JKyle 2020.07.29 12:10

    합치기 모드 선택 ⇒ 대상 파일들을 목록에 불러오기 ⇒ 빠른 설정에서 비디오 코덱, 오디오 코덱 모두 '* 스트림 복사' 선택

    합치기 시 주의할 점은 https://shana.pe.kr/shanaencoder_tip/87979 참고

  • ?
    bobomama 2020.07.29 13:10
    이럴 수가;;; 샤나의 기능은 정말 생각지도 못할 수준으로 그 폭이 넓군요
    저녁되면 바로 해봐야겠네요
    친절한 답변 감사드립니다 ㅅㅅ
  • ?
    bobomama 2020.07.29 17:31

    안녕하세요. 말씀하신 대로 코덱/해상도/프레임 레이트/채널 수/샘플 레이트 동일하게 변환 후 해봤는데요, 합쳐지긴 했는데 결과물을 보니 비디오가 안 나오거나 오디오 싱크가 어긋나는 등 비디오와 오디오 둘 다 문제가 생겼습니다. 그 이유를 찾기 위해 파일 정보를 확인해봤는데, 제가 비디오레도로 잘라낸 것의 설정이 원인인 거 같아요

    제가 생략하고 말씀드린 게 있는데 자세히 설명드리자면, 제가 행한 작업 과정은 "(1)비디오레도로 영상들을 잘라내고(샤나로 잘라내면 프레임 그대로 칼컷이 안 돼서 비디오레도를 사용했습니다), (2)가장 용량 큰 파일의 코덱, 해상도 등을 기준 삼아 다른 파일들을 거기에 맞춰 퀄리티 27.5로 샤나에서 인코딩, (3)샤나의 합치기 모드에서 스트림 복사"라는 3단계를 행했습니다. 그런데 합치기 실패 후 파일 정보를 살펴보니, '비디오레도로 자른 영상'과, '비디오레도로 자른 후 샤나로 코덱, 해상도 등을 인코딩한 영상'의 세부정보가 다르더라고요.

    예를 들면, Video 항목의 Format profile의 경우 '비디오 레도로 자른 것 1~2'는 High@L4인데, '[SHANA]비디오 레도로 자른 것 2'은 Baseline@L4입니다. Video 항목의 Format settings의 경우 '비디오 레도로 자른 것 1~2'는 CABAC / 3 Ref Frames인데, '[SHANA]비디오 레도로 자른 것 2'은 3 Ref Frames로 'CABAC'이란 게 없습니다. Video 항목의 Encoding settings의 경우 '비디오 레도로 자른 것 1~2'엔 없는데, '[SHANA]비디오 레도로 자른 것 2'엔 존재하며 뭔가 주르륵 써있습니다.

    그래서 "'비디오 레도로 자른 것 1'을 다른 건 건드리지 않은 채 퀄리티 25.5로 인코딩해서 '[SHANA]비디오 레도로 자른 것 2'과 세부 항목이 같아진다면, 스트림 복사로 합치는 게 가능하지 않을까?" 싶어서 실행해봤더니, 이때는 성공했습니다. 이 결과에 의해 저는 "코덱, 해상도 등이 샤나 인터페이스에서 보여주는 수준이 아니라, 파일 정보에서 볼 수 있는 세부 항목까지 동일해야 스트림 복사가 가능하구나"하는 소결론을 내린 후, "그렇다면 굳이 둘 다 인코딩할 필요 없이, '비디오 레도로 자른 것 2'를 '비디오 레도로 자른 것 1'의 세부 항목까지 동일하게 인코딩 후 스트림 복사로 합치면 된다"는 대결론을 내렸고요.

    다만 문제는, 제가 Format profile, Format settings 등 세부 항목을 설정하는 법을 모른다는 겁니다.. ㅠㅠㅠ 부디 그 방법을 알려주시면 감사하겠습니다.

    아래 댓글들은 언급했던 파일 정보들입니다.

  • ?
    JKyle 2020.07.31 13:51

    https://shana.pe.kr/shanaencoder_tip/80578

    "질문하기 전에 검색하세요"

     

  • ?
    bobomama 2020.07.29 17:32
    General
    Complete name : F:\인코딩 자료\비디오 레도로 자른 것 1.mp4
    Format : MPEG-4
    Format profile : Base Media
    Codec ID : isom (isom/iso2/avc1/mp41)
    File size : 180 MiB
    Duration : 11 min 11 s
    Overall bit rate : 2 253 kb/s
    Writing application : VideoReDo (Lavf57.71.100)

    Video
    ID : 1
    Format : AVC
    Format/Info : Advanced Video Codec
    Format profile : High@L4
    Format settings : CABAC / 3 Ref Frames
    Format settings, CABAC : Yes
    Format settings, Reference frames : 3 frames
    Codec ID : avc1
    Codec ID/Info : Advanced Video Coding
    Duration : 11 min 10 s
    Bit rate : 2 113 kb/s
    Width : 1 920 pixels
    Height : 1 080 pixels
    Display aspect ratio : 16:9
    Frame rate mode : Constant
    Frame rate : 29.970 (30000/1001) FPS
    Color space : YUV
    Chroma subsampling : 4:2:0
    Bit depth : 8 bits
    Scan type : Progressive
    Bits/(Pixel*Frame) : 0.034
    Stream size : 169 MiB (94%)
    Menus : 3
    Codec configuration box : avcC

    Audio
    ID : 2
    Format : AAC LC
    Format/Info : Advanced Audio Codec Low Complexity
    Codec ID : mp4a-40-2
    Duration : 11 min 11 s
    Bit rate mode : Constant
    Bit rate : 126 kb/s
    Channel(s) : 2 channels
    Channel layout : L R
    Sampling rate : 44.1 kHz
    Frame rate : 43.066 FPS (1024 SPF)
    Compression mode : Lossy
    Stream size : 10.0 MiB (6%)
    Default : Yes
    Alternate group : 1
    Menus : 3

    Menu #1
    ID : 3
    Codec ID : txet
    Duration : 11 min 10 s
    Language : English
    Menu For : 1,2

    Menu #2
    00:00:00.000 : Chapter 1



    자세한 정보

    General
    Count : 331
    Count of stream of this kind : 1
    Kind of stream : General
    Kind of stream : General
    Stream identifier : 0
    Count of video streams : 1
    Count of audio streams : 1
    Count of menu streams : 2
    Video_Format_List : AVC
    Video_Format_WithHint_List : AVC
    Codecs Video : AVC
    Audio_Format_List : AAC LC
    Audio_Format_WithHint_List : AAC LC
    Audio codecs : AAC LC
    Menu_Format_List : txet /
    Menu_Format_WithHint_List : txet /
    Menu codecs : txet /
    Menu_Language_List : English /
    Complete name : F:\인코딩 자료\비디오 레도로 자른 것 1.mp4
    Folder name : F:\인코딩 자료
    File name extension : 비디오 레도로 자른 것 1.mp4
    File name : 비디오 레도로 자른 것 1
    File extension : mp4
    Format : MPEG-4
    Format : MPEG-4
    Format/Extensions usually used : braw mov mp4 m4v m4a m4b m4p m4r 3ga 3gpa 3gpp 3gp 3gpp2 3g2 k3g jpm jpx mqv ismv isma ismt f4a f4b f4v
    Commercial name : MPEG-4
    Format profile : Base Media
    Internet media type : video/mp4
    Codec ID : isom
    Codec ID : isom (isom/iso2/avc1/mp41)
    Codec ID/Url : http://www.apple.com/quicktime/download/standalone.html
    CodecID_Compatible : isom/iso2/avc1/mp41
    File size : 188946334
    File size : 180 MiB
    File size : 180 MiB
    File size : 180 MiB
    File size : 180 MiB
    File size : 180.2 MiB
    Duration : 671010
    Duration : 11 min 11 s
    Duration : 11 min 11 s 10 ms
    Duration : 11 min 11 s
    Duration : 00:11:11.010
    Duration : 00:11:10;28
    Duration : 00:11:11.010 (00:11:10;28)
    Overall bit rate : 2252680
    Overall bit rate : 2 253 kb/s
    Frame rate : 29.970
    Frame rate : 29.970 FPS
    Frame count : 20108
    Stream size : 1178383
    Stream size : 1.12 MiB (1%)
    Stream size : 1 MiB
    Stream size : 1.1 MiB
    Stream size : 1.12 MiB
    Stream size : 1.124 MiB
    Stream size : 1.12 MiB (1%)
    Proportion of this stream : 0.00624
    HeaderSize : 1178352
    DataSize : 187767982
    FooterSize : 0
    IsStreamable : Yes
    File creation date : UTC 2020-07-29 08:06:57.800
    File creation date (local) : 2020-07-29 17:06:57.800
    File last modification date : UTC 2020-07-26 06:35:40.000
    File last modification date (local) : 2020-07-26 15:35:40.000
    Writing application : VideoReDo (Lavf57.71.100)
    Writing application : VideoReDo (Lavf57.71.100)

    Video
    Count : 379
    Count of stream of this kind : 1
    Kind of stream : Video
    Kind of stream : Video
    Stream identifier : 0
    StreamOrder : 0
    ID : 1
    ID : 1
    Format : AVC
    Format : AVC
    Format/Info : Advanced Video Codec
    Format/Url : http://developers.videolan.org/x264.html
    Commercial name : AVC
    Format profile : High@L4
    Format settings : CABAC / 3 Ref Frames
    Format settings, CABAC : Yes
    Format settings, CABAC : Yes
    Format settings, Reference frames : 3
    Format settings, Reference frames : 3 frames
    Internet media type : video/H264
    Codec ID : avc1
    Codec ID/Info : Advanced Video Coding
    Duration : 670904
    Duration : 11 min 10 s
    Duration : 11 min 10 s 904 ms
    Duration : 11 min 10 s
    Duration : 00:11:10.904
    Duration : 00:11:10;28
    Duration : 00:11:10.904 (00:11:10;28)
    Bit rate : 2113266
    Bit rate : 2 113 kb/s
    Width : 1920
    Width : 1 920 pixels
    Height : 1080
    Height : 1 080 pixels
    Stored_Height : 1088
    Sampled_Width : 1920
    Sampled_Height : 1080
    Pixel aspect ratio : 1.000
    Display aspect ratio : 1.778
    Display aspect ratio : 16:9
    Rotation : 0.000
    Frame rate mode : CFR
    Frame rate mode : Constant
    FrameRate_Mode_Original : VFR
    Frame rate : 29.970
    Frame rate : 29.970 (30000/1001) FPS
    FrameRate_Num : 30000
    FrameRate_Den : 1001
    Frame count : 20108
    Color space : YUV
    Chroma subsampling : 4:2:0
    Chroma subsampling : 4:2:0
    Bit depth : 8
    Bit depth : 8 bits
    Scan type : Progressive
    Scan type : Progressive
    Bits/(Pixel*Frame) : 0.034
    Stream size : 177233709
    Stream size : 169 MiB (94%)
    Stream size : 169 MiB
    Stream size : 169 MiB
    Stream size : 169 MiB
    Stream size : 169.0 MiB
    Stream size : 169 MiB (94%)
    Proportion of this stream : 0.93801
    Menus : 3
    Codec configuration box : avcC

    Audio
    Count : 281
    Count of stream of this kind : 1
    Kind of stream : Audio
    Kind of stream : Audio
    Stream identifier : 0
    StreamOrder : 1
    ID : 2
    ID : 2
    Format : AAC
    Format : AAC LC
    Format/Info : Advanced Audio Codec Low Complexity
    Commercial name : AAC
    Format_AdditionalFeatures : LC
    Codec ID : mp4a-40-2
    Duration : 671010
    Duration : 11 min 11 s
    Duration : 11 min 11 s 10 ms
    Duration : 11 min 11 s
    Duration : 00:11:11.010
    Duration : 00:11:12:03
    Duration : 00:11:11.010 (00:11:12:03)
    Bit rate mode : CBR
    Bit rate mode : Constant
    Bit rate : 125592
    Bit rate : 126 kb/s
    Channel(s) : 2
    Channel(s) : 2 channels
    Channel positions : Front: L R
    Channel positions : 2/0/0
    Channel layout : L R
    Samples per frame : 1024
    Sampling rate : 44100
    Sampling rate : 44.1 kHz
    Samples count : 29591541
    Frame rate : 43.066
    Frame rate : 43.066 FPS (1024 SPF)
    Frame count : 28899
    Compression mode : Lossy
    Compression mode : Lossy
    Stream size : 10534242
    Stream size : 10.0 MiB (6%)
    Stream size : 10 MiB
    Stream size : 10 MiB
    Stream size : 10.0 MiB
    Stream size : 10.05 MiB
    Stream size : 10.0 MiB (6%)
    Proportion of this stream : 0.05575
    Default : Yes
    Default : Yes
    Alternate group : 1
    Alternate group : 1
    Menus : 3

    Menu #1
    Count : 95
    Count of stream of this kind : 2
    Kind of stream : Menu
    Kind of stream : Menu
    Stream identifier : 0
    Stream identifier : 1
    StreamOrder : 2
    ID : 3
    ID : 3
    Format : txet
    Format : txet
    Commercial name : txet
    Codec ID : txet
    Duration : 670938
    Duration : 11 min 10 s
    Duration : 11 min 10 s 938 ms
    Duration : 11 min 10 s
    Duration : 00:11:10.938
    Duration : 00:11:10.938
    Language : en
    Language : English
    Language : English
    Language : en
    Language : eng
    Language : en
    Menu For : 1,2

    Menu #2
    Count : 95
    Count of stream of this kind : 2
    Kind of stream : Menu
    Kind of stream : Menu
    Stream identifier : 1
    Stream identifier : 2
    Chapters_Pos_Begin : 94
    Chapters_Pos_End : 95
    00:00:00.000 : Chapter 1

    MediaInfoLib - v19.09
  • ?
    bobomama 2020.07.29 17:33
    General
    Complete name : F:\인코딩 자료\비디오 레도로 자른 것 2.mp4
    Format : MPEG-4
    Format profile : Base Media
    Codec ID : isom (isom/iso2/avc1/mp41)
    File size : 59.6 MiB
    Duration : 5 min 11 s
    Overall bit rate : 1 606 kb/s
    Writing application : VideoReDo (Lavf57.71.100)

    Video
    ID : 1
    Format : AVC
    Format/Info : Advanced Video Codec
    Format profile : High@L4
    Format settings : CABAC / 3 Ref Frames
    Format settings, CABAC : Yes
    Format settings, Reference frames : 3 frames
    Codec ID : avc1
    Codec ID/Info : Advanced Video Coding
    Duration : 5 min 11 s
    Bit rate : 1 465 kb/s
    Width : 1 920 pixels
    Height : 1 080 pixels
    Display aspect ratio : 16:9
    Frame rate mode : Constant
    Frame rate : 25.000 FPS
    Color space : YUV
    Chroma subsampling : 4:2:0
    Bit depth : 8 bits
    Scan type : Progressive
    Bits/(Pixel*Frame) : 0.028
    Stream size : 54.3 MiB (91%)
    Color range : Limited
    Color primaries : BT.709
    Transfer characteristics : BT.709
    Matrix coefficients : BT.709
    Menus : 3
    Codec configuration box : avcC

    Audio
    ID : 2
    Format : AAC LC
    Format/Info : Advanced Audio Codec Low Complexity
    Codec ID : mp4a-40-2
    Duration : 5 min 11 s
    Bit rate mode : Constant
    Bit rate : 128 kb/s
    Channel(s) : 2 channels
    Channel layout : L R
    Sampling rate : 44.1 kHz
    Frame rate : 43.066 FPS (1024 SPF)
    Compression mode : Lossy
    Stream size : 4.75 MiB (8%)
    Default : Yes
    Alternate group : 1
    Menus : 3

    Menu #1
    ID : 3
    Codec ID : txet
    Duration : 5 min 11 s
    Language : English
    Menu For : 1,2

    Menu #2
    00:00:00.000 : Chapter 1



    자세한 정보

    General
    Count : 331
    Count of stream of this kind : 1
    Kind of stream : General
    Kind of stream : General
    Stream identifier : 0
    Count of video streams : 1
    Count of audio streams : 1
    Count of menu streams : 2
    Video_Format_List : AVC
    Video_Format_WithHint_List : AVC
    Codecs Video : AVC
    Audio_Format_List : AAC LC
    Audio_Format_WithHint_List : AAC LC
    Audio codecs : AAC LC
    Menu_Format_List : txet /
    Menu_Format_WithHint_List : txet /
    Menu codecs : txet /
    Menu_Language_List : English /
    Complete name : F:\인코딩 자료\비디오 레도로 자른 것 2.mp4
    Folder name : F:\인코딩 자료
    File name extension : 비디오 레도로 자른 것 2.mp4
    File name : 비디오 레도로 자른 것 2
    File extension : mp4
    Format : MPEG-4
    Format : MPEG-4
    Format/Extensions usually used : braw mov mp4 m4v m4a m4b m4p m4r 3ga 3gpa 3gpp 3gp 3gpp2 3g2 k3g jpm jpx mqv ismv isma ismt f4a f4b f4v
    Commercial name : MPEG-4
    Format profile : Base Media
    Internet media type : video/mp4
    Codec ID : isom
    Codec ID : isom (isom/iso2/avc1/mp41)
    Codec ID/Url : http://www.apple.com/quicktime/download/standalone.html
    CodecID_Compatible : isom/iso2/avc1/mp41
    File size : 62469758
    File size : 59.6 MiB
    File size : 60 MiB
    File size : 60 MiB
    File size : 59.6 MiB
    File size : 59.58 MiB
    Duration : 311160
    Duration : 5 min 11 s
    Duration : 5 min 11 s 160 ms
    Duration : 5 min 11 s
    Duration : 00:05:11.160
    Duration : 00:05:11:04
    Duration : 00:05:11.160 (00:05:11:04)
    Overall bit rate : 1606113
    Overall bit rate : 1 606 kb/s
    Frame rate : 25.000
    Frame rate : 25.000 FPS
    Frame count : 7779
    Stream size : 510487
    Stream size : 499 KiB (1%)
    Stream size : 499 KiB
    Stream size : 499 KiB
    Stream size : 499 KiB
    Stream size : 498.5 KiB
    Stream size : 499 KiB (1%)
    Proportion of this stream : 0.00817
    HeaderSize : 510456
    DataSize : 61959302
    FooterSize : 0
    IsStreamable : Yes
    File creation date : UTC 2020-07-29 08:07:58.270
    File creation date (local) : 2020-07-29 17:07:58.270
    File last modification date : UTC 2020-07-27 04:23:24.000
    File last modification date (local) : 2020-07-27 13:23:24.000
    Writing application : VideoReDo (Lavf57.71.100)
    Writing application : VideoReDo (Lavf57.71.100)

    Video
    Count : 379
    Count of stream of this kind : 1
    Kind of stream : Video
    Kind of stream : Video
    Stream identifier : 0
    StreamOrder : 0
    ID : 1
    ID : 1
    Format : AVC
    Format : AVC
    Format/Info : Advanced Video Codec
    Format/Url : http://developers.videolan.org/x264.html
    Commercial name : AVC
    Format profile : High@L4
    Format settings : CABAC / 3 Ref Frames
    Format settings, CABAC : Yes
    Format settings, CABAC : Yes
    Format settings, Reference frames : 3
    Format settings, Reference frames : 3 frames
    Internet media type : video/H264
    Codec ID : avc1
    Codec ID/Info : Advanced Video Coding
    Duration : 311120
    Duration : 5 min 11 s
    Duration : 5 min 11 s 120 ms
    Duration : 5 min 11 s
    Duration : 00:05:11.120
    Duration : 00:05:11:04
    Duration : 00:05:11.120 (00:05:11:04)
    Bit rate : 1464995
    Bit rate : 1 465 kb/s
    Width : 1920
    Width : 1 920 pixels
    Height : 1080
    Height : 1 080 pixels
    Stored_Height : 1088
    Sampled_Width : 1920
    Sampled_Height : 1080
    Pixel aspect ratio : 1.000
    Display aspect ratio : 1.778
    Display aspect ratio : 16:9
    Rotation : 0.000
    Frame rate mode : CFR
    Frame rate mode : Constant
    FrameRate_Mode_Original : VFR
    Frame rate : 25.000
    Frame rate : 25.000 FPS
    Frame count : 7779
    Color space : YUV
    Chroma subsampling : 4:2:0
    Chroma subsampling : 4:2:0
    Bit depth : 8
    Bit depth : 8 bits
    Scan type : Progressive
    Scan type : Progressive
    Bits/(Pixel*Frame) : 0.028
    Stream size : 56980995
    Stream size : 54.3 MiB (91%)
    Stream size : 54 MiB
    Stream size : 54 MiB
    Stream size : 54.3 MiB
    Stream size : 54.34 MiB
    Stream size : 54.3 MiB (91%)
    Proportion of this stream : 0.91214
    colour_description_present : Yes
    colour_description_present_Source : Stream
    Color range : Limited
    colour_range_Source : Stream
    Color primaries : BT.709
    colour_primaries_Source : Stream
    Transfer characteristics : BT.709
    transfer_characteristics_Source : Stream
    Matrix coefficients : BT.709
    matrix_coefficients_Source : Stream
    Menus : 3
    Codec configuration box : avcC

    Audio
    Count : 281
    Count of stream of this kind : 1
    Kind of stream : Audio
    Kind of stream : Audio
    Stream identifier : 0
    StreamOrder : 1
    ID : 2
    ID : 2
    Format : AAC
    Format : AAC LC
    Format/Info : Advanced Audio Codec Low Complexity
    Commercial name : AAC
    Format_AdditionalFeatures : LC
    Codec ID : mp4a-40-2
    Duration : 311148
    Duration : 5 min 11 s
    Duration : 5 min 11 s 148 ms
    Duration : 5 min 11 s
    Duration : 00:05:11.148
    Duration : 00:05:11:28
    Duration : 00:05:11.148 (00:05:11:28)
    Bit rate mode : CBR
    Bit rate mode : Constant
    Bit rate : 127997
    Bit rate : 128 kb/s
    Channel(s) : 2
    Channel(s) : 2 channels
    Channel positions : Front: L R
    Channel positions : 2/0/0
    Channel layout : L R
    Samples per frame : 1024
    Sampling rate : 44100
    Sampling rate : 44.1 kHz
    Samples count : 13721627
    Frame rate : 43.066
    Frame rate : 43.066 FPS (1024 SPF)
    Frame count : 13401
    Compression mode : Lossy
    Compression mode : Lossy
    Stream size : 4978276
    Stream size : 4.75 MiB (8%)
    Stream size : 5 MiB
    Stream size : 4.7 MiB
    Stream size : 4.75 MiB
    Stream size : 4.748 MiB
    Stream size : 4.75 MiB (8%)
    Proportion of this stream : 0.07969
    Default : Yes
    Default : Yes
    Alternate group : 1
    Alternate group : 1
    Menus : 3

    Menu #1
    Count : 95
    Count of stream of this kind : 2
    Kind of stream : Menu
    Kind of stream : Menu
    Stream identifier : 0
    Stream identifier : 1
    StreamOrder : 2
    ID : 3
    ID : 3
    Format : txet
    Format : txet
    Commercial name : txet
    Codec ID : txet
    Duration : 311160
    Duration : 5 min 11 s
    Duration : 5 min 11 s 160 ms
    Duration : 5 min 11 s
    Duration : 00:05:11.160
    Duration : 00:05:11.160
    Language : en
    Language : English
    Language : English
    Language : en
    Language : eng
    Language : en
    Menu For : 1,2

    Menu #2
    Count : 95
    Count of stream of this kind : 2
    Kind of stream : Menu
    Kind of stream : Menu
    Stream identifier : 1
    Stream identifier : 2
    Chapters_Pos_Begin : 94
    Chapters_Pos_End : 95
    00:00:00.000 : Chapter 1

    MediaInfoLib - v19.09
  • ?
    bobomama 2020.07.29 17:33
    General
    Complete name : F:\인코딩 자료\[SHANA]비디오 레도로 자른 것 2.mp4
    Format : MPEG-4
    Format profile : Base Media
    Codec ID : isom (isom/iso2/avc1/mp41)
    File size : 65.3 MiB
    Duration : 5 min 11 s
    Overall bit rate : 1 762 kb/s
    Writing application : ShanaEncoder

    Video
    ID : 1
    Format : AVC
    Format/Info : Advanced Video Codec
    Format profile : Baseline@L4
    Format settings : 3 Ref Frames
    Format settings, CABAC : No
    Format settings, Reference frames : 3 frames
    Format settings, GOP : N=1
    Codec ID : avc1
    Codec ID/Info : Advanced Video Coding
    Duration : 5 min 11 s
    Bit rate : 1 626 kb/s
    Width : 1 920 pixels
    Height : 1 080 pixels
    Display aspect ratio : 16:9
    Frame rate mode : Variable
    Frame rate : 25.000 FPS
    Minimum frame rate : 14.985 FPS
    Maximum frame rate : 29.970 FPS
    Color space : YUV
    Chroma subsampling : 4:2:0
    Bit depth : 8 bits
    Scan type : Progressive
    Bits/(Pixel*Frame) : 0.031
    Stream size : 60.3 MiB (92%)
    Writing library : x264 core 157 r2969 d4099dd
    Encoding settings : cabac=0 / ref=3 / deblock=1:0:0 / analyse=0x1:0x111 / me=hex / subme=7 / psy=1 / psy_rd=1.00:0.00 / mixed_ref=1 / me_range=16 / chroma_me=1 / trellis=1 / 8x8dct=0 / cqm=0 / deadzone=21,11 / fast_pskip=1 / chroma_qp_offset=-2 / threads=3 / lookahead_threads=1 / sliced_threads=0 / nr=0 / decimate=1 / interlaced=0 / bluray_compat=0 / constrained_intra=0 / bframes=0 / weightp=0 / keyint=250 / keyint_min=25 / scenecut=40 / intra_refresh=0 / rc_lookahead=40 / rc=crf / mbtree=1 / crf=27.5 / qcomp=0.60 / qpmin=0 / qpmax=69 / qpstep=4 / ip_ratio=1.40 / aq=1:1.00
    Codec configuration box : avcC

    Audio
    ID : 2
    Format : AAC LC
    Format/Info : Advanced Audio Codec Low Complexity
    Codec ID : mp4a-40-2
    Duration : 5 min 11 s
    Bit rate mode : Constant
    Bit rate : 128 kb/s
    Channel(s) : 2 channels
    Channel layout : L R
    Sampling rate : 44.1 kHz
    Frame rate : 43.066 FPS (1024 SPF)
    Compression mode : Lossy
    Stream size : 4.75 MiB (7%)
    Default : Yes
    Alternate group : 1



    자세한 정보

    General
    Count : 331
    Count of stream of this kind : 1
    Kind of stream : General
    Kind of stream : General
    Stream identifier : 0
    Count of video streams : 1
    Count of audio streams : 1
    Video_Format_List : AVC
    Video_Format_WithHint_List : AVC
    Codecs Video : AVC
    Audio_Format_List : AAC LC
    Audio_Format_WithHint_List : AAC LC
    Audio codecs : AAC LC
    Complete name : F:\인코딩 자료\[SHANA]비디오 레도로 자른 것 2.mp4
    Folder name : F:\인코딩 자료
    File name extension : [SHANA]비디오 레도로 자른 것 2.mp4
    File name : [SHANA]비디오 레도로 자른 것 2
    File extension : mp4
    Format : MPEG-4
    Format : MPEG-4
    Format/Extensions usually used : braw mov mp4 m4v m4a m4b m4p m4r 3ga 3gpa 3gpp 3gp 3gpp2 3g2 k3g jpm jpx mqv ismv isma ismt f4a f4b f4v
    Commercial name : MPEG-4
    Format profile : Base Media
    Internet media type : video/mp4
    Codec ID : isom
    Codec ID : isom (isom/iso2/avc1/mp41)
    Codec ID/Url : http://www.apple.com/quicktime/download/standalone.html
    CodecID_Compatible : isom/iso2/avc1/mp41
    File size : 68519797
    File size : 65.3 MiB
    File size : 65 MiB
    File size : 65 MiB
    File size : 65.3 MiB
    File size : 65.35 MiB
    Duration : 311148
    Duration : 5 min 11 s
    Duration : 5 min 11 s 148 ms
    Duration : 5 min 11 s
    Duration : 00:05:11.148
    Duration : 00:05:11:04
    Duration : 00:05:11.148 (00:05:11:04)
    Overall bit rate : 1761729
    Overall bit rate : 1 762 kb/s
    Frame rate : 25.000
    Frame rate : 25.000 FPS
    Frame count : 7779
    Stream size : 284600
    Stream size : 278 KiB (0%)
    Stream size : 278 KiB
    Stream size : 278 KiB
    Stream size : 278 KiB
    Stream size : 277.9 KiB
    Stream size : 278 KiB (0%)
    Proportion of this stream : 0.00415
    HeaderSize : 40
    DataSize : 68235205
    FooterSize : 284552
    IsStreamable : No
    File creation date : UTC 2020-07-29 08:07:38.280
    File creation date (local) : 2020-07-29 17:07:38.280
    File last modification date : UTC 2020-07-29 05:32:26.000
    File last modification date (local) : 2020-07-29 14:32:26.000
    Writing application : ShanaEncoder
    Writing application : ShanaEncoder

    Video
    Count : 378
    Count of stream of this kind : 1
    Kind of stream : Video
    Kind of stream : Video
    Stream identifier : 0
    StreamOrder : 0
    ID : 1
    ID : 1
    Format : AVC
    Format : AVC
    Format/Info : Advanced Video Codec
    Format/Url : http://developers.videolan.org/x264.html
    Commercial name : AVC
    Format profile : Baseline@L4
    Format settings : 3 Ref Frames
    Format settings, CABAC : No
    Format settings, CABAC : No
    Format settings, Reference frames : 3
    Format settings, Reference frames : 3 frames
    Format settings, GOP : N=1
    Internet media type : video/H264
    Codec ID : avc1
    Codec ID/Info : Advanced Video Coding
    Duration : 311145
    Duration : 5 min 11 s
    Duration : 5 min 11 s 145 ms
    Duration : 5 min 11 s
    Duration : 00:05:11.145
    Duration : 00:05:11:04
    Duration : 00:05:11.145 (00:05:11:04)
    Bit rate : 1626351
    Bit rate : 1 626 kb/s
    Width : 1920
    Width : 1 920 pixels
    Height : 1080
    Height : 1 080 pixels
    Stored_Height : 1088
    Sampled_Width : 1920
    Sampled_Height : 1080
    Pixel aspect ratio : 1.000
    Display aspect ratio : 1.778
    Display aspect ratio : 16:9
    Rotation : 0.000
    Frame rate mode : VFR
    Frame rate mode : Variable
    Frame rate : 25.000
    Frame rate : 25.000 FPS
    Minimum frame rate : 14.985
    Minimum frame rate : 14.985 FPS
    Maximum frame rate : 29.970
    Maximum frame rate : 29.970 FPS
    Frame count : 7779
    Color space : YUV
    Chroma subsampling : 4:2:0
    Chroma subsampling : 4:2:0
    Bit depth : 8
    Bit depth : 8 bits
    Scan type : Progressive
    Scan type : Progressive
    Bits/(Pixel*Frame) : 0.031
    Stream size : 63256921
    Stream size : 60.3 MiB (92%)
    Stream size : 60 MiB
    Stream size : 60 MiB
    Stream size : 60.3 MiB
    Stream size : 60.33 MiB
    Stream size : 60.3 MiB (92%)
    Proportion of this stream : 0.92319
    Writing library : x264 - core 157 r2969 d4099dd
    Writing library : x264 core 157 r2969 d4099dd
    Encoded_Library_Name : x264
    Encoded_Library_Version : core 157 r2969 d4099dd
    Encoding settings : cabac=0 / ref=3 / deblock=1:0:0 / analyse=0x1:0x111 / me=hex / subme=7 / psy=1 / psy_rd=1.00:0.00 / mixed_ref=1 / me_range=16 / chroma_me=1 / trellis=1 / 8x8dct=0 / cqm=0 / deadzone=21,11 / fast_pskip=1 / chroma_qp_offset=-2 / threads=3 / lookahead_threads=1 / sliced_threads=0 / nr=0 / decimate=1 / interlaced=0 / bluray_compat=0 / constrained_intra=0 / bframes=0 / weightp=0 / keyint=250 / keyint_min=25 / scenecut=40 / intra_refresh=0 / rc_lookahead=40 / rc=crf / mbtree=1 / crf=27.5 / qcomp=0.60 / qpmin=0 / qpmax=69 / qpstep=4 / ip_ratio=1.40 / aq=1:1.00
    Codec configuration box : avcC

    Audio
    Count : 280
    Count of stream of this kind : 1
    Kind of stream : Audio
    Kind of stream : Audio
    Stream identifier : 0
    StreamOrder : 1
    ID : 2
    ID : 2
    Format : AAC
    Format : AAC LC
    Format/Info : Advanced Audio Codec Low Complexity
    Commercial name : AAC
    Format_AdditionalFeatures : LC
    Codec ID : mp4a-40-2
    Duration : 311148
    Duration : 5 min 11 s
    Duration : 5 min 11 s 148 ms
    Duration : 5 min 11 s
    Duration : 00:05:11.148
    Duration : 00:05:11:28
    Duration : 00:05:11.148 (00:05:11:28)
    Bit rate mode : CBR
    Bit rate mode : Constant
    Bit rate : 127997
    Bit rate : 128 kb/s
    Channel(s) : 2
    Channel(s) : 2 channels
    Channel positions : Front: L R
    Channel positions : 2/0/0
    Channel layout : L R
    Samples per frame : 1024
    Sampling rate : 44100
    Sampling rate : 44.1 kHz
    Samples count : 13721627
    Frame rate : 43.066
    Frame rate : 43.066 FPS (1024 SPF)
    Frame count : 13401
    Compression mode : Lossy
    Compression mode : Lossy
    Stream size : 4978276
    Stream size : 4.75 MiB (7%)
    Stream size : 5 MiB
    Stream size : 4.7 MiB
    Stream size : 4.75 MiB
    Stream size : 4.748 MiB
    Stream size : 4.75 MiB (7%)
    Proportion of this stream : 0.07265
    Default : Yes
    Default : Yes
    Alternate group : 1
    Alternate group : 1

    MediaInfoLib - v19.09
  • ?
    bobomama 2020.07.29 17:34
    긴 글 읽어주셔서 감사합니다

List of Articles
No. Category Subject Author Date Views Votes
Notice [수정] 샤나인코더 구간 설정 기능 강화 안내 - 200730 file Rina 2020.07.26 218 1
Notice 자유게시판에서는 자유롭게 글을 작성할 수 있지만 다음과 같은 내용은 삭제돼요 Rina 2020.03.18 476 1
Notice 일반 [필독] 질문 전에 반드시 읽으세요!!!!!!!!! 2 file JKyle 2019.09.16 3733 3
Notice 일반 [알림] 질문 먹튀하지 마시기 바랍니다 => 본문 변경 금지 15 JKyle 2018.10.12 5562 9
2260 질문 자막 ASS 파일로 원하는 폰트로 인코딩 하려는데 미리보기에서 자막 글자가 깨지는 현상 5 file SONGANI 2020.08.11 96 0
2259 질문 어떤 프레임을 설정해야할지 모르겠습니다 1 file 경운기 2020.08.10 405 0
2258 질문 샤나인코더 및 업스케일링 작업을 위한 컴퓨터 세팅 1 라이조 2020.08.06 282 0
2257 질문 개별 모드로 하면 음성이 유지되는데 합치기 모드로 1 아동보호소 2020.08.03 181 0
2256 질문 영상에 다른 오디오를 덧씌우거나 이런건 못 하나요? 1 설탕수박 2020.08.03 134 0
2255 질문 Ref 값이 변경되지 않습니다 1 bobomama 2020.08.03 99 0
2254 질문 29fps ---> 24fps 인코딩 2 메가트랙스 2020.08.03 179 0
2253 질문 스마트폰용으로 내보내기 (LG V10 사용중) 야구 2020.08.03 111 0
2252 질문 넷플릭스 인코딩 하면 어두워지네요 1 file 우엉소년 2020.08.02 172 0
2251 질문 HEVC(AMF) 인코딩을 하면 비트레이트가 지멋대로 올라갑니다. ssdte23 2020.08.02 85 0
2250 정보 GTX1050ti Vs GTX1650 Vs GTX1070 Vs RTX2070super NVENC 인코딩 테스트 2 핀다 2020.08.01 164 0
2249 질문 무슨 의미인지 궁금합니다 1 file 주파수사 2020.08.01 103 0
» 질문 인코딩 없이 영상들 합치는 게 가능한가요? 8 bobomama 2020.07.27 240 0
2247 질문 CBR과 VBR 둘 중에 뭐가 좋은지 알려주세요 3 file 날라가 2020.07.27 202 0
2246 질문 인코딩시 오디오 스트림 복사를 선택하면 에러가 발생합니다. 2 file 애증의유 2020.07.25 100 0
2245 질문 샤나 인코딩에서 kisyd 2020.07.24 85 0
2244 질문 21:9 와이드 모니터로 영화감상 궁금증 1 피카츄워 2020.07.24 69 0
2243 질문 퀄리티 모드를 통해 약 2000kb/s 정도로 인코딩 했는데도 깍두기 현상이 생깁니다 4 bobomama 2020.07.22 221 0
2242 질문 인코딩한 영상에 일부분이 깨져 있습니다 2 file LLEEE 2020.07.20 192 0
Board Pagination Prev 1 2 3 4 5 6 7 8 9 10 ... 114 Next
/ 114