Skip to menu

본문시작



질문하기 전에 검색하세요(Search before asking a question)


?

Shortcut

PrevPrev Article

NextNext Article

Larger Font Smaller Font Up Down Go comment Print Attachment
?

Shortcut

PrevPrev Article

NextNext Article

Larger Font Smaller Font Up Down Go comment Print Attachment

먼저 미디어 인포는 아래와 같습니다.

//

//

General
Unique ID                      : 178951887757179496855278790105919130271 (0x86A0E142AC9863D73947F7AE8E300A9F)
Complete name                  : C:\Users\Girls Bravo\Girls Bravo - DISC 4 SP - Original Opening Version 2.mkv
Format                         : Matroska
Format version                 : Version 2
File size                      : 64.1 MiB
Duration                       : 1 min 33 s
Overall bit rate mode          : Variable
Overall bit rate               : 5 741 kb/s
Movie name                     : Girls Bravo Vol4
Encoded date                   : UTC 2020-09-25 04:50:53
Writing application            : MakeMKV v1.15.2 win(x64-release)
Writing library                : libmakemkv v1.15.2 (1.3.10/1.5.2) win(x64-release)

Video
ID                             : 1
ID in the original source medi : 224 (0xE0)
Format                         : MPEG Video
Format version                 : Version 2
Format profile                 : Main@Main
Format settings                : CustomMatrix / BVOP
Format settings, BVOP          : Yes
Format settings, Matrix        : Custom
Format settings, GOP           : Variable
Codec ID                       : V_MPEG2
Codec ID/Info                  : MPEG 1 or 2 Video
Duration                       : 1 min 33 s
Bit rate mode                  : Variable
Bit rate                       : 5 287 kb/s
Maximum bit rate               : 9 800 kb/s
Width                          : 720 pixels
Height                         : 480 pixels
Display aspect ratio           : 4:3
Frame rate mode                : Variable
Frame rate                     : 24.160 FPS
Original frame rate            : 23.976 (24000/1001) FPS
Color space                    : YUV
Chroma subsampling             : 4:2:0
Bit depth                      : 8 bits
Scan type                      : Progressive
Scan order                     : 2:3 Pulldown
Compression mode               : Lossy
Bits/(Pixel*Frame)             : 0.633
Time code of first frame       : 02:36:40:00
Time code source               : Group of pictures header
Stream size                    : 59.0 MiB (92%)
Language                       : English
Default                        : No
Forced                         : No
Original source medium         : DVD-Video

Audio #1
ID                             : 2
ID in the original source medi : 189 (0xBD)128 (0x80)
Format                         : AC-3
Format/Info                    : Audio Coding 3
Commercial name                : Dolby Digital
Codec ID                       : A_AC3
Duration                       : 1 min 33 s
Bit rate mode                  : Constant
Bit rate                       : 224 kb/s
Channel(s)                     : 2 channels
Channel layout                 : L R
Sampling rate                  : 48.0 kHz
Frame rate                     : 31.250 FPS (1536 SPF)
Compression mode               : Lossy
Stream size                    : 2.50 MiB (4%)
Title                          : Stereo
Language                       : English
Service kind                   : Complete Main
Default                        : Yes
Forced                         : No
Original source medium         : DVD-Video

Audio #2
ID                             : 3
ID in the original source medi : 189 (0xBD)129 (0x81)
Format                         : AC-3
Format/Info                    : Audio Coding 3
Commercial name                : Dolby Digital
Codec ID                       : A_AC3
Duration                       : 1 min 33 s
Bit rate mode                  : Constant
Bit rate                       : 224 kb/s
Channel(s)                     : 2 channels
Channel layout                 : L R
Sampling rate                  : 48.0 kHz
Frame rate                     : 31.250 FPS (1536 SPF)
Compression mode               : Lossy
Stream size                    : 2.50 MiB (4%)
Title                          : Stereo
Language                       : English
Service kind                   : Complete Main
Default                        : No
Forced                         : No
Original source medium         : DVD-Video

Text #1
ID                             : 4
ID in the original source medi : 189 (0xBD)32 (0x20)
Format                         : VobSub
Codec ID                       : S_VOBSUB
Codec ID/Info                  : Picture based subtitle format used on DVDs
Duration                       : 4 s 961 ms
Bit rate                       : 1 603 b/s
Count of elements              : 1
Stream size                    : 994 Bytes (0%)
Language                       : English
Default                        : Yes
Forced                         : No
Original source medium         : DVD-Video

Text #2
ID                             : 5
ID in the original source medi : 189 (0xBD)33 (0x21)
Format                         : VobSub
Codec ID                       : S_VOBSUB
Codec ID/Info                  : Picture based subtitle format used on DVDs
Duration                       : 4 s 961 ms
Bit rate                       : 1 603 b/s
Count of elements              : 1
Stream size                    : 994 Bytes (0%)
Language                       : English
Default                        : No
Forced                         : No
Original source medium         : DVD-Video

Menu
00:00:00.000                   : en:Chapter 1
00:01:31.891                   : en:end

//
//
Progressive 파일입니다만

 

파일을 재생해보면 장면에 따라 달라집니다.

 

2.PNG

 

 

2 ib.PNG

 

3 p.PNG

 

 

파일은 하나인데, 장면에 따라 스캔타입이 i, ib, p로 바뀌어집니다.

 

유동적인데 이걸 어떻게 인코딩 해야하나 고민을 해보다가

 

다양한 의견을 듣고자 글을 작성해봅니다.

 

 

 

샤나.PNG

 

 

그리고 샤나인코딩 내 심플 정보표시에서는 progressive로 나옵니다.

 

아마 파일 내 정보의 스캔타입을 읽어 표시하는거라 progressive 로 나오는 거겠죠.

 

 

디인터레이스 필터를 보고 생각해봤는데

 

 -vf "yadif=0:-1:0" 코드 중

 

가운데 -1이 Auto이므로, 장면에 따라 i, ib에 맞게 인터레이스 해주고

 

p 장면은 디인터레이스 필터가 off가 자동으로 되려나 생각도 듭니다.

 

아니라면 어떻게 인코딩해야할지 조언 부탁드립니다.

 

 

Atachment
Attachment '4'
Facebook Twitter Pinterest Kakao
  • ?
    JKyle 2020.10.01 08:44

    yadif=0:-1:0

    에서 가운데 -1은 field parity가 top field first인지 bottom field first인지를 알아서 잡아준다는 의미일 뿐입니다.

    오히려 세 번째 옵션을 1로 잡아서 'interlaced' 표시된 프레임들만 디인터레이스 적용하도록 시도해 보시는 게 좋지 않을까 짐작되네요.

     

    하지만 이 방법의 문제점은 가끔 원본에서 인터레이스 표시가 엉터리일 때도 있다는 겁니다.

     

    그냥 챕터별로 인터레이스 여부가 달라진다면 챕터별로 분할해서 따로 인코딩해야 하지 않을까 싶네요.

    샤나인코더에서는 챕터별로 자르는 기능은 지원하지 않으니 오른쪽 클릭 ⇨ 구간 설정 메뉴로 시작/종료를 직접 설정하셔야 합니다.

    아니면 Handbrake이나 VidCoder같이 챕터별 자르는 기능을 제공하는 소프트웨어를 쓰시는 게 편할 겁니다. (개인적으로는 하드웨어 인코딩도 가능한 VidCoder 추천)

     

    그렇게 동일한 설정으로 구간 분할해서 인코딩한 뒤 스트림 복사로 합치기 하시면 될 것 같네요.

    뭐, 이론상으론 그렇습니다.

  • ?
    용용이 2020.10.01 14:55
    조언 감사합니다.
    DVD 이미지 원본파일도 2000년대에 만들어진거라 인터레이스 표시가 엉터리인가 생각도 했습니다.

    그리고 챕터별로 인터레이스가 바뀌는게 아니라 컷에 따라 프레임이 p, i, ib로 바뀝니다.
    챕터를 나눠서 인코딩하기보다 초단위로 하나하나 찾아서해야하는거라 시간대비 너무 비효율적입니다.

    결론은 "yadif=0:-1:0"를 "yadif=0:-1:1"로 인코딩하려합니다.
    구 DVD 파일은 만질 때마다 힘든 것 같습니다. 표준회된 BD가 너무 좋아요.

List of Articles
No. Category Subject Author Date Views Votes
Notice 샤나인코더 통합 검색 기능 개선(샤나인코더 우측 상단에 있는 검색창을 사용해 보세요.) Rina 2021.09.30 7958 2
Notice 자유게시판에서는 자유롭게 글을 작성할 수 있지만 다음과 같은 내용은 삭제돼요 Rina 2020.03.18 8230 3
Notice 일반 [필독] 질문 전에 반드시 읽으세요!!! 3 file JKyle 2019.09.16 19833 6
Notice 일반 [알림] 질문 먹튀하지 마시기 바랍니다 => 본문 변경 금지 20 JKyle 2018.10.12 17189 14
» 질문 DVD 원본파일이 p, i, ib가 섞였는데 어떻게 인코딩하나요? 2 file 용용이 2020.09.30 455 0
721 질문 영상 자막과 인코딩 하려는데 1초도 안지나서 오류가 뜨네요 1 EXIA 2020.12.24 532 0
720 질문 MP4 (h264)의 최대 크기 해상도 4 호크니 2022.05.25 880 0
719 질문 영상 촬영 후 합치기를 하면 영상과 음성이 맞지 않아 문의드립니다. 1 file 원수학 2020.04.02 859 0
718 질문 적절한 프리셋 설정 어떻하면 좋을까요? 1 머찌군 2020.04.17 938 0
717 질문 화질 음질 손상 없이 인코딩하는 방법. 1 ZeuS 2020.05.29 1619 0
716 질문 샤나인코더는 오디오 VBR(가변 모드) 인코딩을 지원하지 않나요? 2 Kotori 2020.09.26 894 0
715 질문 인코딩오류 dhdh1478 2022.02.12 855 0
714 질문 재생할수 없는 파일 문의 1 영화조아서 2022.08.24 324 0
713 질문 구간 설정 싱크 오류 1 랄룰 2022.11.18 389 0
712 질문 AVI 파일의 일부를 잘라내려고 합니다. 1 CrazyIvan 2022.12.02 171 0
711 질문 다른분들보면 오디오코덱 aac 사용하시던데 저는 안보이더라구요... 인코딩 초보인데 어캐해야 aac포멧 사용가능한가요? 2 석두 2020.06.02 1274 0
710 질문 skm 파일 인코딩 시 오디오 누락됨 file 번개곰 2021.12.01 600 0
709 질문 인코딩 후 화질 저하가 심합니다 ㅠㅠ 2 file 꿈쟁이 2022.02.12 2187 0
708 질문 인코딩 설정 질문입니다. 1 와일즈 2020.03.29 949 0
707 질문 레터박스 없애는 방법이 이거 맞나요? 2 닉넴 2021.08.03 1957 0
706 질문 스마트tv 재생시 영상에 끊김현상이 생기는 원인이 뭔지 알고 싶습니다. 영화보자 2022.01.19 1135 0
705 질문 강의용 영상의 오디오 수정에 대하여 1 단지먼지 2020.09.04 568 0
704 질문 샤나인코더와 미디어 인코더의 프리셋 연동(혹은 동일한 설정)이 가능할까요? 원조양군 2020.11.25 409 0
703 질문 내장자막 이미지(vobsub) 영상에 자막 입히기 오류 1 everling 2021.02.04 816 0
Board Pagination Prev 1 2 3 4 5 6 7 8 9 10 ... 37 Next
/ 37