Skip to menu

본문시작



질문하기 전에 검색하세요(Search before asking a question)


?

Shortcut

PrevPrev Article

NextNext Article

Larger Font Smaller Font Up Down Go comment Print
?

Shortcut

PrevPrev Article

NextNext Article

Larger Font Smaller Font Up Down Go comment Print

스마트 tv : 삼성 un65mu6300 사용 

질문 :  영생 재생시 끊김 현상이 생기는 원인을 알고 싶습니다....

같은 usb에 영상 2개를 넣고 재생시 한개는 재생상 아무런 문제가 없으나 다른 영상은 재생시 끊김현상이 발생.

내가 생각한 문제와 해결책

1. hdr 문제 인가 ? 
- hdr둘다 적용되는것 같아서  아닌것 같음

2. 10bit 색상 컬러 문제인가 ?
-둘다 10bit 영상이라서  아닌것 같음

3. 파일 용량 문제인가?
- 재생이 잘되는 영상 파일용량이 더 높아서  아닌것 같음

4. 비트레이트 문제인가 ?
-재생이 잘되는 영상 비트레이트가 높아서  아닌것 같음.

5. 기타 포멧, 프레임레이트,가 문제인가 ? 
- 둘다 같은 포맷 과 프레임레이트라서 아닌것 같음.

6. 내가 찾아낸 두영상의 차이점.
-팟플레이어 정보로 보면 Bits/(Pixel*Frame) 및 Stream size 에 차이가 있음
-곰플레이어 정보로 보면  NUMBER_OF_FRAMES 및 BYTES에 차이가 있음


왜 두 영상중 한영상에만 스마트tv에서 usb로 재생시 끊김이 발생하는지 말해주실수 있을까요?.. 정말 알고 싶습니다. ㅜ.ㅜ


영상1 ( 재생이 잘되는 영상정보)

Format                         : Matroska
Format version                 : Version 4
File size                      : 1.90 GiB
Duration                       : 39 min 39 s
Overall bit rate               : 6 868 kb/s
Writing application            : mkvmerge v63.0.0 ('Everything') 64-bit
Writing library                : libebml v1.4.2 + libmatroska v1.6.4

Video
ID                             : 1
Format                         : HEVC
Format/Info                    : High Efficiency Video Coding
Format profile                 : Main 10@L4@Main
HDR format                     : SMPTE ST 2086, HDR10 compatible
Codec ID                       : V_MPEGH/ISO/HEVC
Duration                       : 38 min 19 s
Bit rate                       : 5 511 kb/s
Width                          : 1 920 pixels
Height                         : 1 080 pixels
Display aspect ratio           : 16:9
Frame rate mode                : Constant
Frame rate                     : 23.976 (24000/1001) FPS
Color space                    : YUV
Chroma subsampling             : 4:2:0 (Type 2)
Bit depth                      : 10 bits
Bits/(Pixel*Frame)             : 0.111
Stream size                    : 1.48 GiB (78%)

Default                        : Yes
Forced                         : No
Color range                    : Limited
Color primaries                : BT.2020
Transfer characteristics       : PQ
Matrix coefficients            : BT.2020 non-constant
Mastering display color primar : Display P3
Mastering display luminance    : min: 0.0001 cd/m2, max: 1000 cd/m2
Maximum Content Light Level    : 756 cd/m2
Maximum Frame-Average Light Le : 154 cd/m2


추가 곰플레이어 영상정보에서 봤을때 이부분도 차이가 남
NUMBER_OF_FRAMES                         : 224
NUMBER_OF_BYTES                          : 5541



영상2(재생시 끊김현상이 존재)


Format                         : Matroska
Format version                 : Version 4
File size                      : 1.69 GiB
Duration                       : 50 min 43 s
Overall bit rate               : 4 763 kb/s
Writing application            : mkvmerge v63.0.0 ('Everything') 64-bit
Writing library                : libebml v1.4.2 + libmatroska v1.6.4

Video
ID                             : 1
Format                         : HEVC
Format/Info                    : High Efficiency Video Coding
Format profile                 : Main 10@L4@Main
HDR format                     : SMPTE ST 2086, HDR10 compatible
Codec ID                       : V_MPEGH/ISO/HEVC
Duration                       : 49 min 38 s
Bit rate                       : 4 205 kb/s
Width                          : 1 920 pixels
Height                         : 1 080 pixels
Display aspect ratio           : 16:9
Frame rate mode                : Constant
Frame rate                     : 23.976 (24000/1001) FPS
Color space                    : YUV
Chroma subsampling             : 4:2:0 (Type 2)
Bit depth                      : 10 bits
Bits/(Pixel*Frame)             : 0.085
Stream size                    : 1.46 GiB (86%)

Default                        : Yes
Forced                         : No
Color range                    : Limited
Color primaries                : BT.2020
Transfer characteristics       : PQ
Matrix coefficients            : BT.2020 non-constant
Mastering display color primar : Display P3
Mastering display luminance    : min: 0.0001 cd/m2, max: 1000 cd/m2
Maximum Content Light Level    : 1565 cd/m2
Maximum Frame-Average Light Le : 237 cd/m2


추가 곰플레이어 영상정보에서 봤을때 이부분도 차이가 남
NUMBER_OF_FRAMES                         : 778
NUMBER_OF_BYTES                          : 28532

Facebook Twitter Pinterest Kakao

List of Articles
No. Category Subject Author Date Views Votes
Notice 샤나인코더 통합 검색 기능 개선(샤나인코더 우측 상단에 있는 검색창을 사용해 보세요.) Rina 2021.09.30 5291 2
Notice 자유게시판에서는 자유롭게 글을 작성할 수 있지만 다음과 같은 내용은 삭제돼요 Rina 2020.03.18 7802 3
Notice 일반 [필독] 질문 전에 반드시 읽으세요!!! 3 file JKyle 2019.09.16 18586 6
Notice 일반 [알림] 질문 먹튀하지 마시기 바랍니다 => 본문 변경 금지 19 JKyle 2018.10.12 16600 13
692 질문 DVD 원본파일이 p, i, ib가 섞였는데 어떻게 인코딩하나요? 2 file 용용이 2020.09.30 440 0
691 질문 영상 자막과 인코딩 하려는데 1초도 안지나서 오류가 뜨네요 1 EXIA 2020.12.24 510 0
690 질문 MP4 (h264)의 최대 크기 해상도 2 호크니 2022.05.25 767 0
689 질문 영상 촬영 후 합치기를 하면 영상과 음성이 맞지 않아 문의드립니다. 1 file 원수학 2020.04.02 799 0
688 질문 적절한 프리셋 설정 어떻하면 좋을까요? 1 머찌군 2020.04.17 859 0
687 질문 화질 음질 손상 없이 인코딩하는 방법. 1 ZeuS 2020.05.29 1583 0
686 질문 샤나인코더는 오디오 VBR(가변 모드) 인코딩을 지원하지 않나요? 2 Kotori 2020.09.26 852 0
685 질문 인코딩오류 dhdh1478 2022.02.12 807 0
684 질문 재생할수 없는 파일 문의 1 영화조아서 2022.08.24 234 0
683 질문 다른분들보면 오디오코덱 aac 사용하시던데 저는 안보이더라구요... 인코딩 초보인데 어캐해야 aac포멧 사용가능한가요? 2 석두 2020.06.02 1188 0
682 질문 skm 파일 인코딩 시 오디오 누락됨 file 번개곰 2021.12.01 532 0
681 질문 인코딩 후 화질 저하가 심합니다 ㅠㅠ 2 file 꿈쟁이 2022.02.12 2089 0
680 질문 인코딩 설정 질문입니다. 1 와일즈 2020.03.29 882 0
679 질문 레터박스 없애는 방법이 이거 맞나요? 2 닉넴 2021.08.03 1739 0
» 질문 스마트tv 재생시 영상에 끊김현상이 생기는 원인이 뭔지 알고 싶습니다. 영화보자 2022.01.19 948 0
677 질문 강의용 영상의 오디오 수정에 대하여 1 단지먼지 2020.09.04 536 0
676 질문 샤나인코더와 미디어 인코더의 프리셋 연동(혹은 동일한 설정)이 가능할까요? 원조양군 2020.11.25 368 0
675 질문 내장자막 이미지(vobsub) 영상에 자막 입히기 오류 1 everling 2021.02.04 772 0
674 질문 최대한 화질저하가 없이 인코딩이 가능한 프리셋 좀 부탁드려도 될까요..? 3 아렌티 2022.05.18 2375 0
673 질문 hdr ---> sdr로 인코딩 했는데 색이 너무 어둡게 나옵니다 2 file XTAXY 2022.08.02 391 0
Board Pagination Prev 1 2 3 4 5 6 7 8 9 10 ... 35 Next
/ 35