Skip to menu

본문시작



질문하기 전에 검색하세요(Search before asking a question)


질문
2021.10.17 12:54

vob 파일 인코딩이 안됩니다

Views 887 Votes 0 Comment 2
?

Shortcut

PrevPrev Article

NextNext Article

Larger Font Smaller Font Up Down Go comment Print Attachment
?

Shortcut

PrevPrev Article

NextNext Article

Larger Font Smaller Font Up Down Go comment Print Attachment

DVD에서 추출한 vob 파일이 인코딩 오류가 발생하고 인코딩되지 않습니다.

인코딩 정보

 

[원본]

General
Complete name                            : (파일이름.vob)
Format                                   : MPEG-PS
File size                                : 5.67 GiB
Duration                                 : 1 h 38 min
Overall bit rate mode                    : Variable
Overall bit rate                         : 8 216 kb/s

Video
ID                                       : 224 (0xE0)
Format                                   : MPEG Video
Format version                           : Version 2
Format profile                           : Main@Main
Format settings                          : CustomMatrix / BVOP
Format settings, BVOP                    : Yes
Format settings, Matrix                  : Custom
Format settings, GOP                     : M=3, N=15
Duration                                 : 1 h 38 min
Bit rate mode                            : Variable
Bit rate                                 : 7 220 kb/s
Maximum bit rate                         : 8 200 kb/s
Width                                    : 720 pixels
Height                                   : 480 pixels
Display aspect ratio                     : 16:9
Frame rate                               : 29.970 (30000/1001) FPS
Standard                                 : NTSC
Color space                              : YUV
Chroma subsampling                       : 4:2:0
Bit depth                                : 8 bits
Compression mode                         : Lossy
Bits/(Pixel*Frame)                       : 0.697
Time code of first frame                 : 10:00:05:01
Time code source                         : Group of pictures header
GOP, Open/Closed                         : Closed
Stream size                              : 4.98 GiB (88%)

Audio #1
ID                                       : 189 (0xBD)-128 (0x80)
Format                                   : AC-3
Format/Info                              : Audio Coding 3
Commercial name                          : Dolby Digital
Muxing mode                              : DVD-Video
Duration                                 : 1 h 38 min
Bit rate mode                            : Constant
Bit rate                                 : 448 kb/s
Channel(s)                               : 6 channels
Channel layout                           : L R C LFE Ls Rs
Sampling rate                            : 48.0 kHz
Frame rate                               : 31.250 FPS (1536 SPF)
Compression mode                         : Lossy
Delay relative to video                  : 82 ms
Stream size                              : 316 MiB (5%)
Service kind                             : Complete Main

Audio #2
ID                                       : 189 (0xBD)-129 (0x81)
Format                                   : AC-3
Format/Info                              : Audio Coding 3
Commercial name                          : Dolby Digital
Muxing mode                              : DVD-Video
Duration                                 : 1 h 38 min
Bit rate mode                            : Constant
Bit rate                                 : 192 kb/s
Channel(s)                               : 2 channels
Channel layout                           : L R
Sampling rate                            : 48.0 kHz
Frame rate                               : 31.250 FPS (1536 SPF)
Compression mode                         : Lossy
Delay relative to video                  : 84 ms
Stream size                              : 136 MiB (2%)
Service kind                             : Complete Main

Audio #3
ID                                       : 189 (0xBD)-130 (0x82)
Format                                   : AC-3
Format/Info                              : Audio Coding 3
Commercial name                          : Dolby Digital
Muxing mode                              : DVD-Video
Duration                                 : 1 h 38 min
Bit rate mode                            : Constant
Bit rate                                 : 192 kb/s
Channel(s)                               : 2 channels
Channel layout                           : L R
Sampling rate                            : 48.0 kHz
Frame rate                               : 31.250 FPS (1536 SPF)
Compression mode                         : Lossy
Delay relative to video                  : 86 ms
Stream size                              : 135 MiB (2%)
Service kind                             : Complete Main

Text #1
ID                                       : 189 (0xBD)-32 (0x20)
Format                                   : RLE
Format/Info                              : Run-length encoding
Muxing mode                              : DVD-Video

Text #2
ID                                       : 189 (0xBD)-33 (0x21)
Format                                   : RLE
Format/Info                              : Run-length encoding
Muxing mode                              : DVD-Video

Text #3
ID                                       : 189 (0xBD)-34 (0x22)
Format                                   : RLE
Format/Info                              : Run-length encoding
Muxing mode                              : DVD-Video

Text #4
ID                                       : 189 (0xBD)-35 (0x23)
Format                                   : RLE
Format/Info                              : Run-length encoding
Muxing mode                              : DVD-Video

Menu

자세한 정보

General
Count                                    : 331
Count of stream of this kind             : 1
Kind of stream                           : General
Kind of stream                           : General
Stream identifier                        : 0
Count of video streams                   : 1
Count of audio streams                   : 3
Count of text streams                    : 4
Count of menu streams                    : 1
Video_Format_List                        : MPEG Video
Video_Format_WithHint_List               : MPEG Video
Codecs Video                             : MPEG Video
Audio_Format_List                        : AC-3 / AC-3 / AC-3
Audio_Format_WithHint_List               : AC-3 / AC-3 / AC-3
Audio codecs                             : AC-3 / AC-3 / AC-3
Text_Format_List                         : RLE / RLE / RLE / RLE
Text_Format_WithHint_List                : RLE / RLE / RLE / RLE
Text codecs                              : RLE / RLE / RLE / RLE
Menu_Format_List                         : DVD-Video
Menu_Format_WithHint_List                : DVD-Video
Menu codecs                              : DVD-Video
Complete name                            : (파일이름.vob)
Folder name                              : (파일디렉토리)
File name extension                      : Tae.Guk.Gi.The.Brotherhood.of.War.2004.CD1.DVDRip.vob
File name                                : (파일이름)
File extension                           : vob
Format                                   : MPEG-PS
Format                                   : MPEG-PS
Format/Extensions usually used           : mpeg mpg m2p vob vro pss evo
Commercial name                          : MPEG-PS
Internet media type                      : video/MP2P
File size                                : 6090014720
File size                                : 5.67 GiB
File size                                : 6 GiB
File size                                : 5.7 GiB
File size                                : 5.67 GiB
File size                                : 5.672 GiB
Duration                                 : 5930091
Duration                                 : 1 h 38 min
Duration                                 : 1 h 38 min 50 s 91 ms
Duration                                 : 1 h 38 min
Duration                                 : 01:38:50.091
Duration                                 : 01:38:50;03
Duration                                 : 01:38:50.091 (01:38:50;03)
Overall bit rate mode                    : VBR
Overall bit rate mode                    : Variable
Overall bit rate                         : 8215745
Overall bit rate                         : 8 216 kb/s
Frame rate                               : 29.970
Frame rate                               : 29.970 FPS
Frame count                              : 177725
Stream size                              : 122226618
Stream size                              : 117 MiB (2%)
Stream size                              : 117 MiB
Stream size                              : 117 MiB
Stream size                              : 117 MiB
Stream size                              : 116.6 MiB
Stream size                              : 117 MiB (2%)
Proportion of this stream                : 0.02007
File creation date                       : UTC 2021-10-12 11:26:49.862
File creation date (local)               : 2021-10-12 20:26:49.862
File last modification date              : UTC 2021-10-12 10:56:32.661
File last modification date (local)      : 2021-10-12 19:56:32.661

Video
Count                                    : 378
Count of stream of this kind             : 1
Kind of stream                           : Video
Kind of stream                           : Video
Stream identifier                        : 0
FirstPacketOrder                         : 0
ID                                       : 224
ID                                       : 224 (0xE0)
Format                                   : MPEG Video
Format                                   : MPEG Video
Commercial name                          : MPEG-2 Video
Format version                           : Version 2
Format profile                           : Main@Main
Format settings                          : CustomMatrix / BVOP
Format settings, BVOP                    : Yes
Format settings, BVOP                    : Yes
Format settings, Matrix                  : Custom
Format settings, Matrix                  : Custom
Format_Settings_Matrix_Data              : 10111112121213131313141414141415151515151516161616161616171717171717171718181819181818191A1A1A1A191B1B1B1B1B1C1C1C1C1E1E1E1F1F21
Format settings, GOP                     : M=3, N=15
Internet media type                      : video/MPV
Duration                                 : 5930091
Duration                                 : 1 h 38 min
Duration                                 : 1 h 38 min 50 s 91 ms
Duration                                 : 1 h 38 min
Duration                                 : 01:38:50.091
Duration                                 : 01:38:44:05
Duration                                 : 01:38:50.091 (01:38:44:05)
Bit rate mode                            : VBR
Bit rate mode                            : Variable
Bit rate                                 : 7220252
Bit rate                                 : 7 220 kb/s
Maximum bit rate                         : 8200000
Maximum bit rate                         : 8 200 kb/s
Width                                    : 720
Width                                    : 720 pixels
Height                                   : 480
Height                                   : 480 pixels
Sampled_Width                            : 720
Sampled_Height                           : 480
Pixel aspect ratio                       : 1.185
Display aspect ratio                     : 1.778
Display aspect ratio                     : 16:9
Frame rate                               : 29.970
Frame rate                               : 29.970 (30000/1001) FPS
FrameRate_Num                            : 30000
FrameRate_Den                            : 1001
Frame count                              : 177725
Standard                                 : NTSC
Color space                              : YUV
Chroma subsampling                       : 4:2:0
Chroma subsampling                       : 4:2:0
Bit depth                                : 8
Bit depth                                : 8 bits
Compression mode                         : Lossy
Compression mode                         : Lossy
Bits/(Pixel*Frame)                       : 0.697
Delay                                    : 233.566667
Delay                                    : 234 ms
Delay                                    : 234 ms
Delay                                    : 234 ms
Delay                                    : 00:00:00.234
Delay_DropFrame                          : No
Delay, origin                            : Container
Delay, origin                            : Container
Delay_Original                           : 36005033
Delay_Original                           : 10 h 0 min
Delay_Original                           : 10 h 0 min 5 s 33 ms
Delay_Original                           : 10 h 0 min
Delay_Original                           : 10:00:05.033
Delay_Original_Settings                  : drop_frame_flag=0 / closed_gop=1 / broken_link=0
Delay_Original_DropFrame                 : No
Delay_Original_Source                    : Stream
Time code of first frame                 : 10:00:05:01
Time code source                         : Group of pictures header
GOP, Open/Closed                         : Closed
GOP, Open/Closed                         : Closed
Stream size                              : 5352098886
Stream size                              : 4.98 GiB (88%)
Stream size                              : 5 GiB
Stream size                              : 5.0 GiB
Stream size                              : 4.98 GiB
Stream size                              : 4.985 GiB
Stream size                              : 4.98 GiB (88%)
Proportion of this stream                : 0.87883
Buffer size                              : 229376
intra_dc_precision                       : 10

Audio #1
Count                                    : 308
Count of stream of this kind             : 3
Kind of stream                           : Audio
Kind of stream                           : Audio
Stream identifier                        : 0
Stream identifier                        : 1
StreamOrder                              : 0
FirstPacketOrder                         : 1
ID                                       : 189-128
ID                                       : 189 (0xBD)-128 (0x80)
Format                                   : AC-3
Format                                   : AC-3
Format/Info                              : Audio Coding 3
Format/Url                               : https://en.wikipedia.org/wiki/AC3
Commercial name                          : Dolby Digital
Commercial name                          : Dolby Digital
Format settings, Endianness              : Big
Muxing mode                              : DVD-Video
Duration                                 : 5920096
Duration                                 : 1 h 38 min
Duration                                 : 1 h 38 min 40 s 96 ms
Duration                                 : 1 h 38 min
Duration                                 : 01:38:40.096
Duration                                 : 01:39:27:26
Duration                                 : 01:38:40.096 (01:39:27:26)
Bit rate mode                            : CBR
Bit rate mode                            : Constant
Bit rate                                 : 448000
Bit rate                                 : 448 kb/s
Channel(s)                               : 6
Channel(s)                               : 6 channels
Channel positions                        : Front: L C R, Side: L R, LFE
Channel positions                        : 3/2/0.1
Channel layout                           : L R C LFE Ls Rs
Samples per frame                        : 1536
Sampling rate                            : 48000
Sampling rate                            : 48.0 kHz
Samples count                            : 284164608
Frame rate                               : 31.250
Frame rate                               : 31.250 FPS (1536 SPF)
Frame count                              : 185003
Compression mode                         : Lossy
Compression mode                         : Lossy
Delay                                    : 315.677778
Delay                                    : 316 ms
Delay                                    : 316 ms
Delay                                    : 316 ms
Delay                                    : 00:00:00.316
Delay, origin                            : Container
Delay, origin                            : Container
Delay relative to video                  : 82
Delay relative to video                  : 82 ms
Delay relative to video                  : 82 ms
Delay relative to video                  : 82 ms
Delay relative to video                  : 00:00:00.082
Stream size                              : 331525376
Stream size                              : 316 MiB (5%)
Stream size                              : 316 MiB
Stream size                              : 316 MiB
Stream size                              : 316 MiB
Stream size                              : 316.2 MiB
Stream size                              : 316 MiB (5%)
Proportion of this stream                : 0.05444
Service kind                             : CM
Service kind                             : Complete Main
bsid                                     : 8
dialnorm                                 : -27
dialnorm                                 : -27 dB
compr                                    : 5.74
compr                                    : 5.74 dB
acmod                                    : 7
lfeon                                    : 1
dialnorm_Average                         : -27
dialnorm_Average                         : -27 dB
dialnorm_Minimum                         : -27
dialnorm_Minimum                         : -27 dB
dialnorm_Maximum                         : -27
dialnorm_Maximum                         : -27 dB
dialnorm_Count                           : 268
compr_Average                            : 0.80
compr_Average                            : 0.80 dB
compr_Minimum                            : -10.10
compr_Minimum                            : -10.10 dB
compr_Maximum                            : 5.74
compr_Maximum                            : 5.74 dB
compr_Count                              : 255
dynrng_Average                           : 6.59
dynrng_Average                           : 6.59 dB
dynrng_Minimum                           : -22.36
dynrng_Minimum                           : -22.36 dB
dynrng_Maximum                           : 22.76
dynrng_Maximum                           : 22.76 dB
dynrng_Count                             : 267

Audio #2
Count                                    : 309
Count of stream of this kind             : 3
Kind of stream                           : Audio
Kind of stream                           : Audio
Stream identifier                        : 1
Stream identifier                        : 2
StreamOrder                              : 0
FirstPacketOrder                         : 2
ID                                       : 189-129
ID                                       : 189 (0xBD)-129 (0x81)
Format                                   : AC-3
Format                                   : AC-3
Format/Info                              : Audio Coding 3
Format/Url                               : https://en.wikipedia.org/wiki/AC3
Commercial name                          : Dolby Digital
Commercial name                          : Dolby Digital
Format settings, Endianness              : Big
Muxing mode                              : DVD-Video
Duration                                 : 5920096
Duration                                 : 1 h 38 min
Duration                                 : 1 h 38 min 40 s 96 ms
Duration                                 : 1 h 38 min
Duration                                 : 01:38:40.096
Duration                                 : 01:39:27:26
Duration                                 : 01:38:40.096 (01:39:27:26)
Bit rate mode                            : CBR
Bit rate mode                            : Constant
Bit rate                                 : 192000
Bit rate                                 : 192 kb/s
Channel(s)                               : 2
Channel(s)                               : 2 channels
Channel positions                        : Front: L R
Channel positions                        : 2/0/0
Channel layout                           : L R
Samples per frame                        : 1536
Sampling rate                            : 48000
Sampling rate                            : 48.0 kHz
Samples count                            : 284164608
Frame rate                               : 31.250
Frame rate                               : 31.250 FPS (1536 SPF)
Frame count                              : 185003
Compression mode                         : Lossy
Compression mode                         : Lossy
Delay                                    : 317.633333
Delay                                    : 318 ms
Delay                                    : 318 ms
Delay                                    : 318 ms
Delay                                    : 00:00:00.318
Delay, origin                            : Container
Delay, origin                            : Container
Delay relative to video                  : 84
Delay relative to video                  : 84 ms
Delay relative to video                  : 84 ms
Delay relative to video                  : 84 ms
Delay relative to video                  : 00:00:00.084
Stream size                              : 142082304
Stream size                              : 136 MiB (2%)
Stream size                              : 136 MiB
Stream size                              : 136 MiB
Stream size                              : 136 MiB
Stream size                              : 135.5 MiB
Stream size                              : 136 MiB (2%)
Proportion of this stream                : 0.02333
Service kind                             : CM
Service kind                             : Complete Main
bsid                                     : 8
dialnorm                                 : -27
dialnorm                                 : -27 dB
compr                                    : 5.74
compr                                    : 5.74 dB
dsurmod                                  : 0
acmod                                    : 2
lfeon                                    : 0
dialnorm_Average                         : -27
dialnorm_Average                         : -27 dB
dialnorm_Minimum                         : -27
dialnorm_Minimum                         : -27 dB
dialnorm_Maximum                         : -27
dialnorm_Maximum                         : -27 dB
dialnorm_Count                           : 265
compr_Average                            : 1.18
compr_Average                            : 1.18 dB
compr_Minimum                            : -8.16
compr_Minimum                            : -8.16 dB
compr_Maximum                            : 5.74
compr_Maximum                            : 5.74 dB
compr_Count                              : 252
dynrng_Average                           : 10.32
dynrng_Average                           : 10.32 dB
dynrng_Minimum                           : -21.93
dynrng_Minimum                           : -21.93 dB
dynrng_Maximum                           : 22.44
dynrng_Maximum                           : 22.44 dB
dynrng_Count                             : 265

Audio #3
Count                                    : 311
Count of stream of this kind             : 3
Kind of stream                           : Audio
Kind of stream                           : Audio
Stream identifier                        : 2
Stream identifier                        : 3
StreamOrder                              : 0
FirstPacketOrder                         : 3
ID                                       : 189-130
ID                                       : 189 (0xBD)-130 (0x82)
Format                                   : AC-3
Format                                   : AC-3
Format/Info                              : Audio Coding 3
Format/Url                               : https://en.wikipedia.org/wiki/AC3
Commercial name                          : Dolby Digital
Commercial name                          : Dolby Digital
Format settings, Endianness              : Big
Muxing mode                              : DVD-Video
Duration                                 : 5920064
Duration                                 : 1 h 38 min
Duration                                 : 1 h 38 min 40 s 64 ms
Duration                                 : 1 h 38 min
Duration                                 : 01:38:40.064
Duration                                 : 01:39:27:25
Duration                                 : 01:38:40.064 (01:39:27:25)
Bit rate mode                            : CBR
Bit rate mode                            : Constant
Bit rate                                 : 192000
Bit rate                                 : 192 kb/s
Channel(s)                               : 2
Channel(s)                               : 2 channels
Channel positions                        : Front: L R
Channel positions                        : 2/0/0
Channel layout                           : L R
Samples per frame                        : 1536
Sampling rate                            : 48000
Sampling rate                            : 48.0 kHz
Samples count                            : 284163072
Frame rate                               : 31.250
Frame rate                               : 31.250 FPS (1536 SPF)
Frame count                              : 185002
Compression mode                         : Lossy
Compression mode                         : Lossy
Delay                                    : 319.588889
Delay                                    : 320 ms
Delay                                    : 320 ms
Delay                                    : 320 ms
Delay                                    : 00:00:00.320
Delay, origin                            : Container
Delay, origin                            : Container
Delay relative to video                  : 86
Delay relative to video                  : 86 ms
Delay relative to video                  : 86 ms
Delay relative to video                  : 86 ms
Delay relative to video                  : 00:00:00.086
Stream size                              : 142081536
Stream size                              : 135 MiB (2%)
Stream size                              : 135 MiB
Stream size                              : 135 MiB
Stream size                              : 135 MiB
Stream size                              : 135.5 MiB
Stream size                              : 135 MiB (2%)
Proportion of this stream                : 0.02333
Service kind                             : CM
Service kind                             : Complete Main
bsid                                     : 8
dialnorm                                 : -22
dialnorm                                 : -22 dB
compr                                    : -0.28
compr                                    : -0.28 dB
dynrng                                   : -18.20
dynrng                                   : -18.20 dB
dsurmod                                  : 0
acmod                                    : 2
lfeon                                    : 0
dialnorm_Average                         : -22
dialnorm_Average                         : -22 dB
dialnorm_Minimum                         : -22
dialnorm_Minimum                         : -22 dB
dialnorm_Maximum                         : -22
dialnorm_Maximum                         : -22 dB
dialnorm_Count                           : 266
compr_Average                            : 2.44
compr_Average                            : 2.44 dB
compr_Minimum                            : 0.53
compr_Minimum                            : 0.53 dB
compr_Maximum                            : 4.86
compr_Maximum                            : 4.86 dB
compr_Count                              : 235
dynrng_Average                           : 11.55
dynrng_Average                           : 11.55 dB
dynrng_Minimum                           : -23.30
dynrng_Minimum                           : -23.30 dB
dynrng_Maximum                           : 22.76
dynrng_Maximum                           : 22.76 dB
dynrng_Count                             : 266

Text #1
Count                                    : 238
Count of stream of this kind             : 4
Kind of stream                           : Text
Kind of stream                           : Text
Stream identifier                        : 0
Stream identifier                        : 1
StreamOrder                              : 0
FirstPacketOrder                         : 4
ID                                       : 189-32
ID                                       : 189 (0xBD)-32 (0x20)
Format                                   : RLE
Format                                   : RLE
Format/Info                              : Run-length encoding
Commercial name                          : RLE
Muxing mode                              : DVD-Video

Text #2
Count                                    : 238
Count of stream of this kind             : 4
Kind of stream                           : Text
Kind of stream                           : Text
Stream identifier                        : 1
Stream identifier                        : 2
StreamOrder                              : 0
FirstPacketOrder                         : 5
ID                                       : 189-33
ID                                       : 189 (0xBD)-33 (0x21)
Format                                   : RLE
Format                                   : RLE
Format/Info                              : Run-length encoding
Commercial name                          : RLE
Muxing mode                              : DVD-Video

Text #3
Count                                    : 238
Count of stream of this kind             : 4
Kind of stream                           : Text
Kind of stream                           : Text
Stream identifier                        : 2
Stream identifier                        : 3
StreamOrder                              : 0
FirstPacketOrder                         : 6
ID                                       : 189-34
ID                                       : 189 (0xBD)-34 (0x22)
Format                                   : RLE
Format                                   : RLE
Format/Info                              : Run-length encoding
Commercial name                          : RLE
Muxing mode                              : DVD-Video

Text #4
Count                                    : 238
Count of stream of this kind             : 4
Kind of stream                           : Text
Kind of stream                           : Text
Stream identifier                        : 3
Stream identifier                        : 4
StreamOrder                              : 0
FirstPacketOrder                         : 7
ID                                       : 189-35
ID                                       : 189 (0xBD)-35 (0x23)
Format                                   : RLE
Format                                   : RLE
Format/Info                              : Run-length encoding
Commercial name                          : RLE
Muxing mode                              : DVD-Video

Menu
Count                                    : 94
Count of stream of this kind             : 1
Kind of stream                           : Menu
Kind of stream                           : Menu
Stream identifier                        : 0
Format                                   : DVD-Video
Format                                   : DVD-Video
Commercial name                          : DVD-Video

MediaInfoLib - v19.09

 

[출력정보]

shana error.PNG

Atachment
Attachment '1'
Facebook Twitter Pinterest Kakao
  • ?
    kpneox 2021.10.22 00:16

    DVD는 복사 방지 기능을 가지고 있는 경우가 있습니다. MakeMKV를 이용해보시는건 어떤가요?

  • ?
    cookieleeuns 2021.10.26 10:13

    복사 방지 풀었습니다


List of Articles
No. Category Subject Author Date Views Votes
Notice 샤나인코더 통합 검색 기능 개선(샤나인코더 우측 상단에 있는 검색창을 사용해 보세요.) Rina 2021.09.30 5291 2
Notice 자유게시판에서는 자유롭게 글을 작성할 수 있지만 다음과 같은 내용은 삭제돼요 Rina 2020.03.18 7802 3
Notice 일반 [필독] 질문 전에 반드시 읽으세요!!! 3 file JKyle 2019.09.16 18584 6
Notice 일반 [알림] 질문 먹튀하지 마시기 바랍니다 => 본문 변경 금지 19 JKyle 2018.10.12 16600 13
2626 질문 한글자막 오류 질문합니다 ㅜㅜ 1 file RaM 2021.12.23 539 0
2625 질문 인코딩 완료파일 재생불가 1 무비홀릭 2021.12.23 567 0
2624 질문 동영상 합치기가 안돼요 2 file 손흥민 2021.12.22 891 0
2623 일반 인코더가 실행되지 않습니다. 1 베어허그 2021.12.21 479 0
2622 질문 샤나인코더로 인코팅 후 다빈치 리졸브로 불러들여지지가 않습니다. 2 튀밥 2021.12.21 534 0
2621 질문 Hdr을 Sdr로 톤 매핑은 어떤 기능인가요?? 2 quscjfan 2021.12.19 1949 0
2620 질문 오디오 싱크 안맞을때... 1 P군 2021.12.18 681 0
2619 질문 인코딩 하면 한자가 일부 안나옵니다 1 file 모노유키 2021.12.14 517 0
2618 질문 색상이 다르게 나옵니다 5 file 김발광 2021.12.13 654 0
2617 질문 이 오디오 코덱으로 인코딩 할수 있나요? 2 file 승쓰 2021.12.12 580 0
2616 질문 프로그래시브 영상을 인터레이스 영상으로 만들수 있나요 5 승쓰 2021.12.11 557 0
2615 질문 설치오류 아카이브 2021.12.09 688 0
2614 질문 비디오와 오디오를 다르게 입힐수 있나요? 3 제이y 2021.12.07 512 0
2613 질문 첫 프레임에 대표이미지 1장 삽입하고 싶습니다 1 file k70809010 2021.12.06 759 0
2612 질문 퀄리티 모드에서 최저 비트레이트 제한을 걸수 있을까요 3 미르 2021.12.04 693 0
2611 질문 기능 제안] 목록에서 선택 항목만 체크 혹은 해제 할 수 있으면 좋겠습니다. 냥바 2021.12.01 483 0
2610 질문 skm 파일 인코딩 시 오디오 누락됨 file 번개곰 2021.12.01 532 0
2609 질문 H264(NVENC) 시작과 동시에 오류가 납니다. 2 굿더잡 2021.11.30 1011 0
2608 질문 동영상 내장자막 문제 2 곰팅스 2021.11.30 893 0
2607 질문 인코딩시 소리를 변경 할 방법이 있나요?? 4 냥바 2021.11.30 553 0
Board Pagination Prev 1 ... 8 9 10 11 12 13 14 15 16 17 ... 144 Next
/ 144