메뉴 건너뛰기

본문시작



 

접속자 more

방문자

전체 : 12,497,684
오늘 : 18,792
어제 : 29,327
조회 수 16120 추천 수 0 댓글 22
?

단축키

Prev이전 문서

Next다음 문서

크게 작게 위로 아래로 댓글로 가기 인쇄
?

단축키

Prev이전 문서

Next다음 문서

크게 작게 위로 아래로 댓글로 가기 인쇄

2.1 버전까지 정상적이었던 x264 2패스 인코딩 시 첫 번째 패스의 속도 느림 문제가 수정되었습니다.

HThoreau님의 버그 리포트를 통해 빠르게 수정할 수 있었습니다.

감사합니다.


[추가내용]

2.10.1 버전 수정 안내

Open GOP 설정이 적용 안 되는 문제가 수정되었습니다.

  • ?
    관서 2014.12.22 16:07
    멋져용!!!
  • ?
    MakuSensei 2014.12.22 19:58

    Excelente programa :D 

    Hice un post en mi blogs para promocionar su aplicación https://makusensei.wordpress.com/2014/11/29/shanaencoder-excelente-convertidor-de-audio-y-video-multimedia/ ;)

  • ?
    小樱 2015.03.06 06:55
    http://bbs.itzmx.com/thread-7413-1-1.html
  • ?
    good 2014.12.23 23:01
    good
  • ?
    샤나사랑 2015.01.04 23:41
    다음팟, 곰인코더 써보았지만 정말 최고입니다 ^.^
    좋은 프로그램을 제공해주어서 고맙습니다 화이팅!!!
  • ?
    밀리언달러힙 2015.01.19 15:56
    안녕하세요. 덕분에 아주아주아주 잘쓰고 있는 유저 중 한사람입니다. 염치 불구 하지만 카피라이트를 넣을수 있는 탭도 있었으면 합니다. 혹시 적용 가능 할까요?
  • ?
    MELT 2015.02.02 14:12

    와우! 이제 샤나인코더 속도가 더 빨라졌겠네요! 언제나 좋은 프로그램 감사합니다!

  • ?
    Feilx 2015.02.07 22:13
    감사합니다! 좋은프로그램만들어주셔서 감사합니다!!! 자막합치기필요할려햇는데요 감사합니다~~!
  • ?
    Feilx 2015.02.07 22:13
    감사합니다! 좋은프로그램만들어주셔서 감사합니다!!! 자막합치기필요할려햇는데요 감사합니다~~!
  • ?
    감사감사 2015.02.11 10:24
    감사합니다 다음인코더 때문에 빡쳤던 마음을 이게 풀어주네요
    속도도 정말 빠르고 왜 이제야 이프로그램을 알았는지...ㅜㅜ
    정말 감사합니다
  • ?
    감사합니다. 2015.03.09 17:46
    Metadata:
    encoder : PotEncoder
    Duration: 01:55:25.17, start: 0.000000, bitrate: 2691 kb/s
    Stream #0:0: Video: h264 (avc1 / 0x31637661), 1280x720, 11.99 fps, 23.98 tbr, 23.98 tbn, 47.95 tbc
    Stream #0:1: Audio: aac ([255][0][0][0] / 0x00FF), 44100 Hz, stereo, fltp, 192 kb/s
    [AVFilterGraph @ 0440FF60] No such filter: 'shanacrop'
    Error opening filters!
    인코딩 오류가 발생했습니다.


    귀한 프로그램 잘 쓰고 있습니다.
    위와 같은 에러 메시지의 경우 무엇을 해주어야 인코딩이 가능할까요?
    아시는 분 댓글 달아주시면 감사하겠습니다.
  • ?
    세리스 에르네스 2015.03.15 17:33
    버전 업데이트 전엔 인코딩하면 전체 화면이었는데 업데이트 이후엔 중앙에 몰리고 주변은 싹 검정입니다. 어떻게 해야 합니까?
  • ?
    nyamoe 2015.03.16 01:27
    Want to be able to Resize filter add on nnedi3 (bing Translate)
  • ?
    사냐짜 2015.03.24 16:29
    항상 감사하게 쓰고있어요 ㅎ헤헤
  • ?
    Helri 2015.03.25 21:40
    인코딩시 가끔 오류가 생겨 인코딩 자체가 되지 않을 때가 있습니다.
    같은 영상으로 테스트로 다른 버전 및 다른 인코더로 인코딩시 문제 없이 인코딩이 되고요.
  • ?
    테유 2015.04.01 15:22
    포터블 버전 만들어줘영
  • ?
    T.G.T. 2015.05.14 12:58
    감사합니다.
  • ?
    태룡 2015.06.05 21:52
    샤나인코더 관련 ... 입니다...

    샤나인코더로 mkv 파일 인코딩 후 ftp 를 통해 컴퓨터 실시간 동영상 감상은 문제 없으나..

    같은 파일을 아이폰이나 아이패드로 볼 수 없을 정도로 끊깁니다..

    handbrake로 동일한 mkv를 인코딩 하면

    ftp를 통해 아이폰이나 아이패드로 영상을 감상하는데 전혀 문제가 없습니다..

    아이폰 6, 아이패드 에어2, 패드 2세대 패스 3세대 아이폰 5 테스트 해봤습니다...

    샤나 인코더를 통해 인코딩한 모든 파일이 같은 증상을 보이고 있고..

    ftp를 이용하는 다른 세명 모두 같은 증상을 보고 하고 있습니다.
  • ?
    감자 2015.06.07 00:48

    샤나인코더 2.10.1 설치과정에서 FFmpeg2.5.1.79 다운시 5개 미러서버에서 다운에러시 설치중단됩니다......이런 경우를 방지하고자 샤나 설치시 FFmpeg2.5.1.79 을 따로 미리 받아놓은 상태라면, 샤나와 같은 폴더에 FFmpeg2.5.1.79 파일의 존재 여부를 미리 확인해서 , 있으면 미러 서버에서 다운받는 과정을 생략하고 바로 설치되게끔 해주시면 좋겠습니다....


    [ 추가로 샤나인코더 2.10.1, FFmpeg2.5.1.79 파일을 각각 다운 가능하게금 올려주시면 감사하겠습니다...FFmpeg2.5.1.79을 ms프레임웍스4.5처럼 따로 다운 가능하게끔 ]

  • ?
    2015.06.10 04:14

    기존 파일의 비트레이트 보다 낮게 재인코딩시 최초 화질에 깍두기현상 생기네요....

    [ 참고로 비트레이트 3000짜리 파일을 2000 이하로 인코딩하니 깍두기현상[블럭노이즈]이 발생 - 파일을 클릭앤드롭해서 인코딩 시작하기를 클릭하면, 화면 우측 하단 사각검정화면의 노란진행선을 보면, 인코딩 시작시 최초 진행선이 내려갔다가[조금 아래에 있다가]  올라오면서 제 위치를 잡는 것으로보아 최초 인코딩시 불러오기할때 생기는 현상인듯]

  • ?
    깐퉁 2015.06.12 06:23
    자막 idx나 sub도 지원되게 업데이트 좀...
  • ?
    고릴라 2015.07.18 03:11
    저는 왜 설치를 했는데... 파일추가가 안될까요?
    지난번에 쓸때는 이상없었는데...
    윈도우 새로 설치하고 다시 설치하니.... 파일추가가 안됩니다
    왜 그런건가요?
    아니면 해결할수 있는 방법은 없나요?