Skip to menu

본문시작



질문하기 전에 검색하세요(Search before asking a question)


?

Shortcut

PrevPrev Article

NextNext Article

Larger Font Smaller Font Up Down Go comment Print
?

Shortcut

PrevPrev Article

NextNext Article

Larger Font Smaller Font Up Down Go comment Print

一个正常支持流媒体的文件

General
Complete name                  : W:\迅雷下载\incapsula CDN宣传PV,成康代言,速度与激情Overlay-No-CTA-or-Text.mp4
Format                         : MPEG-4
Format profile                 : Base Media / Version 2
Codec ID                       : mp42
File size                      : 38.1 MiB
Duration                       : 32s 658ms
Overall bit rate mode          : Variable
Overall bit rate               : 9 778 Kbps
Encoded date                   : UTC 2014-12-09 00:30:19
Tagged date                    : UTC 2014-12-09 00:30:19
㏕IM                            : 00:00:00:00
㏕SC                            : 24000
㏕SZ                            : 1001

Video
ID                             : 1
Format                         : AVC
Format/Info                    : Advanced Video Codec
Format profile                 : Main@L4.1
Format settings, CABAC         : Yes
Format settings, ReFrames      : 3 frames
Codec ID                       : avc1
Codec ID/Info                  : Advanced Video Coding
Duration                       : 32s 658ms
Bit rate mode                  : Variable
Bit rate                       : 9 772 Kbps
Maximum bit rate               : 12.0 Mbps
Width                          : 1 920 pixels
Height                         : 1 080 pixels
Display aspect ratio           : 16:9
Frame rate mode                : Constant
Frame rate                     : 23.976 fps
Standard                       : NTSC
Color space                    : YUV
Chroma subsampling             : 4:2:0
Bit depth                      : 8 bits
Scan type                      : Progressive
Bits/(Pixel*Frame)             : 0.197
Stream size                    : 38.0 MiB (100%)
Language                       : English
Encoded date                   : UTC 2014-12-09 00:30:19
Tagged date                    : UTC 2014-12-09 00:30:19






shana转码出来,无法进行流媒体播放,要等视频完全缓冲完毕后才能进行播放

  1. General
  2. Complete name                  : C:\Users\Administrator\Desktop\test.mp4
  3. Format                         : MPEG-4
  4. Format profile                 : Base Media
  5. Codec ID                       : isom
  6. File size                      : 18.8 MiB
  7. Duration                       : 32s 658ms
  8. Overall bit rate               : 4 839 Kbps
  9. Writing application            : ShanaEncoder

  10. Video
  11. ID                             : 1
  12. Format                         : AVC
  13. Format/Info                    : Advanced Video Codec
  14. Format profile                 : Baseline@L4.0
  15. Format settings, CABAC         : No
  16. Format settings, ReFrames      : 3 frames
  17. Codec ID                       : avc1
  18. Codec ID/Info                  : Advanced Video Coding
  19. Duration                       : 32s 658ms
  20. Bit rate                       : 5 000 Kbps
  21. Width                          : 1 920 pixels
  22. Height                         : 1 080 pixels
  23. Display aspect ratio           : 16:9
  24. Frame rate mode                : Constant
  25. Frame rate                     : 23.976 fps
  26. Color space                    : YUV
  27. Chroma subsampling             : 4:2:0
  28. Bit depth                      : 8 bits
  29. Scan type                      : Progressive
  30. Bits/(Pixel*Frame)             : 0.101
  31. Stream size                    : 18.8 MiB (100%)
  32. Writing library                : x264 core 142
  33. Encoding settings              : opencl=1 / cabac=0 / ref=3 / deblock=1:0:0 / analyse=0x1:0x111 / me=hex / subme=7 / psy=1 / psy_rd=1.00:0.00 / mixed_ref=1 / me_range=16 / chroma_me=1 / trellis=1 / 8x8dct=0 / cqm=0 / deadzone=21,11 / fast_pskip=1 / chroma_qp_offset=-2 / threads=6 / lookahead_threads=1 / sliced_threads=0 / nr=0 / decimate=1 / interlaced=0 / bluray_compat=0 / constrained_intra=0 / bframes=0 / weightp=0 / keyint=250 / keyint_min=23 / scenecut=40 / intra_refresh=0 / rc_lookahead=40 / rc=abr / mbtree=1 / bitrate=5000 / ratetol=1.0 / qcomp=0.60 / qpmin=0 / qpmax=69 / qpstep=4 / ip_ratio=1.40 / aq=1:1.00
Facebook Twitter Pinterest Kakao
  • ?
    小樱 2015.04.14 04:03

    查了下视乎是metadata问题?如何解决?

  • ?
    이공이산 2015.04.15 22:47

    小樱,你好。我也是偶尔来这里学习incoding的shana用户。

    请问一下,我想通过torrent下载中国电视的饮食,文化和历史的高清视频。

    如果你知道能下载这种视频的中国torrent网页的话,请告诉我。

    eglee1130@gmail.com

  • ?
    小樱 2015.04.20 19:19
    我只知道一个动漫网站的torrent下载,关于饮食,文化和历史这类我是不大了解的。
    http://share.dmhy.org/

List of Articles
No. Subject Author Date Views Votes
26 ass的一个老问题,3.1并没有解决 小樱 2015.08.19 2659 0
25 ass滚动特效失效,输出的MP4视频无法特效 小樱 2015.05.01 2797 0
24 shana不支持N264格式的预览与转码,监控数据中心文件,potplayer可以正常播放 小樱 2015.04.20 2468 0
» shana转码出来的mp4格式文件不支持流媒体,是设置不对,需要如何设置? 3 小樱 2015.04.14 2993 0
22 字幕这能否显示详细一些? 小樱 2015.03.14 2425 0
21 MKV中多个Audio 音轨无法进行切换选择。(已解决) 小樱 2015.03.14 2605 0
20 265什么时候能支持GPU加速 2 小樱 2015.03.08 3332 0
19 shana默认是ref1 hex subme2 abr..- -如何切换 me=umh和 rc=crf 1 小樱 2015.03.08 2991 0
18 视乎使用GPU压制,视频开头一段画面都是非常模糊的。 小樱 2015.03.07 2810 0
17 视乎不支持srt字幕,只支持ass? 小樱 2015.03.07 2240 0
16 如何设置才能取得更好的画质。preset? 小樱 2015.03.07 3133 0
15 如何进行把两个或者多个视频进行合并成一个视频 小樱 2015.03.06 2619 0
14 这个视频转码的时候GUI会显示出错。反复跳动 小樱 2015.03.03 2410 0
13 如何使用固定码率,而不是平均码率?我想固定1700kbps 2 小樱 2015.03.03 2965 0
12 话说10bit不支持GPU转码,是硬件的不支持? 1 小樱 2015.03.02 2903 0
11 opencl没办法全速进行工作 1 小樱 2015.03.01 2747 0
10 拥有多显卡的情况,他是交错的。 小樱 2015.03.01 2292 0
9 FFmpeg 下载过程建议自动使用节点,或者自动切换,否者他是很慢的。 1 小樱 2015.02.27 2558 0
8 如何添加一个ASS字幕到视频内,并且不会被软件提取保存出来,MKV它是不可靠的 小樱 2015.02.26 2587 0
7 通过MKV封装格式直接转换,发现生成后的文件没有带字幕 1 小樱 2015.02.26 3912 0
Board Pagination Prev 1 2 3 4 Next
/ 4