Skip to menu

본문시작



질문하기 전에 검색하세요(Search before asking a question)


Views 1109 Votes 0 Comment 2
?

Shortcut

PrevPrev Article

NextNext Article

Larger Font Smaller Font Up Down Go comment Print Attachment
?

Shortcut

PrevPrev Article

NextNext Article

Larger Font Smaller Font Up Down Go comment Print Attachment

개발자님 고생하십니다 ㅠ ㅠ 예전에 자게에 문의글 남긴 적 있었는데, 댓글로 오류인 것 같다고 하셔서 글 올려봅니다.

 

1.png

이렇게 인코딩을 하려 했는데,

(비트레이트 30000, 용량 비슷하게)

 

 

출력 파일 정보는 아래와 같습니다 ㅠ ㅠ

 

General
Complete name                            : C:\Users\user\Desktop\
Format                                   : MPEG-PS
File size                                : 10.1 GiB
Duration                                 : 1 h 27 min
Overall bit rate mode                    : Variable
Overall bit rate                         : 16.5 Mb/s

Video
ID                                       : 224 (0xE0)
Format                                   : MPEG Video
Format version                           : Version 2
Format profile                           : Main@High
Format settings, BVOP                    : No
Format settings, Matrix                  : Default
Format settings, GOP                     : Variable
Duration                                 : 1 h 27 min
Bit rate mode                            : Variable
Bit rate                                 : 15.9 Mb/s
Width                                    : 1 920 pixels
Height                                   : 1 080 pixels
Display aspect ratio                     : 16:9
Frame rate                               : 29.970 (30000/1001) FPS
Color space                              : YUV
Chroma subsampling                       : 4:2:0
Bit depth                                : 8 bits
Scan type                                : Progressive
Compression mode                         : Lossy
Bits/(Pixel*Frame)                       : 0.256
Time code of first frame                 : 00:00:00:00
Time code source                         : Group of pictures header
GOP, Open/Closed                         : Open
GOP, Open/Closed of first frame          : Closed
Stream size                              : 9.68 GiB (96%)

Audio
ID                                       : 192 (0xC0)
Format                                   : MPEG Audio
Format version                           : Version 1
Format profile                           : Layer 2
Duration                                 : 1 h 27 min
Bit rate mode                            : Constant
Bit rate                                 : 320 kb/s
Channel(s)                               : 2 channels
Sampling rate                            : 48.0 kHz
Frame rate                               : 41.667 FPS (1152 SPF)
Compression mode                         : Lossy
Stream size                              : 200 MiB (2%)

 

자세한 정보

General
Count                                    : 331
Count of stream of this kind             : 1
Kind of stream                           : General
Kind of stream                           : General
Stream identifier                        : 0
Count of video streams                   : 1
Count of audio streams                   : 1
Video_Format_List                        : MPEG Video
Video_Format_WithHint_List               : MPEG Video
Codecs Video                             : MPEG Video
Audio_Format_List                        : MPEG Audio
Audio_Format_WithHint_List               : MPEG Audio
Audio codecs                             : MPEG Audio
Complete name                            : C:\Users\user\Desktop\
Folder name                              : C:\Users\user\Desktop
File name extension               
File extension                           : mpeg
Format                                   : MPEG-PS
Format                                   : MPEG-PS
Format/Extensions usually used           : mpeg mpg m2p vob vro pss evo
Commercial name                          : MPEG-PS
Internet media type                      : video/MP2P
File size                                : 10824060928
File size                                : 10.1 GiB
File size                                : 10 GiB
File size                                : 10 GiB
File size                                : 10.1 GiB
File size                                : 10.08 GiB
Duration                                 : 5238066
Duration                                 : 1 h 27 min
Duration                                 : 1 h 27 min 18 s 66 ms
Duration                                 : 1 h 27 min
Duration                                 : 01:27:18.066
Duration                                 : 01:27:18;03
Duration                                 : 01:27:18.066 (01:27:18;03)
Overall bit rate mode                    : VBR
Overall bit rate mode                    : Variable
Overall bit rate                         : 16531385
Overall bit rate                         : 16.5 Mb/s
Frame rate                               : 29.970
Frame rate                               : 29.970 FPS
Frame count                              : 156985
Stream size                              : 215389973
Stream size                              : 205 MiB (2%)
Stream size                              : 205 MiB
Stream size                              : 205 MiB
Stream size                              : 205 MiB
Stream size                              : 205.4 MiB
Stream size                              : 205 MiB (2%)
Proportion of this stream                : 0.01990
File creation date                       : UTC 2019-12-02 02:03:37.239
File creation date (local)               : 2019-12-02 11:03:37.239
File last modification date              : UTC 2019-12-02 13:45:12.241
File last modification date (local)      : 2019-12-02 22:45:12.241

Video
Count                                    : 378
Count of stream of this kind             : 1
Kind of stream                           : Video
Kind of stream                           : Video
Stream identifier                        : 0
StreamOrder                              : 0
FirstPacketOrder                         : 0
ID                                       : 224
ID                                       : 224 (0xE0)
Format                                   : MPEG Video
Format                                   : MPEG Video
Commercial name                          : MPEG-2 Video
Format version                           : Version 2
Format profile                           : Main@High
Format settings, BVOP                    : No
Format settings, BVOP                    : No
Format settings, Matrix                  : Default
Format settings, Matrix                  : Default
Format settings, GOP                     : Variable
Internet media type                      : video/MPV
Duration                                 : 5238066
Duration                                 : 1 h 27 min
Duration                                 : 1 h 27 min 18 s 66 ms
Duration                                 : 1 h 27 min
Duration                                 : 01:27:18.066
Duration                                 : 01:27:12:25
Duration                                 : 01:27:18.066 (01:27:12:25)
Bit rate mode                            : VBR
Bit rate mode                            : Variable
Bit rate                                 : 15882410
Bit rate                                 : 15.9 Mb/s
Width                                    : 1920
Width                                    : 1 920 pixels
Height                                   : 1080
Height                                   : 1 080 pixels
Sampled_Width                            : 1920
Sampled_Height                           : 1080
Pixel aspect ratio                       : 1.000
Display aspect ratio                     : 1.778
Display aspect ratio                     : 16:9
Frame rate                               : 29.970
Frame rate                               : 29.970 (30000/1001) FPS
FrameRate_Num                            : 30000
FrameRate_Den                            : 1001
Frame count                              : 156985
Color space                              : YUV
Chroma subsampling                       : 4:2:0
Chroma subsampling                       : 4:2:0
Bit depth                                : 8
Bit depth                                : 8 bits
Scan type                                : Progressive
Scan type                                : Progressive
Compression mode                         : Lossy
Compression mode                         : Lossy
Bits/(Pixel*Frame)                       : 0.256
Delay                                    : 533.366667
Delay                                    : 533 ms
Delay                                    : 533 ms
Delay                                    : 533 ms
Delay                                    : 00:00:00.533
Delay_DropFrame                          : No
Delay, origin                            : Container
Delay, origin                            : Container
Delay_Original                           : 0
Delay_Original                           : 00:00:00.000
Delay_Original_Settings                  : drop_frame_flag=0 / closed_gop=1 / broken_link=0
Delay_Original_DropFrame                 : No
Delay_Original_Source                    : Stream
Time code of first frame                 : 00:00:00:00
Time code source                         : Group of pictures header
GOP, Open/Closed                         : Open
GOP, Open/Closed                         : Open
GOP, Open/Closed of first frame          : Closed
GOP, Open/Closed of first frame          : Closed
Stream size                              : 10399149995
Stream size                              : 9.68 GiB (96%)
Stream size                              : 10 GiB
Stream size                              : 9.7 GiB
Stream size                              : 9.68 GiB
Stream size                              : 9.685 GiB
Stream size                              : 9.68 GiB (96%)
Proportion of this stream                : 0.96074
Buffer size                              : 1067008
intra_dc_precision                       : 8

Audio
Count                                    : 280
Count of stream of this kind             : 1
Kind of stream                           : Audio
Kind of stream                           : Audio
Stream identifier                        : 0
StreamOrder                              : 1
FirstPacketOrder                         : 1
ID                                       : 192
ID                                       : 192 (0xC0)
Format                                   : MPEG Audio
Format                                   : MPEG Audio
Commercial name                          : MPEG Audio
Format version                           : Version 1
Format profile                           : Layer 2
Internet media type                      : audio/mpeg
Duration                                 : 5238024
Duration                                 : 1 h 27 min
Duration                                 : 1 h 27 min 18 s 24 ms
Duration                                 : 1 h 27 min
Duration                                 : 01:27:18.024
Duration                                 : 01:26:36:19
Duration                                 : 01:27:18.024 (01:26:36:19)
Bit rate mode                            : CBR
Bit rate mode                            : Constant
Bit rate                                 : 320000
Bit rate                                 : 320 kb/s
Channel(s)                               : 2
Channel(s)                               : 2 channels
Samples per frame                        : 1152
Sampling rate                            : 48000
Sampling rate                            : 48.0 kHz
Samples count                            : 251425152
Frame rate                               : 41.667
Frame rate                               : 41.667 FPS (1152 SPF)
Frame count                              : 218251
Compression mode                         : Lossy
Compression mode                         : Lossy
Delay                                    : 533.366667
Delay                                    : 533 ms
Delay                                    : 533 ms
Delay                                    : 533 ms
Delay                                    : 00:00:00.533
Delay, origin                            : Container
Delay, origin                            : Container
Delay relative to video                  : 0
Delay relative to video                  : 00:00:00.000
Stream size                              : 209520960
Stream size                              : 200 MiB (2%)
Stream size                              : 200 MiB
Stream size                              : 200 MiB
Stream size                              : 200 MiB
Stream size                              : 199.8 MiB
Stream size                              : 200 MiB (2%)
Proportion of this stream                : 0.01936

MediaInfoLib - v19.09

 

 

 

 

 

 

 

 

 

 

 

 

 

 

 

 

 

 

 

 

 

 

입력했던 원본 파일 정보는 다음과 같구요.

 

 

General

Format                                   : MPEG-4
Format profile                           : Base Media / Version 2
Codec ID                                 : mp42 (isom/mp41/avc1)
File size                                : 18.5 GiB
Duration                                 : 1 h 27 min
Overall bit rate mode                    : Variable
Overall bit rate                         : 30.3 Mb/s
Encoded date                             : UTC 2019-06-04 21:52:27
Tagged date                              : UTC 2019-06-04 21:52:27
Writing library                          : Apple QuickTime

Video
ID                                       : 1
Format                                   : AVC
Format/Info                              : Advanced Video Codec
Format profile                           : High@L4.1
Format settings                          : CABAC / 2 Ref Frames
Format settings, CABAC                   : Yes
Format settings, Reference frames        : 2 frames
Codec ID                                 : avc1
Codec ID/Info                            : Advanced Video Coding
Duration                                 : 1 h 27 min
Bit rate                                 : 30.0 Mb/s
Width                                    : 1 920 pixels
Height                                   : 1 080 pixels
Display aspect ratio                     : 16:9
Frame rate mode                          : Constant
Frame rate                               : 29.970 (30000/1001) FPS
Color space                              : YUV
Chroma subsampling                       : 4:2:0
Bit depth                                : 8 bits
Scan type                                : Progressive
Bits/(Pixel*Frame)                       : 0.483
Stream size                              : 18.3 GiB (99%)
Language                                 : English
Encoded date                             : UTC 2019-06-04 21:52:27
Tagged date                              : UTC 2019-06-04 21:52:27
Color range                              : Limited
Color primaries                          : BT.709
Transfer characteristics                 : BT.709
Matrix coefficients                      : BT.709
mdhd_Duration                            : 5238066
Codec configuration box                  : avcC

Audio
ID                                       : 2
Format                                   : AAC LC
Format/Info                              : Advanced Audio Codec Low Complexity
Codec ID                                 : mp4a-40-2
Duration                                 : 1 h 27 min
Bit rate mode                            : Variable
Bit rate                                 : 320 kb/s
Maximum bit rate                         : 325 kb/s
Channel(s)                               : 2 channels
Channel layout                           : L R
Sampling rate                            : 48.0 kHz
Frame rate                               : 46.875 FPS (1024 SPF)
Compression mode                         : Lossy
Stream size                              : 200 MiB (1%)
Language                                 : English
Encoded date                             : UTC 2019-06-04 21:52:27
Tagged date                              : UTC 2019-06-04 21:52:27

Other #1
ID                                       : 3
Type                                     : Object description
Format                                   : System Core
Codec ID                                 : mp4s-02
Duration                                 : 1 h 27 min
Language                                 : English
Encoded date                             : UTC 2019-06-04 21:52:27
Tagged date                              : UTC 2019-06-04 21:52:27
mdhd_Duration                            : 1000

Other #2
ID                                       : 4
Type                                     : Scene description
Format                                   : System Core
Codec ID                                 : mp4s-02
Duration                                 : 1 h 27 min
Language                                 : English
Encoded date                             : UTC 2019-06-04 21:52:27
Tagged date                              : UTC 2019-06-04 21:52:27
mdhd_Duration                            : 1000

 

General
Count                                    : 331
Count of stream of this kind             : 1
Kind of stream                           : General
Kind of stream                           : General
Stream identifier                        : 0
Count of video streams                   : 1
Count of audio streams                   : 1
OtherCount                               : 2
Video_Format_List                        : AVC
Video_Format_WithHint_List               : AVC
Codecs Video                             : AVC
Video_Language_List                      : English
Audio_Format_List                        : AAC LC
Audio_Format_WithHint_List               : AAC LC
Audio codecs                             : AAC LC
Audio_Language_List                      : English
Other_Format_List                        : System Core / System Core
Other_Format_WithHint_List               : System Core / System Core
Other_Codec_List                         : System Core / System Core
Other_Language_List                      : English / English


File extension                           : mp4
Format                                   : MPEG-4
Format                                   : MPEG-4
Format/Extensions usually used           : braw mov mp4 m4v m4a m4b m4p m4r 3ga 3gpa 3gpp 3gp 3gpp2 3g2 k3g jpm jpx mqv ismv isma ismt f4a f4b f4v
Commercial name                          : MPEG-4
Format profile                           : Base Media / Version 2
Internet media type                      : video/mp4
Codec ID                                 : mp42
Codec ID                                 : mp42 (isom/mp41/avc1)
Codec ID/Url                             : http://www.apple.com/quicktime/download/standalone.html
CodecID_Compatible                       : isom/mp41/avc1
File size                                : 19856110726
File size                                : 18.5 GiB
File size                                : 18 GiB
File size                                : 18 GiB
File size                                : 18.5 GiB
File size                                : 18.49 GiB
Duration                                 : 5238066
Duration                                 : 1 h 27 min
Duration                                 : 1 h 27 min 18 s 66 ms
Duration                                 : 1 h 27 min
Duration                                 : 01:27:18.066
Duration                                 : 01:27:18;03
Duration                                 : 01:27:18.066 (01:27:18;03)
Overall bit rate mode                    : VBR
Overall bit rate mode                    : Variable
Overall bit rate                         : 30325866
Overall bit rate                         : 30.3 Mb/s
Frame rate                               : 29.970
Frame rate                               : 29.970 FPS
Frame count                              : 156985
Stream size                              : 2661785
Stream size                              : 2.54 MiB (0%)
Stream size                              : 3 MiB
Stream size                              : 2.5 MiB
Stream size                              : 2.54 MiB
Stream size                              : 2.538 MiB
Stream size                              : 2.54 MiB (0%)
Proportion of this stream                : 0.00013
HeaderSize                               : 2661722
DataSize                                 : 19853449004
FooterSize                               : 0
IsStreamable                             : Yes
Encoded date                             : UTC 2019-06-04 21:52:27
Tagged date                              : UTC 2019-06-04 21:52:27
File creation date                       : UTC 2019-09-20 00:27:22.598
File creation date (local)               : 2019-09-20 09:27:22.598
File last modification date              : UTC 2019-09-20 02:53:55.827
File last modification date (local)      : 2019-09-20 11:53:55.827
Writing library                          : Apple QuickTime
Writing library                          : Apple QuickTime
Encoded_Library_Name                     : Apple QuickTime

Video
Count                                    : 379
Count of stream of this kind             : 1
Kind of stream                           : Video
Kind of stream                           : Video
Stream identifier                        : 0
StreamOrder                              : 0
ID                                       : 1
ID                                       : 1
Format                                   : AVC
Format                                   : AVC
Format/Info                              : Advanced Video Codec
Format/Url                               : http://developers.videolan.org/x264.html
Commercial name                          : AVC
Format profile                           : High@L4.1
Format settings                          : CABAC / 2 Ref Frames
Format settings, CABAC                   : Yes
Format settings, CABAC                   : Yes
Format settings, Reference frames        : 2
Format settings, Reference frames        : 2 frames
Internet media type                      : video/H264
Codec ID                                 : avc1
Codec ID/Info                            : Advanced Video Coding
Duration                                 : 5238066
Duration                                 : 1 h 27 min
Duration                                 : 1 h 27 min 18 s 66 ms
Duration                                 : 1 h 27 min
Duration                                 : 01:27:18.066
Duration                                 : 01:27:18;03
Duration                                 : 01:27:18.066 (01:27:18;03)
Bit rate                                 : 30001710
Bit rate                                 : 30.0 Mb/s
Width                                    : 1920
Width                                    : 1 920 pixels
Height                                   : 1080
Height                                   : 1 080 pixels
Stored_Height                            : 1088
Sampled_Width                            : 1920
Sampled_Height                           : 1080
Pixel aspect ratio                       : 1.000
Display aspect ratio                     : 1.778
Display aspect ratio                     : 16:9
Rotation                                 : 0.000
Frame rate mode                          : CFR
Frame rate mode                          : Constant
Frame rate                               : 29.970
Frame rate                               : 29.970 (30000/1001) FPS
FrameRate_Num                            : 30000
FrameRate_Den                            : 1001
Frame count                              : 156985
Color space                              : YUV
Chroma subsampling                       : 4:2:0
Chroma subsampling                       : 4:2:0
Bit depth                                : 8
Bit depth                                : 8 bits
Scan type                                : Progressive
Scan type                                : Progressive
Bits/(Pixel*Frame)                       : 0.483
Stream size                              : 19643887547
Stream size                              : 18.3 GiB (99%)
Stream size                              : 18 GiB
Stream size                              : 18 GiB
Stream size                              : 18.3 GiB
Stream size                              : 18.29 GiB
Stream size                              : 18.3 GiB (99%)
Proportion of this stream                : 0.98931
Language                                 : en
Language                                 : English
Language                                 : English
Language                                 : en
Language                                 : eng
Language                                 : en
Encoded date                             : UTC 2019-06-04 21:52:27
Tagged date                              : UTC 2019-06-04 21:52:27
colour_description_present               : Yes
colour_description_present_Source        : Stream
Color range                              : Limited
colour_range_Source                      : Stream
Color primaries                          : BT.709
colour_primaries_Source                  : Stream
Transfer characteristics                 : BT.709
transfer_characteristics_Source          : Stream
Matrix coefficients                      : BT.709
matrix_coefficients_Source               : Stream
mdhd_Duration                            : 5238066
Codec configuration box                  : avcC

Audio
Count                                    : 280
Count of stream of this kind             : 1
Kind of stream                           : Audio
Kind of stream                           : Audio
Stream identifier                        : 0
StreamOrder                              : 1
ID                                       : 2
ID                                       : 2
Format                                   : AAC
Format                                   : AAC LC
Format/Info                              : Advanced Audio Codec Low Complexity
Commercial name                          : AAC
Format_AdditionalFeatures                : LC
Codec ID                                 : mp4a-40-2
Duration                                 : 5238016
Duration                                 : 1 h 27 min
Duration                                 : 1 h 27 min 18 s 16 ms
Duration                                 : 1 h 27 min
Duration                                 : 01:27:18.016
Duration                                 : 01:27:04:04
Duration                                 : 01:27:18.016 (01:27:04:04)
Bit rate mode                            : VBR
Bit rate mode                            : Variable
Bit rate                                 : 320066
Bit rate                                 : 320 kb/s
Maximum bit rate                         : 325480
Maximum bit rate                         : 325 kb/s
Channel(s)                               : 2
Channel(s)                               : 2 channels
Channel positions                        : Front: L R
Channel positions                        : 2/0/0
Channel layout                           : L R
Samples per frame                        : 1024
Sampling rate                            : 48000
Sampling rate                            : 48.0 kHz
Samples count                            : 251424768
Frame rate                               : 46.875
Frame rate                               : 46.875 FPS (1024 SPF)
Frame count                              : 245532
Compression mode                         : Lossy
Compression mode                         : Lossy
Stream size                              : 209561394
Stream size                              : 200 MiB (1%)
Stream size                              : 200 MiB
Stream size                              : 200 MiB
Stream size                              : 200 MiB
Stream size                              : 199.9 MiB
Stream size                              : 200 MiB (1%)
Proportion of this stream                : 0.01055
Language                                 : en
Language                                 : English
Language                                 : English
Language                                 : en
Language                                 : eng
Language                                 : en
Encoded date                             : UTC 2019-06-04 21:52:27
Tagged date                              : UTC 2019-06-04 21:52:27

Other #1
Count                                    : 191
Count of stream of this kind             : 2
Kind of stream                           : Other
Kind of stream                           : Other
Stream identifier                        : 0
Stream identifier                        : 1
StreamOrder                              : 2
ID                                       : 3
ID                                       : 3
Type                                     : Object description
Format                                   : System Core
Format                                   : System Core
Commercial name                          : System Core
Codec ID                                 : mp4s-02
Duration                                 : 5238066
Duration                                 : 1 h 27 min
Duration                                 : 1 h 27 min 18 s 66 ms
Duration                                 : 1 h 27 min
Duration                                 : 01:27:18.066
Duration                                 : 01:27:18.066
Frame count                              : 1
Language                                 : en
Language                                 : English
Language                                 : English
Language                                 : en
Language                                 : eng
Language                                 : en
Encoded date                             : UTC 2019-06-04 21:52:27
Tagged date                              : UTC 2019-06-04 21:52:27
mdhd_Duration                            : 1000

Other #2
Count                                    : 191
Count of stream of this kind             : 2
Kind of stream                           : Other
Kind of stream                           : Other
Stream identifier                        : 1
Stream identifier                        : 2
StreamOrder                              : 3
ID                                       : 4
ID                                       : 4
Type                                     : Scene description
Format                                   : System Core
Format                                   : System Core
Commercial name                          : System Core
Codec ID                                 : mp4s-02
Duration                                 : 5238066
Duration                                 : 1 h 27 min
Duration                                 : 1 h 27 min 18 s 66 ms
Duration                                 : 1 h 27 min
Duration                                 : 01:27:18.066
Duration                                 : 01:27:18.066
Frame count                              : 1
Language                                 : en
Language                                 : English
Language                                 : English
Language                                 : en
Language                                 : eng
Language                                 : en
Encoded date                             : UTC 2019-06-04 21:52:27
Tagged date                              : UTC 2019-06-04 21:52:27
mdhd_Duration                            : 1000

MediaInfoLib - v19.09

 

 

 

 

감사합니다 ㅠ ㅠ 답변 기다리겠습니다

Atachment
Attachment '1'
Facebook Twitter Pinterest Kakao
  • ?
    Rina 2019.12.03 11:26

    샤나인코더에서 F8키를 눌러 매개변수의 인코딩 설정에서
    -minrate 30000k -maxrate 30000k -bufsize 30000k
    추가하세요. - 앞에는 한 칸 띄어야 합니다.

  • ?
    풀딱글루 2019.12.03 13:23
    그렇게 해볼게요!! 감사합니다

List of Articles
No. Category Subject Author Date Views Votes
Notice 자유게시판에서는 자유롭게 글을 작성할 수 있지만 다음과 같은 내용은 삭제돼요 Rina 2020.03.18 641 2
Notice 일반 [필독] 질문 전에 반드시 읽으세요!!! 2 file JKyle 2019.09.16 4884 3
Notice 일반 [알림] 질문 먹튀하지 마시기 바랍니다 => 본문 변경 금지 15 JKyle 2018.10.12 5916 9
2247 smi 업데이트 후 자막이 안나옵니다 4 은파 2020.01.02 161 0
2246 건의]샤나인코더에 동시인코딩 기능 넣어주면 안될까요? 3 file 그링 2020.01.02 272 0
2245 영상합칠때 오디오 관련 질문입니다 2 주파수사 2020.01.01 230 0
2244 노트북 덮개 닫으면 샤나인코더 멈춤 1 file 인코딩어린이 2019.12.26 203 0
2243 질문 인코딩 관련 질문좀 드리고 싶습니다. 2 코드 2020.09.20 331 0
2242 질문 ass자막 인코딩시 자막위치가 달라집니다 2 file phantom011 2020.09.27 165 0
2241 질문 샤나인코더는 오디오 VBR(가변 모드) 인코딩을 지원하지 않나요? 2 Kotori 2020.09.26 257 0
2240 질문 HEVC 인코딩 관하여 질문이 있습니다! 8 TheLazia 2020.09.25 377 0
2239 질문 가변 최대 프레임을 제한하는 방법이 무엇일까요? 4 file CubeMix 2020.09.25 143 0
2238 질문 음질에 관한 간단한 질문 1 ch4n 2020.09.24 168 0
2237 질문 -map 명령어 쓸 수 있게 해주세요 2 P군 2020.10.01 117 0
2236 질문 GTX 1660 이 NVENC 에서 1060 보다 성능이 오히려 떨어지나요 ?? 2 닐리리만보 2020.10.01 234 0
2235 질문 DVD 원본파일이 p, i, ib가 섞였는데 어떻게 인코딩하나요? 2 file 용용이 2020.09.30 100 0
2234 성탄 인사, 사이트 개편, 샤나인코더 기능 개선 아이디어... 2 JKyle 2019.12.25 119 0
2233 갑작스런 인코딩 오류.. 1 하늘 2019.12.18 360 0
2232 코덱 문외한... 초보 개발자입니다..... 스트리밍 코덱 질문 좀 드릴께요 ㅠ.ㅠ 2 인코더하수 2019.12.23 281 0
2231 gop 옵션을 설정해서 키프레임 간격을 10초 설정 값 질문? 1 미르 2019.12.16 399 0
2230 원본영상보다 높게 고정프레임을 설정하면 어떻게되나요? 4 인코딩어린이 2019.12.14 478 0
2229 mpeg ts파일 2 편집쟁이 2019.12.14 222 0
2228 혹시 맥os용 샤나인코더는 계획이 없으신가요?? 9 닉네임뭐할까 2019.12.13 1693 0
Board Pagination Prev 1 2 3 4 5 6 7 8 9 10 ... 118 Next
/ 118