Skip to menu

본문시작



질문하기 전에 검색하세요(Search before asking a question)


Views 1009 Votes 0 Comment 1
?

Shortcut

PrevPrev Article

NextNext Article

Larger Font Smaller Font Up Down Go comment Print
?

Shortcut

PrevPrev Article

NextNext Article

Larger Font Smaller Font Up Down Go comment Print

Mediainfo 정보입니다

General
Complete name                  : XXXX
Format                         : MPEG-4
Format profile                 : Base Media
Codec ID                       : isom (isom/avc1)
File size                      : 1.30 GiB
Duration                       : 1 h 15 min
Overall bit rate mode          : Variable
Overall bit rate               : 2 482 kb/s
Encoded date                   : UTC 2012-10-12 13:41:44
Tagged date                    : UTC 2012-10-12 13:41:44

Video
ID                             : 1
Format                         : AVC
Format/Info                    : Advanced Video Codec
Format profile                 : High@L4
Format settings, CABAC         : Yes
Format settings, ReFrames      : 4 frames
Codec ID                       : avc1
Codec ID/Info                  : Advanced Video Coding
Duration                       : 1 h 15 min
Bit rate                       : 2 386 kb/s
Maximum bit rate               : 15.2 Mb/s
Width                          : 1 920 pixels
Height                         : 1 080 pixels
Display aspect ratio           : 16:9
Frame rate mode                : Constant
Frame rate                     : 23.976 (24000/1001) FPS
Color space                    : YUV
Chroma subsampling             : 4:2:0
Bit depth                      : 8 bits
Scan type                      : Progressive
Bits/(Pixel*Frame)             : 0.048
Stream size                    : 1.25 GiB (96%)
Writing library                : x264 core 125 r2200 999b753
Encoding settings              : cabac=1 / ref=4 / deblock=1:0:0 / analyse=0x3:0x133 / me=umh / subme=9 / psy=1 / psy_rd=1.00:0.00 / mixed_ref=1 / me_range=16 / chroma_me=1 / trellis=2 / 8x8dct=1 / cqm=0 / deadzone=21,11 / fast_pskip=1 / chroma_qp_offset=-2 / threads=12 / lookahead_threads=2 / sliced_threads=0 / nr=0 / decimate=1 / interlaced=0 / bluray_compat=0 / constrained_intra=0 / bframes=3 / b_pyramid=2 / b_adapt=2 / b_bias=2 / direct=3 / weightb=1 / open_gop=0 / weightp=2 / keyint=240 / keyint_min=23 / scenecut=40 / intra_refresh=0 / rc_lookahead=60 / rc=2pass / mbtree=1 / bitrate=2386 / ratetol=1.0 / qcomp=0.60 / qpmin=10 / qpmax=51 / qpstep=4 / cplxblur=20.0 / qblur=0.5 / ip_ratio=1.40 / aq=1:1.00
Encoded date                   : UTC 2012-10-12 13:41:44
Tagged date                    : UTC 2012-10-12 13:41:57

Audio
ID                             : 2
Format                         : AAC
Format/Info                    : Advanced Audio Codec
Format profile                 : LC
Codec ID                       : 40
Duration                       : 1 h 15 min
Bit rate mode                  : Variable
Bit rate                       : 92.0 kb/s
Maximum bit rate               : 100 kb/s
Channel(s)                     : 2 channels
Channel positions              : Front: L R
Sampling rate                  : 48.0 kHz
Frame rate                     : 46.875 FPS (1024 spf)
Compression mode               : Lossy
Stream size                    : 49.4 MiB (4%)
Language                       : English
Encoded date                   : UTC 2012-10-12 13:41:57
Tagged date                    : UTC 2012-10-12 13:41:57

 

이 설정을 그대로 샤나인코더로 가져오려면 어떻게 해야 하나요?

인코딩 설정: cabac=1 / ref=4 / deblock=1:0:0 / analyse=0x3:0x133 / me=umh / subme=9 / psy=1 / psy_rd=1.00:0.00 / mixed_ref=1 / me_range=16 / chroma_me=1 / trellis=2 / 8x8dct=1 / cqm=0 / deadzone=21,11 / fast_pskip=1 / chroma_qp_offset=-2 / threads=12 / lookahead_threads=2 / sliced_threads=0 / nr=0 / decimate=1 / interlaced=0 / bluray_compat=0 / constrained_intra=0 / bframes=3 / b_pyramid=2 / b_adapt=2 / b_bias=2 / direct=3 / weightb=1 / open_gop=0 / weightp=2 / keyint=240 / keyint_min=23 / scenecut=40 / intra_refresh=0 / rc_lookahead=60 / rc=2pass / mbtree=1 / bitrate=2386 / ratetol=1.0 / qcomp=0.60 / qpmin=10 / qpmax=51 / qpstep=4 / cplxblur=20.0 / qblur=0.5 / ip_ratio=1.40 / aq=1:1.00

그리고 가변 비트레이트로 인코딩 한 것 같은데요

최소 비트레이트가 2 386 kb/s, 최대 비트레이트가... 무려 15.2 Mb/s!!!

이 설정을 그대로 샤나 인코더로 가져 오는 방법 좀 알려주세요..

Facebook Twitter Pinterest Kakao
  • ?
    케닌 2017.01.05 21:53

    그냥 2386Kbps으로 2패스 돌린거 같네요


List of Articles
No. Category Subject Author Date Views Votes
Notice 자유게시판에서는 자유롭게 글을 작성할 수 있지만 다음과 같은 내용은 삭제돼요 Rina 2020.03.18 419 1
Notice 일반 [필독] 질문 전에 반드시 읽으세요!!!!!!!!! 2 file JKyle 2019.09.16 3422 3
Notice 일반 [알림] 질문 먹튀하지 마시기 바랍니다 => 본문 변경 금지 15 JKyle 2018.10.12 5430 7
2020 코덱정보질문입니다. file jysince1986 2015.02.25 330 0
2019 코덱설정 부분에 대한 질문 2 Sphinx01 2015.11.02 362 0
2018 코덱만 변환 인코딩시 대상파일 화질을 유지하고싶습니다. 4 컴쁑 2019.09.12 1133 0
2017 질문 코덱 자세한 설정 할수있는 창을 어떻게 불러내죠? 2 멘토 2020.03.13 200 0
2016 코덱 설정에서 프리셋 질문입니다 1 해피해피 2018.05.03 512 0
2015 코덱 설정 관련 이용자 2014.10.03 4123 0
2014 코덱 문외한... 초보 개발자입니다..... 스트리밍 코덱 질문 좀 드릴께요 ㅠ.ㅠ 2 인코더하수 2019.12.23 266 0
2013 컴업글 했는데 인코딩 속도가 크게는 안나네요 RTFM 2019.11.17 446 0
2012 컴맹 질문있습니다 6 file asfkl 2018.08.30 295 0
2011 커맨드라인도 되게 해주시면 감사하겠습니다. 2 짱구6 2013.08.16 14349 0
2010 캠코더 파일 DVD로 백업 해놓은 CD 추출 MKV 인코딩질문입니다. 1 김가불 2018.11.28 337 0
2009 칼라가 복잡하지 않은 화면에 효율적인 인코딩 설정이 있는지 궁금합니다. 1 file 워터2리터 2017.04.06 98 0
2008 카탈리스트 색감 세팅을 인코딩 시 적용할수없을까요 1 자아2 2016.03.12 264 0
2007 축구동영상 인코딩 질문. 4 talecue 2017.03.13 339 0
2006 추천하시는 CPU 좀 알려주세요 2 이미리아 2014.02.28 6030 0
2005 추천하는 필터 없나요 1 qwe 2013.09.06 11350 0
2004 최적의 인코딩 프리셋좀 알려주세요 3 난쟁이신사 2016.07.10 1753 0
2003 최적의 업스케일링 설정에 대해서 알려주셨으면 합니다. 2 LazyCat 2016.03.18 1329 0
» 최저용량 고화질 인코딩 부탁드립니다 1 CurePeace 2017.01.05 1009 0
2001 최신 업데이트후 '파일정보'가 안보입니다. 양지 2018.12.09 161 0
Board Pagination Prev 1 ... 7 8 9 10 11 12 13 14 15 16 ... 112 Next
/ 112