Skip to menu

본문시작



질문하기 전에 검색하세요(Search before asking a question)


Views 1753 Votes 0 Comment 3
?

Shortcut

PrevPrev Article

NextNext Article

Larger Font Smaller Font Up Down Go comment Print
?

Shortcut

PrevPrev Article

NextNext Article

Larger Font Smaller Font Up Down Go comment Print

인코딩 초보입니다.

입력 : mp4

비디오 : H264(AVC1), 1280*720 60fps 9970Kbps

오디오 : AAC, 48000Hz, 2Ch, 188Kbps

로 나옵니다.

용량은 28분 55초 기준 1.95GB입니다.

General
Complete name                            : C:\Users\User\Desktop\새로운작업\47-48\Encode_720P_128.mp4
Format                                   : MPEG-4
Format profile                           : Base Media
Codec ID                                 : isom
File size                                : 1.95 GiB
Duration                                 : 27mn 37s
Overall bit rate mode                    : Variable
Overall bit rate                         : 10.1 Mbps

Video
ID                                       : 2
Format                                   : AVC
Format/Info                              : Advanced Video Codec
Format profile                           : Baseline@L3.1
Format settings, CABAC                   : No
Format settings, ReFrames                : 1 frame
Format settings, GOP                     : M=1, N=120
Codec ID                                 : avc1
Codec ID/Info                            : Advanced Video Coding
Duration                                 : 27mn 37s
Bit rate                                 : 9 928 Kbps
Width                                    : 1 280 pixels
Height                                   : 720 pixels
Display aspect ratio                     : 16:9
Frame rate mode                          : Constant
Frame rate                               : 60.000 fps
Color space                              : YUV
Chroma subsampling                       : 4:2:0
Bit depth                                : 8 bits
Scan type                                : Progressive
Bits/(Pixel*Frame)                       : 0.180
Stream size                              : 1.92 GiB (98%)
Language                                 : English

Audio
ID                                       : 1
Format                                   : AAC
Format/Info                              : Advanced Audio Codec
Format profile                           : LC
Codec ID                                 : 40
Duration                                 : 27mn 37s
Bit rate mode                            : Variable
Bit rate                                 : 192 Kbps
Channel(s)                               : 2 channels
Channel positions                        : Front: L R
Sampling rate                            : 48.0 KHz
Compression mode                         : Lossy
Stream size                              : 37.2 MiB (2%)
Language                                 : English

 

[Ver. 2, 3, 4, 5256(KOR)]

*** DIRECTSHOW FILTER LIST ***
1. DirectSound Audio Renderer
2. Enhanced Video Renderer(CP)
3. Gretech Audio
4. Gretech Video
5. Microsoft DTV-DVD Audio Decoder
6. Gretech Source Filter(mp4)


*** VIDEO INFO ***
Input Type : AVC1
Input Size : 1280 x 720
Output Type : YV12
Output Size : 1280 x 720
Decoder Type : GVC
FrameRate(Frame/sec) : 0.00 (60.00)


*** AUDIO INFO ***
SampleRate(Sample/sec) : 48000
BitRate(Bit/sample) : 16
Channels : 2
KBitRate(KBit/sec) : 188

 

 

720P녹화된 영상인데

화질저하 없이..

용량을 낮추는 방법은 없을까요..?

파일이 너무 무거워서 힘이듭니다 ㅠㅠ

50분짜리로 Direct Stream Copy로 합치면 4기가가 넘습니다..

Facebook Twitter Pinterest Kakao
  • ?
    HThoreau 2016.07.11 00:22

    50분에 4G면 무모한 수준은 아니지만 인코딩 하시려는 해당 파일이 `제대로'

    인코딩한 파일이라고는 보기 어렵겠네요..

    원본 화질을 그나마 유지하고 용량을 낮추시려면 4500~5000정도 주시고

    인코딩 설정은 미디엄 이상으로 해주면 될 것 같습니다..

    (2pass를 걸만한 퀄리티인지는 본인이 판단하는게 맞을 듯)

     

    물론 화질이 어느정도인지 알 수 없으니 정답이라고는 보기어렵고

    애초에 좀 더 확실한 파일을 구하시는게 좋을 수도 있습니다..

  • ?
    난쟁이신사 2016.07.11 15:04
    인코딩한 파일이 아니라.. ㅠㅠ 녹화한 파일입니다. 게임캡쳐를 썻구요.. 720P 1080P 가능한데, 용량이 너무커서 720P를 썼어요..
    화면 밝기는 최대로 소리도 최고치로 하고 녹화하라는 설명이 있어 그렇게 했더니 용량이 저렇습니다.. ㅠㅠ
    인코딩하지 않은 원본 파일이구요..
    용량이 너무 커서 줄이려는데.. 화질이 너무 흐려져서요..;
    720P라 굉장히 선명한데 ㅜ_ㅜ..
    인코딩만 거치면 진짜 흐려지네요....
  • ?
    HThoreau 2016.07.11 17:02

    게임캡쳐를 어떤 방식으로 하시는지 몰라도(게임 녹화할 일이 없어서)

    캡쳐도 결국은 실시간 인코딩입니다..

    물론, 캡쳐본을 `원본'이라고 지칭하는 경향(케이블TV 캡쳐본도 이에 해당)도 없지는

    않지만 어디까지나 인코딩을 한번은 반드시 거친다는 사실은 변함이 없죠..

    (바로 저장할 수 있는 공중파 TP나 QAM은 이에 해당하지 않음)

     

    여기서 중요한 점은 이 파일이 원본이냐 아니냐가 아니라

    왜 적절히 인코딩하면 화질이 괜찮을 것 같은데 흐린 상태의 결과물이

    되느냐 하는 점일겁니다..

     

    현재 인코딩 설정을 프리셋으로 만들어 샤나게시판 파일첨부에 올려보시면 

    문제점을 알 수 있을지 모릅니다..

     

    그렇지만 720p정도면 인코딩할 경우 미세하게 흐릿해 지는 건 감수해야 하지

    않을까 싶기도 하네요...(어느정도 민감하신지 모르니)

     

    ps..어쩌피 용량이 커서 원 캡쳐본을 인코딩한후 지울 요량이시라면

          처음부터 1080p로 사양을 높여 캡쳐하는게 인코딩 후 퀄리티에도 도움이 될듯합니다..


List of Articles
No. Category Subject Author Date Views Votes
Notice 자유게시판에서는 자유롭게 글을 작성할 수 있지만 다음과 같은 내용은 삭제돼요 Rina 2020.03.18 419 1
Notice 일반 [필독] 질문 전에 반드시 읽으세요!!!!!!!!! 2 file JKyle 2019.09.16 3423 3
Notice 일반 [알림] 질문 먹튀하지 마시기 바랍니다 => 본문 변경 금지 15 JKyle 2018.10.12 5430 7
2020 코덱정보질문입니다. file jysince1986 2015.02.25 330 0
2019 코덱설정 부분에 대한 질문 2 Sphinx01 2015.11.02 362 0
2018 코덱만 변환 인코딩시 대상파일 화질을 유지하고싶습니다. 4 컴쁑 2019.09.12 1133 0
2017 질문 코덱 자세한 설정 할수있는 창을 어떻게 불러내죠? 2 멘토 2020.03.13 200 0
2016 코덱 설정에서 프리셋 질문입니다 1 해피해피 2018.05.03 512 0
2015 코덱 설정 관련 이용자 2014.10.03 4123 0
2014 코덱 문외한... 초보 개발자입니다..... 스트리밍 코덱 질문 좀 드릴께요 ㅠ.ㅠ 2 인코더하수 2019.12.23 266 0
2013 컴업글 했는데 인코딩 속도가 크게는 안나네요 RTFM 2019.11.17 446 0
2012 컴맹 질문있습니다 6 file asfkl 2018.08.30 295 0
2011 커맨드라인도 되게 해주시면 감사하겠습니다. 2 짱구6 2013.08.16 14349 0
2010 캠코더 파일 DVD로 백업 해놓은 CD 추출 MKV 인코딩질문입니다. 1 김가불 2018.11.28 337 0
2009 칼라가 복잡하지 않은 화면에 효율적인 인코딩 설정이 있는지 궁금합니다. 1 file 워터2리터 2017.04.06 98 0
2008 카탈리스트 색감 세팅을 인코딩 시 적용할수없을까요 1 자아2 2016.03.12 264 0
2007 축구동영상 인코딩 질문. 4 talecue 2017.03.13 339 0
2006 추천하시는 CPU 좀 알려주세요 2 이미리아 2014.02.28 6030 0
2005 추천하는 필터 없나요 1 qwe 2013.09.06 11350 0
» 최적의 인코딩 프리셋좀 알려주세요 3 난쟁이신사 2016.07.10 1753 0
2003 최적의 업스케일링 설정에 대해서 알려주셨으면 합니다. 2 LazyCat 2016.03.18 1329 0
2002 최저용량 고화질 인코딩 부탁드립니다 1 CurePeace 2017.01.05 1009 0
2001 최신 업데이트후 '파일정보'가 안보입니다. 양지 2018.12.09 161 0
Board Pagination Prev 1 ... 7 8 9 10 11 12 13 14 15 16 ... 112 Next
/ 112