Skip to menu

본문시작



질문하기 전에 검색하세요(Search before asking a question)


Views 6117 Votes 0 Comment 1
?

Shortcut

PrevPrev Article

NextNext Article

Larger Font Smaller Font Up Down Go comment Print Update Delete
?

Shortcut

PrevPrev Article

NextNext Article

Larger Font Smaller Font Up Down Go comment Print Update Delete

다음팟으로 날림 인코딩하고 있는데

 

1시간 기준 평균 1.7~1.8 기가 정도 나오고 있습니다.

 

아래는 제가 기존 작업하던 영상의 파일정보입니다..

 

===============================================

 

General
Complete name                  : F:\MBC 문화콘서트 난장\문화콘서트 난장.E243.121103.HDTV.H264.720P-Da_Mc (안녕바다, 어반자카파).avi
Format                         : AVI
Format/Info                    : Audio Video Interleave
Format profile                 : OpenDML
File size                      : 1.70 GiB
Duration                       : 1h 3mn
Overall bit rate               : 3 824 Kbps

Video
ID                             : 0
Format                         : AVC
Format/Info                    : Advanced Video Codec
Format profile                 : Baseline@L3.1
Format settings, CABAC         : No
Format settings, ReFrames      : 1 frame
Codec ID                       : H264
Duration                       : 1h 3mn
Bit rate                       : 3 490 Kbps
Width                          : 1 280 pixels
Height                         : 720 pixels
Display aspect ratio           : 16:9
Frame rate mode                : Variable
Frame rate                     : 29.970 fps
Color space                    : YUV
Chroma subsampling             : 4:2:0
Bit depth                      : 8 bits
Scan type                      : Progressive
Bits/(Pixel*Frame)             : 0.126
Stream size                    : 1.55 GiB (91%)

Audio
ID                             : 1
Format                         : MPEG Audio
Format version                 : Version 1
Format profile                 : Layer 3
Mode                           : Joint stereo
Mode extension                 : MS Stereo
Codec ID                       : 55
Codec ID/Hint                  : MP3
Duration                       : 1h 3mn
Bit rate mode                  : Constant
Bit rate                       : 320 Kbps
Channel(s)                     : 2 channels
Sampling rate                  : 48.0 KHz
Compression mode               : Lossy
Stream size                    : 146 MiB (8%)
Alignment                      : Aligned on interleaves
Interleave, duration           : 24 ms (0.72 video frame)
Writing library                : LAME3.98.2

 

==========================================

이정도 용량(혹은 2기가 미만으로) 프리셋 부탁드립니다. mkv에 음질은 저정도 수준이면됩니다..

제가 인코딩하는 방송들이 대부분 정적인 음악방송들이라서 화면이 심하게 깨지지는 않지만 다음팟으로 인코딩하면

조금 아쉽다 싶은 느낌이 있어서요..

 

부탁드리겠습니다.

Facebook Twitter Pinterest Kakao
  • ?
    HThoreau 2014.05.09 02:49

    음악방송은 2pass로 하시는게 좋습니다..(정적이라도)

    저도 불후의 명곡은 2pass로 합니다..


List of Articles
No. Category Subject Author Date Views Votes
Notice 자유게시판에서는 자유롭게 글을 작성할 수 있지만 다음과 같은 내용은 삭제돼요 Rina 2020.03.18 420 1
Notice 일반 [필독] 질문 전에 반드시 읽으세요!!!!!!!!! 2 file JKyle 2019.09.16 3431 3
Notice 일반 [알림] 질문 먹튀하지 마시기 바랍니다 => 본문 변경 금지 15 JKyle 2018.10.12 5432 7
2021 초보 사용자입니다. 1 타우너99 2014.05.07 6868 0
2020 (건의) 인코딩 완료시 소리로서 알려주는걸 추가해주실수 있나요? 1 소리 2014.04.30 5965 0
2019 샤나인코더 비트 2 고구마 2014.07.14 4808 0
2018 애니변환에 좋은 필터 없을까요 1 질문이에요 2014.05.09 5944 0
2017 샤나인코더 최신버전인 3.1 버전 이후에 관하여 요청사항이있습니다. 1 루루슈 2015.09.19 371 0
2016 flv 프리셋도 만들어주세요;; 1 민민가드 2014.05.09 5987 0
» 음악방송용 프리셋좀 부탁드립니다. 1 da_mc 2014.05.09 6117 0
2014 HThoreau님 질문드릴게 있는데요 5 데이크리 2014.05.03 5615 0
2013 mkv 파일 ssa 자막 강제적용 2 iop 2014.05.05 8227 0
2012 2audio에서 음성선택하여 인코딩할려면.. 4 Sive 2014.05.05 8171 0
2011 hthoreau님 도움 부탁해요!! 7 지나가던행인 2014.05.06 6065 0
2010 인코딩 완료 후 시스템 종료가 안 됩니다 3 다람군 2014.05.07 6693 0
2009 일괄 인코딩시에 각 파일별 설정상태확인이 힘들어요 1 JH 2014.09.20 4342 0
2008 아이리버 e100 프리셋 인코딩 동영상 기기에서 멈춤 2 e100 2014.07.22 4649 0
2007 화면비 질문입니다 5 사랑사녀 2014.05.10 6720 0
2006 60fps 인코딩 질문입니다. 6 hx2 2014.05.11 8401 0
2005 샤나인코더에서도 OpenCL 인코딩 가능한가요? 7 다람군 2014.05.12 7054 0
2004 2패스 사용하면 오류가 발생하네요 3 타키야스 2014.05.14 5208 0
2003 mp4에서 libfaac 오디오 코덱으로 인코딩시... 3 Arti 2014.05.11 5652 0
2002 저용량 고화질 인코딩의 비밀은 뭘까요??? 4 letscom 2014.05.16 10958 0
Board Pagination Prev 1 ... 7 8 9 10 11 12 13 14 15 16 ... 113 Next
/ 113