Skip to menu

본문시작



Views 326 Votes 0 Comment 1
?

Shortcut

PrevPrev Article

NextNext Article

Larger Font Smaller Font Up Down Go comment Print
?

Shortcut

PrevPrev Article

NextNext Article

Larger Font Smaller Font Up Down Go comment Print

General

Format                           : MPEG-PS  --> MPEG-TS

 

File size                        : 164 MiB

 

Duration                         : 50s 112ms

 

Overall bit rate                 : 27.5 Mbps --> 6Mbps 이하

 

 

 

Video

 

ID                               : 224 (0xE0)

 

Format                           : MPEG Video --> AVC (H.264)

 

Format version                   : Version 2

 

Format profile                   : High@High

 

Format settings, BVOP            : Yes

 

Format settings, Matrix          : Default

 

Format settings, GOP             : M=3, N=15

 

Duration                         : 49s 967ms

 

Bit rate mode                    : Variable -->  Constant

 

 

 

Bit rate                         : 26.6 Mbps -->  6Mbps 이하

 

Nominal bit rate                 : 100.0 Mbps

 

Width                            : 1 920 pixels

 

Height                           : 1 080 pixels

 

Display aspect ratio             : 16:9

 

Frame rate                       : 23.976 fps

 

Color space                      : YUV

 

Chroma subsampling               : 4:2:0

 

Bit depth                        : 8 bits

 

Scan type                        : Progressive --> MBAFF

 

Compression mode                 : Lossy

 

Bits/(Pixel*Frame)               : 0.536

 

Stream size                      : 159 MiB (97%)

 

 

 

Audio

 

ID                               : 192 (0xC0)

 

Format                           : MPEG Audio --> AC-3

 

Format version                   : Version 1

 

Format profile                   : Layer 2

 

Duration                         : 50s 112ms

 

Bit rate mode                    : Constant

 

Bit rate                         : 320 Kbps

 

Channel(s)                       : 2 channels

 

Sampling rate                    : 48.0 KHz

 

Compression mode                 : Lossy

 

Delay relative to video          : -83ms

 

Stream size                      : 1.91 MiB (1%)

 

 

 

 

 

 

파란색 글씨의 부분을 빨간색으로 수정해야하는데

가능할까요...? 여기저기 다 찾아다니는데 방법을 모르겠네요 ㅜㅜ

 

 

 

 

 

 


General

[1] Format                           : MPEG-PS  --> MPEG-TS

[2] Overall bit rate                 : 27.5 Mbps --> 6Mbps 이하

 

Video

[3] Format                           : MPEG Video --> AVC (H.264)

[4] Bit rate mode                    : Variable -->  Constant

 

[5] Bit rate                         : 26.6 Mbps -->  6Mbps 이하

[6] Scan type                        : Progressive --> MBAFF

 

Audio

[7] Format                           : MPEG Audio --> AC-3

 

 

요기서 4번 항목과 6번 항목에서 막혔습니다....

도움 좀 부탁드립니다..

Facebook Twitter Pinterest Kakao

List of Articles
No. Subject Author Last Update Views Votes
Notice [필독] 질문 전에 이 사항들을 꼭 지켜주십시오 2 file JKyle 2020.02.22 1706 2
Notice [알림] 질문 먹튀하지 마시기 바랍니다 13 JKyle 2020.02.13 4476 4
2042 닉네임 변경: sSTSs ⇒ JKyle 2 JKyle 2020.01.25 109 1
2041 대충 훑어보기가 가능한 플레이어가 있을까요..?? 1 마루PD 2020.01.25 184 0
2040 도움 부탁드립니다. 사이즈 변환과 레터박스 ㅠㅠ 2 탈진한병아리 2020.01.28 240 0
2039 오디오 관련 문제입니다 1 file qweqwe 2020.01.23 323 0
2038 오디오 설정 관련 질문입니다 3 캐미 2020.01.24 205 0
2037 게시판에서 코덱 라이브러리 가 안받아집니다. 2 냥바 2020.01.22 256 0
2036 5.0.03 으로 업그레이드 후 인코딩 속도 하락했는데 저만 그럴까요 2 팟수라네 2020.02.06 665 0
2035 5.0 업데이트 후 HEVC(NVENC) 인코딩 오류 2 제파 2020.01.21 816 0
2034 HDR 지원되는 영상 출력을 기본적으로 HDR 된상태의 화질로 인코딩 할수는 없나요??? 1 file 최후느 2020.01.20 262 0
2033 crop 필터 사용법을 잘몰라서 그러는데.. 1 GNaX 2020.01.19 185 0
2032 [해결] (이상 무!) ShanaEncoder5.0.0.3 버전 업데이트 이후 파일 불러오기가 안됩니다 7 디지탈로그 2020.02.04 376 0
2031 업데이트 후에 HEVC(NVENC) 인코딩이 안됩니다. 2 조토마테 2020.01.19 343 0
2030 백업목적으로 H.264 영상을 HEVC로 변환을 하는데 설정이 어렵네요 2 미키니아스 2020.01.17 773 0
2029 영상 합치기는 40개가 최대인가요? 9 치즈케잌 2020.01.15 277 0
2028 오디오와 화면의행동과 달라서 (싱크?문제) 질문드립니다. 3 캐미 2020.01.15 285 0
2027 AMD 노트북 Vega 8 모바일 그래픽인데요 h264_amf 가 안되는건가요? 1 P군 2020.01.15 165 0
2026 멀티 오디오 채널에서 Kor, Eng 라벨 지정할 수 없나요? 인코딩하면 자막, 오디오 채널 라벨이 지워져요.. 3 file gwck77 2020.01.16 204 0
» 샤나 인코더로 이런 설정도 가능할까요...? 1 스퍼스 2020.01.15 326 0
2024 안녕하세요 합치기에 대해 질문좀 드립니다 ^^ 1 가을낭만 2020.01.15 495 0
2023 심심해서 저번에 시간체크한거나 올려볼게요 냥인 2020.01.10 322 0
Board Pagination Prev 1 2 3 4 5 6 7 8 9 10 ... 105 Next
/ 105