인코딩 정보는 어떻게 얻었는데 프리셋 적용이 어렵네요....

by 태극랍스타 posted Mar 02, 2019
?

Shortcut

PrevPrev Article

NextNext Article

ESCClose

Larger Font Smaller Font Up Down Go comment Print

General
Writing application            : ShanaEncoder

 

Video
ID                             : 0
Format                         : AVC
Format/Info                    : Advanced Video Codec
Format profile                 : High@L5.1
Format settings                : CABAC / 8 Ref Frames
Format settings, CABAC         : Yes
Format settings, ReFrames      : 8 frames
Codec ID                       : H264
Duration                       : 24 min 0 s
Bit rate                       : 208 kb/s
Width                          : 720 pixels
Height                         : 406 pixels
Display aspect ratio           : 16:9
Frame rate mode                : Variable
Frame rate                     : 23.976 (24000/1001) FPS
Color space                    : YUV
Chroma subsampling             : 4:2:0
Bit depth                      : 8 bits
Scan type                      : Progressive
Bits/(Pixel*Frame)             : 0.030
Stream size                    : 35.6 MiB (73%)
Writing library                : x264 core 155 r2901 7d0ff22
Encoding settings              : opencl=1 / cabac=1 / ref=8 / deblock=1:1:1 / analyse=0x3:0x113 / me=umh / subme=7 / psy=0 / mixed_ref=1 / me_range=16 / chroma_me=1 / trellis=1 / 8x8dct=1 / cqm=0 / deadzone=21,11 / fast_pskip=0 / chroma_qp_offset=0 / threads=13 / lookahead_threads=2 / sliced_threads=0 / nr=0 / decimate=1 / interlaced=0 / bluray_compat=0 / constrained_intra=0 / bframes=16 / b_pyramid=2 / b_adapt=1 / b_bias=0 / direct=1 / weightb=1 / open_gop=0 / weightp=2 / keyint=250 / keyint_min=25 / scenecut=40 / intra_refresh=0 / rc_lookahead=40 / rc=crf / mbtree=1 / crf=26.0 / qcomp=0.60 / qpmin=0 / qpmax=69 / qpstep=4 / ip_ratio=1.40 / aq=1:0.60

 

Audio
ID                             : 1
Format                         : MPEG Audio
Format version                 : Version 1
Format profile                 : Layer 3
Format settings                : Joint stereo
Codec ID                       : 55
Codec ID/Hint                  : MP3
Duration                       : 24 min 0 s
Bit rate mode                  : Constant
Bit rate                       : 64.0 kb/s
Channel(s)                     : 2 channels
Sampling rate                  : 48.0 kHz
Compression mode               : Lossy
Stream size                    : 11.0 MiB (23%)
Alignment                      : Aligned on interleaves
Interleave, duration           : 24  ms (0.58 video frame)
Writing library                : LAME3.99

 

 

 

카카오 플레이어에서 재생정보 열어본뒤 거기서 파일정보 열어보면 설정값들이 나오는데

그걸 그대로 프리셋에 적용할수 있나요?

고급설정에서 찾아봐도 안보이는 항목도 많고 괜히 잘못 만졌다가 이상해질까봐...

 


Articles

6 7 8 9 10 11 12 13 14 15