Skip to menu

본문시작

방문자

Total : 8,548,891
today : 3,049
yesterday : 12,109

Pageview

Total : 50,714,208
today : 9,451
yesterday : 69,593


Views 14046 Votes 0 Comment 6
?

Shortcut

PrevPrev Article

NextNext Article

Larger Font Smaller Font Up Down Go comment Print
?

Shortcut

PrevPrev Article

NextNext Article

Larger Font Smaller Font Up Down Go comment Print

후기 작성에 앞서 프리셋을 공유해 주신 능소화님께 감사하다는 말 남깁니다. 그리고 제 하드웨어 사양은 i7, 램 8GB, ATi HD 7시리즈, 윈7 64bit입니다.


능소화님 프리셋을 사용해본 결과 느낀거지만 crf 특성상 저용량으로 인코딩되긴 하나 화질은 우수한 것 같습니다. 제가 인코딩한 영상은 1월29일자에 방영한 감격시대 입니다. 아래는 인코딩 정보입니다.




Format : Matroska
Format version : Version 4 / Version 2
File size : 658 MiB
Duration : 59mn 27s
Overall bit rate : 1 546 Kbps
Encoded date : UTC 2014-01-29 15:23:41
Writing library : Lavf55.21.100
Video #1
ID : 1
Format : AVC
Format/Info : Advanced Video Codec
Format profile : High@L4.1
Format settings, CABAC : Yes
Format settings, ReFrames : 4 frames
Codec ID : V_MPEG4/ISO/AVC
Duration : 59mn 27s
Bit rate : 1 323 Kbps
Width : 1 280 pixels
Height : 720 pixels
Display aspect ratio : 16:9
Frame rate mode : Constant
Frame rate : 29.970 fps
Color space : YUV
Chroma subsampling : 4:2:0
Bit depth : 8 bits
Scan type : Progressive
Bits/(Pixel*Frame) : 0.048
Stream size : 563 MiB (86%)
Writing library : x264 core 140
Encoding settings : cabac=1 / ref=5 / deblock=1:-3:-3 / analyse=0x3:0x113 / me=umh / subme=7 / psy=0 / mixed_ref=0 / me_range=32 / chroma_me=1 / trellis=2 / 8x8dct=1 / cqm=0 / deadzone=21,11 / fast_pskip=0 / chroma_qp_offset=0 / threads=8 / lookahead_threads=8 / sliced_threads=1 / slices=8 / nr=0 / decimate=0 / interlaced=0 / bluray_compat=1 / constrained_intra=0 / bframes=3 / b_pyramid=1 / b_adapt=2 / b_bias=0 / direct=1 / weightb=1 / open_gop=0 / weightp=1 / keyint=250 / keyint_min=1 / scenecut=40 / intra_refresh=0 / rc_lookahead=60 / rc=crf / mbtree=1 / crf=23.0 / qcomp=0.60 / qpmin=10 / qpmax=69 / qpstep=4 / ip_ratio=1.40 / aq=2:1.00
Language : Korean
Default : Yes
Forced : No
Audio #2
ID : 2
Format : AC-3
Format/Info : Audio Coding 3
Mode extension : CM (complete main)
Format settings, Endianness : Big
Codec ID : A_AC3
Duration : 59mn 27s
Bit rate mode : Constant
Bit rate : 192 Kbps
Channel(s) : 2 channels
Channel positions : Front: L R
Sampling rate : 48.0 KHz
Bit depth : 16 bits
Compression mode : Lossy
Delay relative to video : -172ms
Stream size : 81.6 MiB (12%)
Language : Korean
Default : Yes
Forced : No



용량은 657MB가 나왔습니다. 인코딩 시간은 정확하진 않지만 대략 1시간 12분 정도 소요된 것 같습니다. 용량대비 화질이 우수하나 아쉬운 점은 시간이 다소 많이 걸린게 아쉽습니다.


한릴의 경우 용량은 1.22GB, 다른 릴의 경우 1.36GB로써 대략 1기가 초반대를 유지하였습니다. 능소화님 프리셋의 경우 crf 23으로 인코딩하여 오버롤 비트레이트가 1546이 나왔고 다른 릴들은 2700~3000 비트레이트로 고정시켜 인코딩해서 용량의 차이가 나온 것 같습니다. 하지만 제가 인코딩한 영상의 질이 절대 떨어지는건 아니었습니다. 용량 대비 화질이 정말 훌륭하다 말씀드릴 수 있습니다. 오히려 다른 릴은 쓸대없이 용량이 많이 나오지 않았나 생각도 들긴 합니다.


다른 릴의 인코딩 정보를 함께 첨부해 놓도록 하겠습니다.


Format : MPEG-4
Format profile : Base Media
Codec ID : isom
File size : 1.36 GiB
Duration : 59mn 27s
Overall bit rate mode : Variable
Overall bit rate : 3 274 Kbps
Encoded date : UTC 2014-01-29 16:30:22
Tagged date : UTC 2014-01-29 16:32:22
Video #1
ID : 1
Format : AVC
Format/Info : Advanced Video Codec
Format profile : High@L3.1
Format settings, CABAC : Yes
Format settings, ReFrames : 4 frames
Codec ID : avc1
Codec ID/Info : Advanced Video Coding
Duration : 59mn 27s
Bit rate : 3 000 Kbps
Maximum bit rate : 16.9 Mbps
Width : 1 280 pixels
Height : 720 pixels
Display aspect ratio : 16:9
Frame rate mode : Constant
Frame rate : 23.976 fps
Color space : YUV
Chroma subsampling : 4:2:0
Bit depth : 8 bits
Scan type : Progressive
Bits/(Pixel*Frame) : 0.136
Stream size : 1.29 GiB (95%)
Writing library : x264 core 140 r2377 1ca7bb9
Encoding settings : cabac=1 / ref=4 / deblock=1:0:0 / analyse=0x3:0x113 / me=umh / subme=7 / psy=1 / psy_rd=1.00:0.00 / mixed_ref=1 / me_range=16 / chroma_me=1 / trellis=1 / 8x8dct=1 / cqm=0 / deadzone=21,11 / fast_pskip=1 / chroma_qp_offset=-2 / threads=6 / lookahead_threads=1 / sliced_threads=0 / nr=0 / decimate=1 / interlaced=0 / bluray_compat=0 / constrained_intra=0 / bframes=3 / b_pyramid=2 / b_adapt=1 / b_bias=0 / direct=1 / weightb=1 / open_gop=0 / weightp=2 / keyint=250 / keyint_min=23 / scenecut=40 / intra_refresh=0 / rc_lookahead=40 / rc=abr / mbtree=1 / bitrate=3000 / ratetol=10.0 / qcomp=0.60 / qpmin=0 / qpmax=69 / qpstep=4 / ip_ratio=1.40 / aq=1:1.00
Encoded date : UTC 2014-01-29 16:30:22
Tagged date : UTC 2014-01-29 16:31:18
Audio #2
ID : 2
Format : AAC
Format/Info : Advanced Audio Codec
Format profile : LC
Codec ID : 40
Duration : 59mn 27s
Bit rate mode : Variable
Bit rate : 155 Kbps
Maximum bit rate : 201 Kbps
Channel count : 2 channels
Channel positions : Front: L R
Sampling rate : 48.0 KHz
Compression mode : Lossy
Stream size : 66.0 MiB (5%)
Encoded date : UTC 2014-01-29 16:21:17
Tagged date : UTC 2014-01-29 16:31:18







그리고 파워디렉터로도 인코딩을 해봤습니다. 파워디렉터의 장점은 인코딩 시간이 16분 밖에 걸리지 않는 엄청난 스피드라는 점입니다. 비트레이트는 2500으로 고정시켰습니다. 용량은 1.12GB가 나와 능소화님 프리셋과 비교해 봤을때 용량은 더 컸지만 화질은 파워디렉터 결과물이 좋지 못했습니다. 뭔가 살짝 뿌옇다는 느낌이 들었습니다. 하지만 감상하는데 지장이 클 만큼의 나쁜 화질은 아니었습니다. 아래는 파워디렉터로 인코딩한 영상의 인코딩 정보입니다.



  General

    Format : Matroska

    Format version : Version 1

    File size : 1.13 GiB

    Duration : 59mn 26s

    Overall bit rate : 2 711 Kbps

    Writing application : Cyberlink Matroska Muxer v1.0.0

    Writing library : libebml v0.7.8 + libmatroska v0.8.1

  Video #1

    ID : 1

    Format : AVC

    Format/Info : Advanced Video Codec

    Format profile : Main@L3.1

    Format settings, CABAC : Yes

    Format settings, ReFrames : 1 frame

    Codec ID : V_MS/VFW/FOURCC / H264

    Duration : 59mn 26s

    Bit rate : 2 465 Kbps

    Width : 1 280 pixels

    Height : 720 pixels

    Display aspect ratio : 16:9

    Frame rate mode : Constant

    Frame rate : 29.970 fps

    Standard : NTSC

    Color space : YUV

    Chroma subsampling : 4:2:0

    Bit depth : 8 bits

    Scan type : Progressive

    Bits/(Pixel*Frame) : 0.089

    Stream size : 1.02 GiB (91%)

    Language : English

    Default : Yes

    Forced : No

    Color primaries : BT.601 NTSC

    Transfer characteristics : BT.601

    Matrix coefficients : BT.601

  Audio #2

    ID : 2

    Format : AC-3

    Format/Info : Audio Coding 3

    Mode extension : CM (complete main)

    Format settings, Endianness : Big

    Codec ID : A_AC3

    Duration : 59mn 26s

    Bit rate mode : Constant

    Bit rate : 192 Kbps

    Channel(s) : 2 channels

    Channel positions : Front: L R

    Sampling rate : 48.0 KHz

    Bit depth : 16 bits

    Compression mode : Lossy

    Delay relative to video : 13ms

    Stream size : 81.6 MiB (7%)

    Language : English

    Default : Yes

    Forced : No




///////////////////


이상 능소화님 프리셋의 간단하고 허접한 후기였습니다. 제가 인코딩에 지식이 얕아 자세한 후기를 쓸 수 없음을 양해바랍니다. 개인적인 욕심으로는 인코딩 속도만 좀 더 빠르게 할 수 있으면 어떨까 생각이 들었습니다. 


용량이 적게 차지 함에도 불구하고 화질은 다른 고 비트레이트의 릴들과 견주어도 절대로 뒤떨어진다고 할 수 없을 정도의 결과치가 나오기에 소장용으로는 용량과 화질 두 마리 토끼를 한번에 잡은 좋은 결과가 도출되었으나 인코딩 목적이 배포용일 때에는 시간만 조금 더 단축 시킨다면 괜찮을 것 같습니다.


제가 아직 인코딩 지식이 전무하기에 다른 고수분들의 견해를 듣고 싶네요.

  • ?
    HThoreau 2014.01.30 03:20

    제가 보기엔 이정도 화질로는 소장용으로 부족합니다..

    Hanrel릴은 원래 화질이 좋은 편은 아니니 소장용으로서 비교하기 부족하고

    프리셋대로 인코딩해보니 CPU도 100%로 올라기지 않네요..

     

    X264 고급설정에서 Misc-Input/Output

    Low-latency but lower-efficiency에 체크되어 있어서 CPU를 100%사용하지 않는것 같습니다..

    왜 여기에 체크되어 있는지 모르겠네요..(이 옵션차제를 사용해 본적이 없어서 CPU문제가

    반드시 이것 때문인지는 확신하기 어렵지만 B-frame optimal도 CPU에 관계 있는 부분이라..)

     

    어쨌든 저 같으면 그냥 720p니까 평범하게 인코딩 할것 같습니다..

    소장용이라면 1080p은 되야 하니까요..

  • ?
    초보인코더j 2014.01.30 11:46

    답글 감사합니다. 제가 하드 용량도 부족하고 막눈이라 용량이 적으면서 화질도 나쁘지 않아서 좋아보였는데 모자른 감이 있었나보네요. 어떻게 보면 타 릴과 비교해 봤을 때 상대적 우수함 때문일 수도 있겠구요.


    CPU를 최대한 활용할 수 있도록 설정을 수정해 봤으면 좋겠는데 Low-latency but lower-efficiency를 체크 해제하면 되는건가요? 인코딩 시간이 너무 오래 걸려서 자주 애용하진 못하겠더라구요. 


    /////


    위 항목을 체크 해제한 후 다시 인코딩 해 보니 CPU 사용률이 대략 60% 정도 밖에 안나오더라구요. CPU 사용률을 좀 더 끌어 올려서 인코딩 시간을 단축 시키고 싶은데 방법이 없을까요? 현재는 위 항목도 체크 해제하고 압축률도 전보다 한단계 정도 낮게 잡았더니 대략 46분 정도 시간이 걸리네요.


    배포되는 릴용 자료를 보면 2패스로 하는거 같던데 2패스로 어떻게 빨리 인코딩이 끝나는지 신기할 따름이네요. 변환속도가 1.3정도 나오는데 변환속도를 대폭 끌어올릴 방법은 없을까요?

  • profile
    능소화 2014.01.30 14:34

    초보 인코더 님께서 원하신 프리셋은

    멀티스레딩 지원및 [기본설정] 즉 빠르게 인코딩을 할수 있도록

    원하신 설정이었습니다

    고급화질 설정을 원하신것이 아니었죠

    고급화질 설정으로 인코딩하거나 1080p 설정을 하려면 값들 수정해서

    확인해보시면 차이가 나실것입니다.

    현재 올려드린 프리셋은 필터 값이나 옵션값이 빠진 설정입니다.

    그리고, Low-latency but lower-efficiency 값이 체크가 되어있었나요? ㅠㅠ

    체크 해제 해주시면됩니다.

     

  • ?
    HThoreau 2014.01.30 14:43

    일반적으로 보는 릴들은 대부분 1pass입니다..

    그리고 X264에서 자체적으로 제공하는 Medium프리셋 정도로 해도 충분하다고 봅니다..

    (리사이즈만 설정해 주고 나머지는 빌트인 프리셋으로 설정)

    각각의 파라메터가 무엇을 의미하는지 잘 모르는 상황에서 이것저것 건드리면 오히려

    퀄리티는 나빠지고 시간은 오래걸리게 되죠..

     

    사용하시는 시스템으로 720p를 인코딩 한다면 2배 속도 정도 나와줘도

    충분히 불만한 화질이 나올겁니다..

    (물론 비트레이트를 충분히 잡아줘야 함)

     

    너무 저용량으로 인코딩하려고 하다보면 시간대비 그다지 큰 효과를

    보기 어렵습니다..아무리 좋은 설정이라도 용량을 넘기 어려워요..

     

    제가 다시 체크 해봤는데 프리셋을 불러오고 바로 Low-latency but lower-efficiency만 끄니

    CPU 100%로 올라가는게 맞습니다..

     

    인코딩할때 CPU사용륭을 계속 체크해 보세요..

    CPU를 완벽하게 100%사용하는게 좋습니다..(그래프도 일정해야 함)

  • ?
    샤나 2014.02.03 21:59

    샤나인코더 정보가 사라져있어요. ㅠㅠ (국내 인코더 점유율 꼴지중에서 그나마 홍보하려고 알릴려고 넣었는데. ㅠㅠ)

  • ?
    초보인코더j 2014.02.06 00:52

    아.. 불필요한 정보를 일부러 삭제했던거 같네요 ;; 죄송합니다 ㅋㅋ


    따로 프로그램을 조작해서 샤나 정보를 안나오게끔 한건 아니예요 ㅋㅋ


    다음부턴 샤나쓸땐 인코딩정보 그대로 쓸게요


List of Articles
No. Subject Author Date Views Votes
Notice [알림] 질문하시기 전에 지켜주셨으면 하는 것들 2 file sSTSs 2019.09.16 783 1
Notice [알림] 질문 먹튀하지 마시기 바랍니다 9 sSTSs 2018.10.12 3639 2
Notice 자유게시판에서는 자유롭게 글을 올리고 질문 및 답변을 할 수 있는 공간입니다. 1 샤나 2017.03.13 2511 0
1935 Hi10P영상을 어떻게 해야 손실을 최소로 해서 8비트로 바꿀수있나요? 1 앤떱 2013.09.01 22723 0
1934 샤나 인코더에서 지원하지 못하는 코덱이 있습니다. 1 file 비듬맨 2013.09.06 21541 0
1933 자막 색상 적용 문제 1 ... 2014.04.15 17511 0
1932 동영상합치기 1 희망이 2013.09.22 17273 0
1931 기능 추가 되었으면 하는 것 적습니다. 1 슈크림 2013.08.08 15448 0
1930 확장자 avi 및 mp4 질문드립니다. 3 모모 2013.08.12 14893 0
1929 저번에도 질문했었지만 재차 질문좀 ! 1 오유 2013.08.11 14592 0
1928 매게변수 질문좀 드려도 될까요? 2 LEE 2013.08.09 14388 0
1927 ▶◀ K3G클럽에서 조문왔습니다 1 히넬 2013.09.13 14383 0
1926 커맨드라인도 되게 해주시면 감사하겠습니다. 2 짱구6 2013.08.16 14338 0
1925 감사합니다 1 ㅂㅈㄷ 2013.08.04 14283 0
1924 이제 avisynth 스크립트는 더이상 지원 계획이 없으신가요??? 1 비듬맨 2013.08.12 14264 0
1923 게시판 열어주셨네요 ^^ 1 이미리아 2013.08.07 14188 0
» 능소화님 프리셋 후기 6 초보인코더j 2014.01.30 14046 0
1921 3d 영상 및 자막 2 xviii 2013.09.02 13218 0
1920 디인터레이스 하면 줄이 이상해져요 9 file ㅂㅈㄷ 2013.12.30 13140 0
1919 인코딩 영상 합치면 오류가 납니다. 4 코드 2014.04.03 13126 0
1918 32비트 xp에 avisynth 2.5를 쓰는데 avs 스크립트가 추가 안됩니다. 1 비듬맨 2013.09.06 13108 0
1917 두 인코딩 셋팅 중 어느게 더 고화질 세팅인가요? 2 초보인코더j 2014.01.31 12801 0
1916 다음팟 인코더 쓰다 샤나인코더 씁니다. 좋아요. 3 Azooma 2014.01.29 12762 0
Board Pagination Prev 1 2 3 4 5 6 7 8 9 10 ... 97 Next
/ 97